osu file format v14

[General]
AudioFilename: -resolve-.mp3
AudioLeadIn: 0
PreviewTime: 18066
Countdown: 0
SampleSet: Soft
StackLeniency: 0.7
Mode: 0
LetterboxInBreaks: 0
WidescreenStoryboard: 0

[Editor]
DistanceSpacing: 1
BeatDivisor: 4
GridSize: 4
TimelineZoom: 2.6

[Metadata]
Title:#3
TitleUnicode:#3
Artist:osu!speedmapping Challenge
ArtistUnicode:osu!speedmapping Challenge
Creator:_dog
Version:C-Faan
Source:
Tags:Yu_Asahina 音楽 -resolve- Ongaku -resolve- fort nivrad00 blocko side xexxar faan dorothy3242 tehdragonguy
BeatmapID:737466
BeatmapSetID:333209

[Difficulty]
HPDrainRate:4
CircleSize:4
OverallDifficulty:4
ApproachRate:5
SliderMultiplier:1.4
SliderTickRate:1

[Events]
//Background and Video events
0,0,"1346144424.png",0,0
//Break Periods
2,10244,17766
2,42086,43686
2,56924,61446
2,77703,80465
//Storyboard Layer 0 (Background)
//Storyboard Layer 1 (Fail)
//Storyboard Layer 2 (Pass)
//Storyboard Layer 3 (Foreground)
//Storyboard Sound Samples

[TimingPoints]
0,363.636363636364,4,2,0,75,1,0
2545,500,3,2,0,75,1,0
10097,394.736842105263,3,2,0,75,1,0
15320,500,3,2,0,75,1,0
16733,444.444444444444,3,2,0,75,1,0
18062,413.793103448276,3,2,0,75,1,0
18461,400,3,2,0,75,1,0
18966,387.096774193548,3,2,0,75,1,0
21288,384.615384615385,3,2,0,75,1,0
22436,379.746835443038,3,2,0,75,1,0
23580,375,3,2,0,75,1,0
28830,379.746835443038,3,2,0,75,1,0
29589,387.096774193548,4,2,0,75,1,0
32715,382.165605095541,4,2,0,75,1,0
41886,375,4,2,0,75,1,0
44886,363.636363636364,4,2,0,75,1,0
55067,400,4,2,0,75,1,0
55867,413.793103448276,4,2,0,75,1,0
56280,444.444444444444,4,2,0,75,1,0
56724,387.096774193548,4,2,0,75,1,0
57498,375,4,2,0,75,1,0
58248,370.37037037037,4,2,0,75,1,0
59729,365.853658536585,4,2,0,75,1,0
61192,363.636363636364,4,2,0,75,1,0
63373,361.44578313253,4,2,0,75,1,0
64095,359.281437125748,4,2,0,75,1,0
64813,357.142857142857,4,2,0,75,1,0
65170,355.029585798817,4,2,0,75,1,0
65525,352.941176470588,4,2,0,75,1,0
68348,363.636363636364,4,2,0,75,1,0
72711,361.44578313253,4,2,0,75,1,0
73433,359.281437125748,4,2,0,75,1,0
74151,357.142857142857,4,2,0,75,1,0
74865,355.029585798817,4,2,0,75,1,0
75575,352.941176470588,4,2,0,75,1,0
75927,363.636363636364,4,2,0,75,1,0
76290,375,4,2,0,75,1,0
76665,387.096774193548,4,2,0,75,1,0
77052,451.127819548872,4,2,0,75,1,0
78856,461.538461538462,4,2,0,75,1,0
79779,444.444444444444,4,2,0,75,1,0
80667,472.44094488189,4,2,0,75,1,0
81139,526.315789473684,4,2,0,75,1,0
81665,363.636363636364,4,2,0,75,1,0
82028,361.44578313253,4,2,0,75,1,0
82389,359.281437125748,4,2,0,75,1,0
82748,363.636363636364,4,2,0,75,1,0
83111,352.941176470588,4,2,0,75,1,0
100052,350.877192982456,4,2,0,75,1,0
100402,348.837209302326,4,2,0,75,1,0
100750,346.820809248555,4,2,0,75,1,0
101096,344.827586206897,4,2,0,75,1,0
101440,342.857142857143,4,2,0,75,1,0
102811,352.941176470588,4,2,0,75,1,0
103516,350.877192982456,4,2,0,75,1,0
104217,348.837209302326,4,2,0,75,1,0
104914,346.820809248555,4,2,0,75,1,0
105607,344.827586206897,4,2,0,75,1,0
106296,342.857142857143,4,2,0,75,1,0
106981,340.909090909091,4,2,0,75,1,0
107662,338.983050847458,4,2,0,75,1,0
108339,337.078651685393,4,2,0,75,1,0
109013,335.195530726257,4,2,0,75,1,0
109683,333.333333333333,3,2,0,75,1,0
112683,331.491712707182,4,2,0,75,1,0
113014,329.67032967033,4,2,0,75,1,0
113343,327.868852459016,4,2,0,75,1,0
113670,326.086956521739,4,2,0,75,1,0
114322,324.324324324324,4,2,0,75,1,0
114970,322.58064516129,4,2,0,75,1,0
115615,320.855614973262,4,2,0,75,1,0
116256,319.148936170213,4,2,0,75,1,0
116894,317.460317460317,4,2,0,75,1,0
117528,315.789473684211,4,2,0,75,1,0
118159,333.333333333333,4,2,0,75,1,0
118492,352.941176470588,4,2,0,75,1,0
118844,272.727272727273,4,2,0,75,1,0
119934,363.636363636364,4,2,0,75,1,0

[Colours]
Combo1 : 128,0,255
Combo2 : 255,0,0
Combo3 : 255,128,0
Combo4 : 255,255,0
Combo5 : 0,255,0
Combo6 : 0,255,255
Combo7 : 0,0,128

[HitObjects]
216,214,2545,6,0,P|168:226|128:209,2,70
264,162,3295,2,0,P|310:141|364:269,1,210
320,288,4295,1,0,0:0:0:0:
351,350,4545,1,0,0:0:0:0:
420,355,4795,2,0,P|464:305|476:211,1,140
454,169,5545,5,0,0:0:0:0:
400,123,5795,2,0,P|363:108|342:59,1,70
410,56,6295,2,0,L|315:188,1,140
260,186,7045,2,0,P|279:260|363:288,1,140
256,192,7795,12,0,10044,0:0:0:0:
285,90,18966,6,0,B|226:141|218:170|218:170|235:225,1,140
298,263,19611,1,0,0:0:0:0:
298,263,19740,2,0,P|306:316|230:358,1,140
172,296,20385,1,0,0:0:0:0:
172,296,20514,2,0,P|135:241|149:157,1,140
114,60,21288,6,0,P|176:78|201:68,1,70
246,59,21672,1,0,0:0:0:0:
300,103,21864,1,0,0:0:0:0:
310,172,22057,2,0,B|296:221|316:274|316:274|362:264,1,140
373,126,22815,2,0,P|399:95|411:51,2,70
310,172,23385,1,0,0:0:0:0:
264,229,23580,6,0,B|179:167|179:167|175:128,1,140
197,269,24330,2,0,B|112:207|112:207|108:168,1,140
31,119,24955,1,0,0:0:0:0:
17,163,25080,2,0,B|30:263|30:263|55:304,1,140
176,326,25830,6,0,P|146:278|123:263,1,70
115,203,26205,1,0,0:0:0:0:
174,165,26392,1,0,0:0:0:0:
243,175,26580,2,0,P|257:137|264:75,1,70
290,230,26955,2,0,P|312:196|332:138,1,70
323,302,27330,2,0,P|352:274|385:222,1,70
400,187,27705,2,0,P|421:159|447:135,1,70
461,67,28080,6,0,P|414:23|343:41,1,140
258,143,28830,2,0,L|396:102,1,140
465,219,29589,1,0,0:0:0:0:
256,192,29782,12,0,30750,0:0:0:0:
192,217,31137,5,0,0:0:0:0:
256,192,31330,12,0,32298,0:0:0:0:
352,321,32715,6,0,L|399:255,1,70
351,207,33097,1,0,0:0:0:0:
318,145,33288,1,0,0:0:0:0:
257,109,33479,2,0,P|222:158|223:195,1,70
260,223,33861,2,0,L|229:303,1,70
164,283,34243,6,0,L|167:358,1,70
96,349,34625,1,0,0:0:0:0:
53,293,34816,1,0,0:0:0:0:
35,225,35007,2,0,P|88:212|119:230,1,70
153,169,35390,1,0,0:0:0:0:
115,109,35581,1,0,0:0:0:0:
155,51,35772,5,0,0:0:0:0:
221,29,35963,2,0,L|271:97,1,70
402,92,36536,1,0,0:0:0:0:
402,92,36727,2,0,L|452:160,1,70
322,217,37300,5,0,0:0:0:0:
322,217,37492,2,0,L|372:285,1,70
305,312,37874,1,0,0:0:0:0:
305,312,37969,1,0,0:0:0:0:
305,312,38065,2,0,P|266:347|178:317,1,140
217,191,38829,1,0,0:0:0:0:
256,192,39020,12,0,39976,0:0:0:0:
138,144,40358,6,0,P|137:192|195:277,1,140
301,343,41122,2,0,P|302:295|244:210,1,140
244,76,41886,1,0,0:0:0:0:
135,105,44886,6,0,P|119:139|155:242,1,140
281,264,45613,2,0,L|305:358,1,70
367,340,45976,1,0,0:0:0:0:
422,296,46158,1,0,0:0:0:0:
455,234,46340,2,0,P|465:192|396:102,1,140
282,133,47067,1,0,0:0:0:0:
218,104,47249,1,0,0:0:0:0:
156,138,47431,2,0,P|189:198|210:207,1,70
257,205,47795,6,0,P|259:260|176:312,1,140
61,340,48522,2,0,L|41:272,1,70
107,226,48886,2,0,L|132:311,1,70
198,311,49249,2,0,P|250:341|334:317,1,140
429,231,49976,2,0,L|456:71,1,140
311,96,50704,5,0,0:0:0:0:
311,96,50886,2,0,P|324:156|306:188,1,70,0|8,0:0|0:0,0:0:0:0:
236,272,51431,1,0,0:0:0:0:
236,272,51613,2,0,P|223:212|241:180,1,70,0|8,0:0|0:0,0:0:0:0:
174,75,52158,1,0,0:0:0:0:
174,75,52340,2,0,P|187:135|169:167,1,70,0|8,0:0|0:0,0:0:0:0:
99,251,52885,1,0,0:0:0:0:
99,251,53067,2,0,P|86:191|104:159,1,70,0|8,0:0|0:0,0:0:0:0:
13,304,53613,5,0,0:0:0:0:
13,304,53795,2,0,P|51:347|82:357,1,70,0|8,0:0|0:0,0:0:0:0:
197,319,54340,1,0,0:0:0:0:
247,270,54522,1,0,0:0:0:0:
314,287,54704,2,0,L|363:218,1,70
437,197,55067,6,0,P|431:258|390:305,1,105
393,325,55467,2,0,P|342:350|306:355,1,70,2|0,0:0|0:0,0:0:0:0:
261,354,55867,1,0,0:0:0:0:
197,319,56073,1,0,0:0:0:0:
177,256,56280,2,0,L|180:180,1,70
250,147,56724,1,6,0:0:0:0:
361,83,62646,6,0,P|353:142|231:98,1,210,0|2,0:0|0:0,0:0:0:0:
165,142,63373,1,0,0:0:0:0:
28,301,63915,1,0,0:0:0:0:
44,232,64095,2,0,L|26:150,1,70
91,131,64454,2,0,L|73:49,1,70
165,142,64813,2,0,L|180:210,1,70
237,251,65170,1,0,0:0:0:0:
314,133,65525,6,0,L|334:205,1,70
401,189,65877,2,0,L|421:261,1,70
353,278,66230,2,0,L|373:350,1,70
307,373,66583,1,0,0:0:0:0:
252,328,66760,1,0,0:0:0:0:
182,328,66936,2,0,P|122:328|57:251,1,140
127,226,67466,1,0,0:0:0:0:
204,239,67642,2,0,B|257:256|277:319|277:319|256:318|251:327,1,140
259,174,68348,6,0,P|314:148|384:182,1,140
395,247,68893,1,0,0:0:0:0:
464,251,69075,2,0,P|490:178|458:102,1,140
404,102,69620,1,0,0:0:0:0:
344,64,69802,2,0,B|244:27|244:27|220:56,1,140
121,149,70529,2,0,L|87:11,1,140
195,102,71257,6,0,L|198:194,1,70
264,283,71620,2,0,L|261:213,1,70
315,167,71984,1,0,0:0:0:0:
372,206,72166,1,0,0:0:0:0:
371,276,72348,2,0,P|385:316|416:334,1,70
441,270,72711,2,0,B|459:233|459:233|445:192|475:176|475:176|463:117,1,140,0|2,0:0|0:0,0:0:0:0:
344,78,73433,2,0,P|301:127|221:124,1,140,0|2,0:0|0:0,0:0:0:0:
107,197,74151,6,0,P|71:156|76:70,1,140,0|2,0:0|0:0,0:0:0:0:
181,188,74865,2,0,L|238:342,1,140,0|2,0:0|0:0,0:0:0:0:
365,355,75575,2,0,P|436:338|491:275,2,140
229,319,76665,2,0,B|159:296|103:329|103:329|123:357,1,140
319,266,77503,5,4,0:0:0:0:
191,261,81665,5,2,0:0:0:0:
186,127,82028,1,0,0:0:0:0:
320,122,82389,1,0,0:0:0:0:
325,256,82748,1,4,0:0:0:0:
191,261,83111,6,0,P|139:259|114:221,1,70
103,183,83463,2,0,P|112:147|67:53,2,140
35,306,84522,2,0,P|78:348|174:353,1,140
293,340,85228,2,0,P|241:293|173:286,1,140
45,228,85934,6,0,B|36:195|75:141|75:141|129:166|161:124|161:124|166:76,1,210
213,56,86640,2,0,P|280:82|221:199,1,210
231,223,87258,2,0,L|226:286,1,35
331,352,87699,2,0,B|376:298|376:298|366:248|399:214|399:214|389:173,1,175
461,275,88405,1,2,0:0:0:0:
454,135,88758,6,0,P|449:70|504:27,2,140
390,227,89816,1,0,0:0:0:0:
293,283,90169,2,0,L|233:139,1,140
142,210,90875,2,0,L|171:51,1,140
67,20,91581,6,0,L|89:103,1,70,0|4,0:0|0:0,0:0:0:0:
222,183,92287,2,0,L|236:114,1,70,0|2,0:0|0:0,0:0:0:0:
400,81,92993,2,0,L|381:8,1,70,0|4,0:0|0:0,0:0:0:0:
317,168,93699,2,0,L|303:237,1,70,0|2,0:0|0:0,0:0:0:0:
169,338,94405,6,0,P|123:340|58:251,2,140
218,311,95287,1,0,0:0:0:0:
273,318,95463,2,0,P|307:337|365:330,1,70
391,353,95816,1,0,0:0:0:0:
342,251,96169,2,0,B|318:193|234:180|191:235|191:235|199:269,1,210
218,311,96875,1,0,0:0:0:0:
110,342,97228,5,0,0:0:0:0:
55,243,97581,2,0,B|34:168|67:93|119:81|119:82|119:82|151:118,1,210
194,131,98287,1,0,0:0:0:0:
288,174,98640,1,0,0:0:0:0:
364,95,98993,2,0,L|470:288,1,210
503,337,99699,1,0,0:0:0:0:
384,339,100052,5,0,0:0:0:0:
319,313,100227,1,0,0:0:0:0:
248,313,100402,2,0,P|204:333|156:319,1,70
122,296,100750,1,0,0:0:0:0:
84,236,100923,1,0,0:0:0:0:
113,172,101096,2,0,P|130:138|122:88,1,70
184,62,101440,1,2,0:0:0:0:
372,153,101954,1,0,0:0:0:0:
358,84,102125,2,0,P|336:46|238:37,1,140
157,134,102811,5,0,0:0:0:0:
31,71,103163,1,0,0:0:0:0:
31,71,103252,1,0,0:0:0:0:
31,71,103340,1,0,0:0:0:0:
25,140,103516,2,0,P|55:242|81:271,1,140
208,313,104217,6,0,L|327:338,2,105
160,260,104914,2,0,P|143:227|263:187,1,210
314,220,105607,2,0,L|433:245,2,105
320,150,106296,2,0,B|342:123|342:123|377:148|428:145|451:107|448:89,1,140
386,64,106810,1,0,0:0:0:0:
438,17,106981,6,0,B|479:53|518:83|507:124,2,105
386,64,107662,2,0,P|296:12|263:11,1,140
205,52,108170,1,0,0:0:0:0:
207,122,108339,2,0,P|131:116|70:71,1,140
48,19,108844,1,0,0:0:0:0:
4,74,109013,2,0,L|35:237,1,140
85,254,109515,1,0,0:0:0:0:
155,262,109683,6,0,P|208:280|233:344,2,105
163,334,110349,2,0,L|250:213,1,140,0|2,0:0|0:0,0:0:0:0:
352,131,111016,6,0,L|463:169,2,105
287,102,111683,2,0,L|211:29,2,105
291,171,112349,1,0,0:0:0:0:
336,304,112683,1,0,0:0:0:0:
199,338,113014,1,0,0:0:0:0:
130,327,113178,2,0,P|94:304|77:266,1,70
82,211,113506,1,0,0:0:0:0:
116,149,113670,5,4,0:0:0:0:
151,209,113833,2,0,L|221:236,1,70
263,285,114159,1,0,0:0:0:0:
329,262,114322,2,0,L|395:284,2,46.6666666666667
321,190,114646,2,0,L|277:173,2,46.6666666666667
391,164,114970,5,4,0:0:0:0:
401,94,115131,2,0,P|383:60|390:24,1,70
458,51,115453,1,0,0:0:0:0:
474,119,115615,2,0,L|485:168,2,46.6666666666667
440,225,115935,2,0,L|451:274,2,46.6666666666667
409,332,116256,6,0,L|356:357,2,46.6666666666667
303,316,116575,2,0,L|246:320,2,46.6666666666667
209,256,116894,2,0,L|155:241,2,46.6666666666667
171,165,117211,2,0,L|114:121,2,46.6666666666667
146,51,117528,2,0,L|182:79,2,46.6666666666667
260,75,117843,2,0,L|318:123,2,46.6666666666667
354,157,118159,5,0,0:0:0:0:
355,203,118270,1,0,0:0:0:0:
335,245,118381,1,0,0:0:0:0:
299,268,118492,1,0,0:0:0:0:
253,275,118609,1,0,0:0:0:0:
209,256,118727,1,0,0:0:0:0:
164,216,118844,2,0,P|133:175|106:300,1,280
256,192,119934,1,4,0:0:0:0:
256,192,120024,12,0,123752,0:0:0:0:
