osu file format v14

[General]
AudioFilename: haelequin.mp3
AudioLeadIn: 0
PreviewTime: -1
Countdown: 1
SampleSet: Soft
StackLeniency: 0.7
Mode: 3
LetterboxInBreaks: 1
SpecialStyle: 1
WidescreenStoryboard: 0

[Editor]
DistanceSpacing: 0.8
BeatDivisor: 4
GridSize: 16
TimelineZoom: 2.599999

[Metadata]
Title:HAELEQUIN
TitleUnicode:HAELEQUIN
Artist:orangentle
ArtistUnicode:orangentle
Creator:zZ_Natsu_Zz
Version:MX
Source:BMS
Tags:dissociative identity disordered ethereal_v Yu_Asahina BOF2012 Bemani SOUND VOLTEX II -infinite infection- sdvx konami RyanSlipk
BeatmapID:695408
BeatmapSetID:311334

[Difficulty]
HPDrainRate:5
CircleSize:4
OverallDifficulty:5
ApproachRate:5
SliderMultiplier:1.4
SliderTickRate:1

[Events]
//Background and Video events
0,0,"bg1.jpg",0,0
//Break Periods
//Storyboard Layer 0 (Background)
//Storyboard Layer 1 (Fail)
//Storyboard Layer 2 (Pass)
//Storyboard Layer 3 (Foreground)
//Storyboard Sound Samples

[TimingPoints]
1145,359.281437125748,4,2,0,35,1,0
7073,-100,4,2,0,35,0,1
23600,-100,4,2,0,35,0,0
40306,-100,4,2,0,35,0,1
89168,-100,4,2,0,35,0,1
132013,-100,4,2,0,35,0,0

[HitObjects]
64,192,1145,5,0,0:0:0:0:
192,192,1234,1,0,0:0:0:0:
320,192,1324,1,0,0:0:0:0:
192,192,1414,1,0,0:0:0:0:
448,192,1504,1,0,0:0:0:0:
320,192,1504,1,0,0:0:0:0:
64,192,1504,1,0,0:0:0:0:
192,192,1594,1,0,0:0:0:0:
64,192,1683,1,0,0:0:0:0:
192,192,1773,1,0,0:0:0:0:
320,192,1863,1,0,0:0:0:0:
448,192,1953,1,0,0:0:0:0:
192,192,2043,1,0,0:0:0:0:
64,192,2043,1,0,0:0:0:0:
320,192,2043,1,0,0:0:0:0:
448,192,2133,1,0,0:0:0:0:
192,192,2222,1,0,0:0:0:0:
64,192,2312,1,0,0:0:0:0:
192,192,2402,1,0,0:0:0:0:
320,192,2492,1,0,0:0:0:0:
448,192,2582,1,0,0:0:0:0:
64,192,2582,1,0,0:0:0:0:
192,192,2582,1,0,0:0:0:0:
320,192,2671,1,0,0:0:0:0:
192,192,2761,1,0,0:0:0:0:
64,192,2851,1,0,0:0:0:0:
320,192,2941,1,0,0:0:0:0:
192,192,3031,1,0,0:0:0:0:
64,192,3121,1,0,0:0:0:0:
320,192,3121,1,0,0:0:0:0:
448,192,3121,1,0,0:0:0:0:
192,192,3210,1,0,0:0:0:0:
320,192,3300,1,0,0:0:0:0:
192,192,3390,1,0,0:0:0:0:
320,192,3480,1,0,0:0:0:0:
448,192,3570,1,0,0:0:0:0:
320,192,3659,1,0,0:0:0:0:
192,192,3659,1,0,0:0:0:0:
448,192,3749,1,0,0:0:0:0:
320,192,3839,1,0,0:0:0:0:
192,192,3929,1,0,0:0:0:0:
64,192,4019,1,0,0:0:0:0:
320,192,4019,1,0,0:0:0:0:
448,192,4019,1,0,0:0:0:0:
192,192,4109,1,0,0:0:0:0:
320,192,4198,1,0,0:0:0:0:
64,192,4198,1,0,0:0:0:0:
192,192,4288,1,0,0:0:0:0:
320,192,4378,1,0,0:0:0:0:
448,192,4378,1,0,0:0:0:0:
64,192,4378,1,0,0:0:0:0:
192,192,4468,1,0,0:0:0:0:
320,192,4558,1,0,0:0:0:0:
192,192,4647,1,0,0:0:0:0:
64,192,4737,1,0,0:0:0:0:
448,192,4737,1,0,0:0:0:0:
320,192,4827,1,0,0:0:0:0:
64,192,4917,1,0,0:0:0:0:
448,192,4917,1,0,0:0:0:0:
192,192,4917,1,0,0:0:0:0:
320,192,5007,1,0,0:0:0:0:
192,192,5097,1,0,0:0:0:0:
320,192,5186,1,0,0:0:0:0:
448,192,5276,1,0,0:0:0:0:
320,192,5366,1,0,0:0:0:0:
64,192,5456,1,0,0:0:0:0:
192,192,5456,1,0,0:0:0:0:
448,192,5456,1,0,0:0:0:0:
320,192,5546,1,0,0:0:0:0:
448,192,5636,1,0,0:0:0:0:
320,192,5725,1,0,0:0:0:0:
192,192,5815,1,0,0:0:0:0:
320,192,5905,1,0,0:0:0:0:
448,192,5995,1,0,0:0:0:0:
64,192,5995,128,0,6534:0:0:0:0:
192,192,5995,1,0,0:0:0:0:
448,192,6534,128,0,7073:0:0:0:0:
64,192,7073,1,0,0:0:0:0:
192,192,7162,1,0,0:0:0:0:
320,192,7252,1,0,0:0:0:0:
64,192,7252,1,0,0:0:0:0:
448,192,7252,1,0,0:0:0:0:
192,192,7342,1,0,0:0:0:0:
320,192,7432,1,0,0:0:0:0:
64,192,7522,1,0,0:0:0:0:
448,192,7522,1,0,0:0:0:0:
192,192,7612,1,0,0:0:0:0:
320,192,7612,1,0,0:0:0:0:
448,192,7701,1,0,0:0:0:0:
64,192,7791,1,0,0:0:0:0:
320,192,7791,1,0,0:0:0:0:
192,192,7881,1,0,0:0:0:0:
448,192,7881,1,0,0:0:0:0:
320,192,7971,1,0,0:0:0:0:
192,192,8061,1,0,0:0:0:0:
64,192,8150,1,0,0:0:0:0:
448,192,8150,1,0,0:0:0:0:
320,192,8240,1,0,0:0:0:0:
448,192,8330,1,0,0:0:0:0:
64,192,8330,1,0,0:0:0:0:
192,192,8420,1,0,0:0:0:0:
320,192,8510,1,0,0:0:0:0:
448,192,8510,1,0,0:0:0:0:
192,192,8600,1,0,0:0:0:0:
64,192,8600,1,0,0:0:0:0:
320,192,8689,1,0,0:0:0:0:
448,192,8689,1,0,0:0:0:0:
192,192,8779,1,0,0:0:0:0:
320,192,8869,1,0,0:0:0:0:
448,192,8959,1,0,0:0:0:0:
320,192,9049,1,0,0:0:0:0:
192,192,9049,1,0,0:0:0:0:
64,192,9139,1,0,0:0:0:0:
192,192,9228,1,0,0:0:0:0:
320,192,9318,1,0,0:0:0:0:
448,192,9408,1,0,0:0:0:0:
192,192,9408,1,0,0:0:0:0:
320,192,9498,1,0,0:0:0:0:
192,192,9588,1,0,0:0:0:0:
64,192,9677,1,0,0:0:0:0:
192,192,9767,1,0,0:0:0:0:
64,192,9857,1,0,0:0:0:0:
320,192,9947,1,0,0:0:0:0:
448,192,9947,1,0,0:0:0:0:
64,192,10037,1,0,0:0:0:0:
192,192,10037,1,0,0:0:0:0:
320,192,10127,1,0,0:0:0:0:
448,192,10127,1,0,0:0:0:0:
64,192,10216,1,0,0:0:0:0:
192,192,10306,1,0,0:0:0:0:
64,192,10396,1,0,0:0:0:0:
320,192,10396,1,0,0:0:0:0:
448,192,10486,1,0,0:0:0:0:
192,192,10486,1,0,0:0:0:0:
320,192,10576,1,0,0:0:0:0:
192,192,10665,1,0,0:0:0:0:
64,192,10665,1,0,0:0:0:0:
320,192,10755,1,0,0:0:0:0:
192,192,10845,1,0,0:0:0:0:
448,192,10845,1,0,0:0:0:0:
320,192,10935,1,0,0:0:0:0:
192,192,11025,1,0,0:0:0:0:
320,192,11115,1,0,0:0:0:0:
64,192,11115,1,0,0:0:0:0:
448,192,11204,1,0,0:0:0:0:
192,192,11204,1,0,0:0:0:0:
192,192,11384,1,0,0:0:0:0:
320,192,11384,1,0,0:0:0:0:
448,192,11564,1,0,0:0:0:0:
64,192,11564,1,0,0:0:0:0:
192,192,11564,1,0,0:0:0:0:
320,192,11923,1,0,0:0:0:0:
64,192,11923,1,0,0:0:0:0:
448,192,11923,1,0,0:0:0:0:
192,192,12013,1,0,0:0:0:0:
320,192,12103,1,0,0:0:0:0:
448,192,12192,1,0,0:0:0:0:
64,192,12192,1,0,0:0:0:0:
192,192,12282,1,0,0:0:0:0:
320,192,12372,1,0,0:0:0:0:
192,192,12462,1,0,0:0:0:0:
448,192,12462,1,0,0:0:0:0:
320,192,12552,1,0,0:0:0:0:
64,192,12642,1,0,0:0:0:0:
448,192,12642,1,0,0:0:0:0:
192,192,12731,1,0,0:0:0:0:
320,192,12821,1,0,0:0:0:0:
64,192,12821,1,0,0:0:0:0:
192,192,12911,1,0,0:0:0:0:
320,192,13001,1,0,0:0:0:0:
192,192,13091,1,0,0:0:0:0:
448,192,13091,1,0,0:0:0:0:
320,192,13180,1,0,0:0:0:0:
192,192,13270,1,0,0:0:0:0:
320,192,13360,1,0,0:0:0:0:
448,192,13450,1,0,0:0:0:0:
192,192,13450,1,0,0:0:0:0:
64,192,13540,1,0,0:0:0:0:
192,192,13630,1,0,0:0:0:0:
320,192,13719,1,0,0:0:0:0:
448,192,13809,1,0,0:0:0:0:
192,192,13809,1,0,0:0:0:0:
64,192,13899,1,0,0:0:0:0:
192,192,13989,1,0,0:0:0:0:
448,192,14079,1,0,0:0:0:0:
320,192,14139,1,0,0:0:0:0:
192,192,14198,1,0,0:0:0:0:
64,192,14258,1,0,0:0:0:0:
192,192,14348,1,0,0:0:0:0:
320,192,14438,1,0,0:0:0:0:
448,192,14438,1,0,0:0:0:0:
64,192,14438,1,0,0:0:0:0:
448,192,14618,1,0,0:0:0:0:
64,192,14797,1,0,0:0:0:0:
192,192,14977,1,0,0:0:0:0:
320,192,14977,1,0,0:0:0:0:
448,192,14977,128,0,15156:0:0:0:0:
320,192,15336,1,0,0:0:0:0:
448,192,15516,1,0,0:0:0:0:
64,192,15516,1,0,0:0:0:0:
192,192,15695,1,0,0:0:0:0:
320,192,15875,1,0,0:0:0:0:
64,192,15875,1,0,0:0:0:0:
192,192,15875,128,0,16414:0:0:0:0:
448,192,16055,1,0,0:0:0:0:
320,192,16234,1,0,0:0:0:0:
64,192,16414,1,0,0:0:0:0:
448,192,16414,1,0,0:0:0:0:
320,192,16414,128,0,16594:0:0:0:0:
448,192,16773,1,0,0:0:0:0:
320,192,16773,128,0,17043:0:0:0:0:
64,192,16953,1,0,0:0:0:0:
192,192,17043,1,0,0:0:0:0:
448,192,17133,1,0,0:0:0:0:
320,192,17222,1,0,0:0:0:0:
192,192,17312,1,0,0:0:0:0:
64,192,17312,1,0,0:0:0:0:
448,192,17312,128,0,17492:0:0:0:0:
64,192,17761,1,0,0:0:0:0:
448,192,17761,1,0,0:0:0:0:
192,192,17851,1,0,0:0:0:0:
64,192,17941,1,0,0:0:0:0:
192,192,18031,1,0,0:0:0:0:
448,192,18031,1,0,0:0:0:0:
320,192,18210,1,0,0:0:0:0:
64,192,18390,1,0,0:0:0:0:
448,192,18390,1,0,0:0:0:0:
320,192,18570,1,0,0:0:0:0:
192,192,18749,1,0,0:0:0:0:
64,192,18749,1,0,0:0:0:0:
448,192,18749,128,0,18929:0:0:0:0:
320,192,19019,1,0,0:0:0:0:
192,192,19019,1,0,0:0:0:0:
64,192,19019,128,0,19198:0:0:0:0:
320,192,19288,1,0,0:0:0:0:
448,192,19288,1,0,0:0:0:0:
192,192,19378,1,0,0:0:0:0:
320,192,19468,1,0,0:0:0:0:
64,192,19468,1,0,0:0:0:0:
192,192,19558,1,0,0:0:0:0:
448,192,19647,1,0,0:0:0:0:
320,192,19737,1,0,0:0:0:0:
192,192,19827,1,0,0:0:0:0:
64,192,19917,1,0,0:0:0:0:
192,192,20007,1,0,0:0:0:0:
320,192,20097,1,0,0:0:0:0:
64,192,20186,1,0,0:0:0:0:
448,192,20186,1,0,0:0:0:0:
320,192,20276,1,0,0:0:0:0:
64,192,20366,1,0,0:0:0:0:
192,192,20366,1,0,0:0:0:0:
320,192,20456,1,0,0:0:0:0:
448,192,20546,1,0,0:0:0:0:
320,192,20636,1,0,0:0:0:0:
64,192,20725,1,0,0:0:0:0:
448,192,20725,1,0,0:0:0:0:
192,192,20815,1,0,0:0:0:0:
320,192,20905,1,0,0:0:0:0:
448,192,20905,1,0,0:0:0:0:
192,192,21085,1,0,0:0:0:0:
64,192,21264,1,0,0:0:0:0:
320,192,21264,1,0,0:0:0:0:
192,192,21444,1,0,0:0:0:0:
320,192,21624,1,0,0:0:0:0:
448,192,21624,1,0,0:0:0:0:
192,192,21713,1,0,0:0:0:0:
64,192,21803,1,0,0:0:0:0:
448,192,21893,1,0,0:0:0:0:
320,192,21983,1,0,0:0:0:0:
192,192,22073,1,0,0:0:0:0:
64,192,22162,1,0,0:0:0:0:
448,192,22252,1,0,0:0:0:0:
320,192,22342,1,0,0:0:0:0:
192,192,22432,1,0,0:0:0:0:
64,192,22522,1,0,0:0:0:0:
320,192,22522,1,0,0:0:0:0:
448,192,22612,1,0,0:0:0:0:
192,192,22701,1,0,0:0:0:0:
320,192,22701,1,0,0:0:0:0:
64,192,22791,1,0,0:0:0:0:
320,192,22881,1,0,0:0:0:0:
448,192,22881,1,0,0:0:0:0:
64,192,23061,1,0,0:0:0:0:
192,192,23061,1,0,0:0:0:0:
320,192,23061,1,0,0:0:0:0:
448,192,23061,128,0,23240:0:0:0:0:
320,192,23330,1,0,0:0:0:0:
192,192,23330,128,0,23510:0:0:0:0:
64,192,23600,1,0,0:0:0:0:
448,192,23600,1,0,0:0:0:0:
320,192,23600,1,0,0:0:0:0:
320,192,24139,1,0,0:0:0:0:
448,192,24139,128,0,24318:0:0:0:0:
192,192,24318,1,0,0:0:0:0:
320,192,24318,128,0,24498:0:0:0:0:
448,192,24498,1,0,0:0:0:0:
448,192,24677,1,0,0:0:0:0:
192,192,24857,1,0,0:0:0:0:
64,192,24857,1,0,0:0:0:0:
448,192,24857,1,0,0:0:0:0:
320,192,24947,1,0,0:0:0:0:
192,192,25037,1,0,0:0:0:0:
64,192,25127,1,0,0:0:0:0:
448,192,25216,1,0,0:0:0:0:
192,192,25216,1,0,0:0:0:0:
320,192,25306,1,0,0:0:0:0:
192,192,25396,1,0,0:0:0:0:
320,192,25486,1,0,0:0:0:0:
448,192,25576,1,0,0:0:0:0:
192,192,25665,1,0,0:0:0:0:
64,192,25755,1,0,0:0:0:0:
320,192,25755,1,0,0:0:0:0:
192,192,25845,1,0,0:0:0:0:
64,192,25935,1,0,0:0:0:0:
320,192,25935,1,0,0:0:0:0:
448,192,26025,1,0,0:0:0:0:
320,192,26115,1,0,0:0:0:0:
192,192,26204,1,0,0:0:0:0:
64,192,26294,1,0,0:0:0:0:
448,192,26294,1,0,0:0:0:0:
320,192,26384,1,0,0:0:0:0:
192,192,26384,1,0,0:0:0:0:
64,192,26474,1,0,0:0:0:0:
448,192,26474,1,0,0:0:0:0:
320,192,26564,1,0,0:0:0:0:
64,192,26653,1,0,0:0:0:0:
320,192,26743,1,0,0:0:0:0:
192,192,26833,1,0,0:0:0:0:
320,192,26923,1,0,0:0:0:0:
448,192,27013,1,0,0:0:0:0:
64,192,27013,1,0,0:0:0:0:
192,192,27192,1,0,0:0:0:0:
320,192,27192,1,0,0:0:0:0:
448,192,27372,1,0,0:0:0:0:
64,192,27731,1,0,0:0:0:0:
192,192,27731,1,0,0:0:0:0:
320,192,27731,1,0,0:0:0:0:
448,192,27821,1,0,0:0:0:0:
320,192,27911,1,0,0:0:0:0:
192,192,28001,1,0,0:0:0:0:
64,192,28091,1,0,0:0:0:0:
448,192,28091,1,0,0:0:0:0:
320,192,28180,1,0,0:0:0:0:
448,192,28270,1,0,0:0:0:0:
320,192,28360,1,0,0:0:0:0:
192,192,28450,1,0,0:0:0:0:
64,192,28540,1,0,0:0:0:0:
192,192,28630,1,0,0:0:0:0:
320,192,28719,1,0,0:0:0:0:
192,192,28809,1,0,0:0:0:0:
448,192,28809,1,0,0:0:0:0:
64,192,28809,1,0,0:0:0:0:
320,192,29168,1,0,0:0:0:0:
192,192,29258,1,0,0:0:0:0:
64,192,29348,1,0,0:0:0:0:
448,192,29348,1,0,0:0:0:0:
192,192,29438,1,0,0:0:0:0:
320,192,29528,1,0,0:0:0:0:
64,192,29707,1,0,0:0:0:0:
448,192,29707,1,0,0:0:0:0:
320,192,29887,1,0,0:0:0:0:
192,192,30067,1,0,0:0:0:0:
320,192,30246,1,0,0:0:0:0:
448,192,30246,1,0,0:0:0:0:
192,192,30516,1,0,0:0:0:0:
64,192,30516,1,0,0:0:0:0:
64,192,30785,1,0,0:0:0:0:
448,192,30785,1,0,0:0:0:0:
320,192,31324,1,0,0:0:0:0:
192,192,31504,1,0,0:0:0:0:
64,192,31683,1,0,0:0:0:0:
320,192,31683,1,0,0:0:0:0:
192,192,31953,1,0,0:0:0:0:
320,192,32222,1,0,0:0:0:0:
64,192,32402,1,0,0:0:0:0:
448,192,32402,1,0,0:0:0:0:
192,192,32402,1,0,0:0:0:0:
320,192,32671,1,0,0:0:0:0:
192,192,32941,1,0,0:0:0:0:
320,192,33121,1,0,0:0:0:0:
448,192,33121,1,0,0:0:0:0:
64,192,33121,1,0,0:0:0:0:
64,192,33659,1,0,0:0:0:0:
192,192,33749,1,0,0:0:0:0:
320,192,33839,1,0,0:0:0:0:
448,192,33839,1,0,0:0:0:0:
64,192,34198,1,0,0:0:0:0:
320,192,34198,1,0,0:0:0:0:
192,192,34288,1,0,0:0:0:0:
320,192,34378,1,0,0:0:0:0:
192,192,34468,1,0,0:0:0:0:
320,192,34558,1,0,0:0:0:0:
64,192,34558,1,0,0:0:0:0:
448,192,34558,1,0,0:0:0:0:
448,192,35097,1,0,0:0:0:0:
320,192,35276,1,0,0:0:0:0:
192,192,35456,1,0,0:0:0:0:
64,192,35636,1,0,0:0:0:0:
448,192,35636,1,0,0:0:0:0:
320,192,35815,1,0,0:0:0:0:
192,192,35995,1,0,0:0:0:0:
64,192,35995,1,0,0:0:0:0:
320,192,36264,1,0,0:0:0:0:
448,192,36534,1,0,0:0:0:0:
192,192,36534,1,0,0:0:0:0:
192,192,37252,1,0,0:0:0:0:
320,192,37342,1,0,0:0:0:0:
448,192,37432,1,0,0:0:0:0:
192,192,37432,1,0,0:0:0:0:
320,192,37701,1,0,0:0:0:0:
192,192,37971,1,0,0:0:0:0:
320,192,38150,1,0,0:0:0:0:
448,192,38150,1,0,0:0:0:0:
320,192,38420,1,0,0:0:0:0:
64,192,38689,1,0,0:0:0:0:
448,192,38689,1,0,0:0:0:0:
192,192,38869,1,0,0:0:0:0:
320,192,38869,1,0,0:0:0:0:
64,192,38959,1,0,0:0:0:0:
192,192,39049,1,0,0:0:0:0:
320,192,39139,1,0,0:0:0:0:
192,192,39228,1,0,0:0:0:0:
448,192,39228,1,0,0:0:0:0:
64,192,39228,1,0,0:0:0:0:
320,192,39318,1,0,0:0:0:0:
448,192,39408,1,0,0:0:0:0:
64,192,39408,1,0,0:0:0:0:
192,192,39498,1,0,0:0:0:0:
320,192,39588,1,0,0:0:0:0:
448,192,39588,1,0,0:0:0:0:
192,192,39767,1,0,0:0:0:0:
320,192,39767,1,0,0:0:0:0:
64,192,39947,1,0,0:0:0:0:
448,192,39947,1,0,0:0:0:0:
320,192,40037,1,0,0:0:0:0:
192,192,40037,1,0,0:0:0:0:
64,192,40127,1,0,0:0:0:0:
448,192,40127,1,0,0:0:0:0:
192,192,40216,1,0,0:0:0:0:
320,192,40216,1,0,0:0:0:0:
64,192,40306,1,0,0:0:0:0:
448,192,40306,1,0,0:0:0:0:
320,192,40486,1,0,0:0:0:0:
192,192,40576,1,0,0:0:0:0:
64,192,40665,1,0,0:0:0:0:
320,192,40665,1,0,0:0:0:0:
192,192,40755,1,0,0:0:0:0:
320,192,40845,1,0,0:0:0:0:
192,192,40935,1,0,0:0:0:0:
320,192,41025,1,0,0:0:0:0:
448,192,41025,1,0,0:0:0:0:
64,192,41025,1,0,0:0:0:0:
192,192,41204,1,0,0:0:0:0:
320,192,41294,1,0,0:0:0:0:
192,192,41384,1,0,0:0:0:0:
64,192,41474,1,0,0:0:0:0:
448,192,41474,1,0,0:0:0:0:
320,192,41564,1,0,0:0:0:0:
192,192,41653,1,0,0:0:0:0:
320,192,41743,1,0,0:0:0:0:
448,192,41743,1,0,0:0:0:0:
64,192,41743,1,0,0:0:0:0:
192,192,41923,1,0,0:0:0:0:
320,192,42013,1,0,0:0:0:0:
192,192,42103,1,0,0:0:0:0:
64,192,42192,1,0,0:0:0:0:
192,192,42282,1,0,0:0:0:0:
448,192,42282,1,0,0:0:0:0:
64,192,42372,1,0,0:0:0:0:
320,192,42372,1,0,0:0:0:0:
192,192,42462,1,0,0:0:0:0:
448,192,42462,1,0,0:0:0:0:
64,192,42642,1,0,0:0:0:0:
192,192,42731,1,0,0:0:0:0:
320,192,42821,1,0,0:0:0:0:
192,192,42881,1,0,0:0:0:0:
64,192,42941,1,0,0:0:0:0:
192,192,43001,1,0,0:0:0:0:
320,192,43061,1,0,0:0:0:0:
448,192,43121,1,0,0:0:0:0:
320,192,43180,1,0,0:0:0:0:
64,192,43180,1,0,0:0:0:0:
192,192,43360,1,0,0:0:0:0:
64,192,43450,1,0,0:0:0:0:
320,192,43450,1,0,0:0:0:0:
192,192,43540,1,0,0:0:0:0:
448,192,43540,1,0,0:0:0:0:
320,192,43630,1,0,0:0:0:0:
192,192,43719,1,0,0:0:0:0:
320,192,43809,1,0,0:0:0:0:
64,192,43899,1,0,0:0:0:0:
192,192,43899,1,0,0:0:0:0:
448,192,44079,1,0,0:0:0:0:
320,192,44258,1,0,0:0:0:0:
64,192,44438,1,0,0:0:0:0:
448,192,44438,1,0,0:0:0:0:
192,192,44618,1,0,0:0:0:0:
320,192,44618,1,0,0:0:0:0:
64,192,44797,1,0,0:0:0:0:
192,192,44977,1,0,0:0:0:0:
320,192,44977,1,0,0:0:0:0:
448,192,44977,1,0,0:0:0:0:
192,192,45156,1,0,0:0:0:0:
64,192,45336,1,0,0:0:0:0:
320,192,45336,1,0,0:0:0:0:
448,192,45336,1,0,0:0:0:0:
320,192,45516,1,0,0:0:0:0:
192,192,45695,1,0,0:0:0:0:
320,192,45695,1,0,0:0:0:0:
448,192,45875,1,0,0:0:0:0:
320,192,45965,1,0,0:0:0:0:
192,192,46055,1,0,0:0:0:0:
320,192,46144,1,0,0:0:0:0:
192,192,46234,1,0,0:0:0:0:
320,192,46324,1,0,0:0:0:0:
64,192,46414,1,0,0:0:0:0:
192,192,46504,1,0,0:0:0:0:
320,192,46594,1,0,0:0:0:0:
448,192,46594,1,0,0:0:0:0:
192,192,46683,1,0,0:0:0:0:
64,192,46773,1,0,0:0:0:0:
448,192,46773,1,0,0:0:0:0:
320,192,46863,1,0,0:0:0:0:
192,192,46953,1,0,0:0:0:0:
320,192,47043,1,0,0:0:0:0:
448,192,47133,1,0,0:0:0:0:
192,192,47133,1,0,0:0:0:0:
64,192,47133,1,0,0:0:0:0:
320,192,47222,1,0,0:0:0:0:
192,192,47312,1,0,0:0:0:0:
64,192,47402,1,0,0:0:0:0:
448,192,47492,1,0,0:0:0:0:
320,192,47492,1,0,0:0:0:0:
192,192,47492,1,0,0:0:0:0:
64,192,47582,1,0,0:0:0:0:
192,192,47671,1,0,0:0:0:0:
64,192,47761,1,0,0:0:0:0:
448,192,47851,1,0,0:0:0:0:
320,192,47941,1,0,0:0:0:0:
192,192,48031,1,0,0:0:0:0:
320,192,48121,1,0,0:0:0:0:
448,192,48210,1,0,0:0:0:0:
64,192,48210,1,0,0:0:0:0:
192,192,48270,1,0,0:0:0:0:
320,192,48330,1,0,0:0:0:0:
448,192,48390,1,0,0:0:0:0:
320,192,48450,1,0,0:0:0:0:
192,192,48510,1,0,0:0:0:0:
64,192,48570,1,0,0:0:0:0:
448,192,48570,1,0,0:0:0:0:
320,192,48929,1,0,0:0:0:0:
192,192,49019,1,0,0:0:0:0:
64,192,49109,1,0,0:0:0:0:
448,192,49198,1,0,0:0:0:0:
320,192,49288,1,0,0:0:0:0:
192,192,49378,1,0,0:0:0:0:
64,192,49468,1,0,0:0:0:0:
320,192,49558,1,0,0:0:0:0:
192,192,49647,1,0,0:0:0:0:
448,192,49647,1,0,0:0:0:0:
64,192,49647,1,0,0:0:0:0:
320,192,49737,1,0,0:0:0:0:
192,192,49827,1,0,0:0:0:0:
320,192,49917,1,0,0:0:0:0:
448,192,50007,1,0,0:0:0:0:
64,192,50007,1,0,0:0:0:0:
192,192,50097,1,0,0:0:0:0:
320,192,50097,1,0,0:0:0:0:
64,192,50186,1,0,0:0:0:0:
448,192,50186,1,0,0:0:0:0:
192,192,50276,1,0,0:0:0:0:
320,192,50366,1,0,0:0:0:0:
448,192,50366,1,0,0:0:0:0:
192,192,50546,1,0,0:0:0:0:
320,192,50725,1,0,0:0:0:0:
64,192,50905,1,0,0:0:0:0:
192,192,50905,1,0,0:0:0:0:
448,192,50905,1,0,0:0:0:0:
320,192,50995,1,0,0:0:0:0:
192,192,51085,1,0,0:0:0:0:
320,192,51264,1,0,0:0:0:0:
448,192,51264,1,0,0:0:0:0:
192,192,51354,1,0,0:0:0:0:
64,192,51354,1,0,0:0:0:0:
320,192,51444,1,0,0:0:0:0:
448,192,51444,1,0,0:0:0:0:
192,192,51534,1,0,0:0:0:0:
64,192,51534,1,0,0:0:0:0:
320,192,51624,1,0,0:0:0:0:
448,192,51624,1,0,0:0:0:0:
192,192,51713,1,0,0:0:0:0:
64,192,51713,1,0,0:0:0:0:
320,192,51803,1,0,0:0:0:0:
448,192,51803,1,0,0:0:0:0:
64,192,51803,1,0,0:0:0:0:
192,192,51893,1,0,0:0:0:0:
320,192,51983,1,0,0:0:0:0:
448,192,52073,1,0,0:0:0:0:
320,192,52162,1,0,0:0:0:0:
192,192,52252,1,0,0:0:0:0:
64,192,52342,1,0,0:0:0:0:
448,192,52432,1,0,0:0:0:0:
320,192,52522,1,0,0:0:0:0:
192,192,52612,1,0,0:0:0:0:
320,192,52701,1,0,0:0:0:0:
192,192,52791,1,0,0:0:0:0:
64,192,52881,1,0,0:0:0:0:
448,192,52971,1,0,0:0:0:0:
320,192,53061,1,0,0:0:0:0:
192,192,53150,1,0,0:0:0:0:
320,192,53240,1,0,0:0:0:0:
448,192,53330,1,0,0:0:0:0:
64,192,53420,1,0,0:0:0:0:
192,192,53510,1,0,0:0:0:0:
320,192,53600,1,0,0:0:0:0:
192,192,53689,1,0,0:0:0:0:
64,192,53779,1,0,0:0:0:0:
448,192,53869,1,0,0:0:0:0:
320,192,53959,1,0,0:0:0:0:
192,192,54049,1,0,0:0:0:0:
64,192,54139,1,0,0:0:0:0:
448,192,54228,1,0,0:0:0:0:
320,192,54318,1,0,0:0:0:0:
192,192,54408,1,0,0:0:0:0:
64,192,54498,1,0,0:0:0:0:
192,192,54588,1,0,0:0:0:0:
320,192,54677,1,0,0:0:0:0:
64,192,54677,1,0,0:0:0:0:
448,192,54677,1,0,0:0:0:0:
192,192,54767,1,0,0:0:0:0:
320,192,54857,1,0,0:0:0:0:
192,192,54947,1,0,0:0:0:0:
64,192,55037,1,0,0:0:0:0:
448,192,55037,1,0,0:0:0:0:
320,192,55127,1,0,0:0:0:0:
192,192,55216,1,0,0:0:0:0:
320,192,55306,1,0,0:0:0:0:
448,192,55396,1,0,0:0:0:0:
64,192,55486,1,0,0:0:0:0:
192,192,55576,1,0,0:0:0:0:
320,192,55665,1,0,0:0:0:0:
448,192,55755,1,0,0:0:0:0:
64,192,55845,1,0,0:0:0:0:
192,192,55935,1,0,0:0:0:0:
320,192,56025,1,0,0:0:0:0:
448,192,56115,1,0,0:0:0:0:
320,192,56204,1,0,0:0:0:0:
192,192,56294,1,0,0:0:0:0:
64,192,56384,1,0,0:0:0:0:
448,192,56474,1,0,0:0:0:0:
320,192,56564,1,0,0:0:0:0:
192,192,56653,1,0,0:0:0:0:
64,192,56743,1,0,0:0:0:0:
448,192,56833,1,0,0:0:0:0:
320,192,56923,1,0,0:0:0:0:
192,192,57013,1,0,0:0:0:0:
64,192,57103,1,0,0:0:0:0:
192,192,57192,1,0,0:0:0:0:
320,192,57282,1,0,0:0:0:0:
448,192,57372,1,0,0:0:0:0:
320,192,57462,1,0,0:0:0:0:
192,192,57552,1,0,0:0:0:0:
448,192,57552,1,0,0:0:0:0:
64,192,57552,1,0,0:0:0:0:
320,192,57642,1,0,0:0:0:0:
192,192,57731,1,0,0:0:0:0:
448,192,57821,1,0,0:0:0:0:
320,192,57911,1,0,0:0:0:0:
192,192,58001,1,0,0:0:0:0:
320,192,58091,1,0,0:0:0:0:
192,192,58180,1,0,0:0:0:0:
64,192,58270,1,0,0:0:0:0:
448,192,58360,1,0,0:0:0:0:
320,192,58450,1,0,0:0:0:0:
192,192,58540,1,0,0:0:0:0:
64,192,58630,1,0,0:0:0:0:
192,192,58719,1,0,0:0:0:0:
320,192,58809,1,0,0:0:0:0:
448,192,58899,1,0,0:0:0:0:
320,192,58989,1,0,0:0:0:0:
192,192,59079,1,0,0:0:0:0:
320,192,59168,1,0,0:0:0:0:
192,192,59258,1,0,0:0:0:0:
64,192,59348,1,0,0:0:0:0:
192,192,59438,1,0,0:0:0:0:
320,192,59528,1,0,0:0:0:0:
192,192,59618,1,0,0:0:0:0:
320,192,59707,1,0,0:0:0:0:
448,192,59797,1,0,0:0:0:0:
320,192,59887,1,0,0:0:0:0:
192,192,59977,1,0,0:0:0:0:
64,192,60067,1,0,0:0:0:0:
192,192,60156,1,0,0:0:0:0:
320,192,60246,1,0,0:0:0:0:
64,192,60336,1,0,0:0:0:0:
192,192,60426,1,0,0:0:0:0:
448,192,60426,1,0,0:0:0:0:
320,192,60426,1,0,0:0:0:0:
64,192,60516,1,0,0:0:0:0:
448,192,60606,1,0,0:0:0:0:
64,192,60695,1,0,0:0:0:0:
448,192,60785,1,0,0:0:0:0:
64,192,60875,1,0,0:0:0:0:
448,192,60965,1,0,0:0:0:0:
64,192,61055,1,0,0:0:0:0:
448,192,61144,1,0,0:0:0:0:
320,192,61144,1,0,0:0:0:0:
192,192,61234,1,0,0:0:0:0:
320,192,61324,1,0,0:0:0:0:
192,192,61414,1,0,0:0:0:0:
320,192,61504,1,0,0:0:0:0:
192,192,61594,1,0,0:0:0:0:
320,192,61683,1,0,0:0:0:0:
192,192,61773,1,0,0:0:0:0:
448,192,61863,1,0,0:0:0:0:
64,192,61863,1,0,0:0:0:0:
320,192,61953,1,0,0:0:0:0:
192,192,62043,1,0,0:0:0:0:
64,192,62133,1,0,0:0:0:0:
320,192,62222,1,0,0:0:0:0:
448,192,62312,1,0,0:0:0:0:
320,192,62402,1,0,0:0:0:0:
192,192,62492,1,0,0:0:0:0:
448,192,62582,1,0,0:0:0:0:
64,192,62582,1,0,0:0:0:0:
320,192,62582,1,0,0:0:0:0:
192,192,62671,1,0,0:0:0:0:
320,192,62761,1,0,0:0:0:0:
448,192,62851,1,0,0:0:0:0:
192,192,62941,1,0,0:0:0:0:
320,192,62941,1,0,0:0:0:0:
64,192,63031,1,0,0:0:0:0:
192,192,63121,1,0,0:0:0:0:
320,192,63210,1,0,0:0:0:0:
448,192,63300,1,0,0:0:0:0:
64,192,63300,1,0,0:0:0:0:
192,192,63300,1,0,0:0:0:0:
320,192,63420,1,0,0:0:0:0:
64,192,63540,1,0,0:0:0:0:
192,192,63659,1,0,0:0:0:0:
320,192,63779,1,0,0:0:0:0:
64,192,63779,1,0,0:0:0:0:
192,192,63899,1,0,0:0:0:0:
448,192,63899,1,0,0:0:0:0:
64,192,64019,1,0,0:0:0:0:
320,192,64019,1,0,0:0:0:0:
448,192,64139,1,0,0:0:0:0:
320,192,64258,1,0,0:0:0:0:
192,192,64378,1,0,0:0:0:0:
320,192,64498,1,0,0:0:0:0:
448,192,64618,1,0,0:0:0:0:
64,192,64737,1,0,0:0:0:0:
192,192,64857,1,0,0:0:0:0:
320,192,64977,1,0,0:0:0:0:
192,192,65097,1,0,0:0:0:0:
320,192,65216,1,0,0:0:0:0:
448,192,65336,1,0,0:0:0:0:
320,192,65456,1,0,0:0:0:0:
192,192,65576,1,0,0:0:0:0:
64,192,65695,1,0,0:0:0:0:
192,192,65815,1,0,0:0:0:0:
320,192,65935,1,0,0:0:0:0:
192,192,66055,1,0,0:0:0:0:
64,192,66174,1,0,0:0:0:0:
320,192,66174,1,0,0:0:0:0:
448,192,66174,1,0,0:0:0:0:
192,192,66264,1,0,0:0:0:0:
320,192,66354,1,0,0:0:0:0:
448,192,66444,1,0,0:0:0:0:
320,192,66534,1,0,0:0:0:0:
192,192,66624,1,0,0:0:0:0:
64,192,66713,1,0,0:0:0:0:
192,192,66803,1,0,0:0:0:0:
64,192,66893,1,0,0:0:0:0:
320,192,67013,1,0,0:0:0:0:
448,192,67133,1,0,0:0:0:0:
64,192,67133,1,0,0:0:0:0:
192,192,67252,1,0,0:0:0:0:
64,192,67372,1,0,0:0:0:0:
448,192,67492,1,0,0:0:0:0:
320,192,67612,1,0,0:0:0:0:
192,192,67731,1,0,0:0:0:0:
64,192,67851,1,0,0:0:0:0:
320,192,67971,1,0,0:0:0:0:
192,192,68091,1,0,0:0:0:0:
448,192,68210,1,0,0:0:0:0:
320,192,68330,1,0,0:0:0:0:
64,192,68330,1,0,0:0:0:0:
192,192,68450,1,0,0:0:0:0:
320,192,68570,1,0,0:0:0:0:
192,192,68689,1,0,0:0:0:0:
448,192,68689,1,0,0:0:0:0:
64,192,68809,1,0,0:0:0:0:
320,192,68929,1,0,0:0:0:0:
64,192,69049,1,0,0:0:0:0:
448,192,69049,1,0,0:0:0:0:
192,192,69228,1,0,0:0:0:0:
320,192,69408,1,0,0:0:0:0:
64,192,69588,1,0,0:0:0:0:
448,192,69588,1,0,0:0:0:0:
192,192,69947,1,0,0:0:0:0:
64,192,70037,1,0,0:0:0:0:
192,192,70127,1,0,0:0:0:0:
320,192,70216,1,0,0:0:0:0:
192,192,70306,1,0,0:0:0:0:
448,192,70306,1,0,0:0:0:0:
320,192,70665,1,0,0:0:0:0:
192,192,70755,1,0,0:0:0:0:
64,192,70845,1,0,0:0:0:0:
320,192,71025,1,0,0:0:0:0:
192,192,71384,1,0,0:0:0:0:
448,192,71564,1,0,0:0:0:0:
64,192,71743,1,0,0:0:0:0:
320,192,71743,1,0,0:0:0:0:
192,192,72103,1,0,0:0:0:0:
64,192,72103,128,0,72282:0:0:0:0:
320,192,72282,1,0,0:0:0:0:
192,192,72282,128,0,72462:0:0:0:0:
448,192,72462,1,0,0:0:0:0:
320,192,72462,128,0,72642:0:0:0:0:
320,192,72821,1,0,0:0:0:0:
448,192,72821,128,0,73001:0:0:0:0:
320,192,73001,128,0,73180:0:0:0:0:
64,192,73180,1,0,0:0:0:0:
192,192,73180,128,0,73360:0:0:0:0:
192,192,73540,128,0,73719:0:0:0:0:
320,192,73719,128,0,73899:0:0:0:0:
448,192,73719,1,0,0:0:0:0:
64,192,73899,1,0,0:0:0:0:
448,192,73899,128,0,74079:0:0:0:0:
192,192,74258,1,0,0:0:0:0:
320,192,74258,128,0,74438:0:0:0:0:
64,192,74438,1,0,0:0:0:0:
448,192,74438,1,0,0:0:0:0:
192,192,74797,1,0,0:0:0:0:
320,192,74797,1,0,0:0:0:0:
448,192,74797,1,0,0:0:0:0:
64,192,74797,128,0,75156:0:0:0:0:
448,192,75156,1,0,0:0:0:0:
320,192,75246,1,0,0:0:0:0:
192,192,75336,1,0,0:0:0:0:
64,192,75426,1,0,0:0:0:0:
320,192,75426,1,0,0:0:0:0:
448,192,75516,1,0,0:0:0:0:
192,192,75516,1,0,0:0:0:0:
320,192,75606,1,0,0:0:0:0:
192,192,75695,1,0,0:0:0:0:
64,192,75785,1,0,0:0:0:0:
192,192,75875,1,0,0:0:0:0:
320,192,75965,1,0,0:0:0:0:
192,192,76055,1,0,0:0:0:0:
320,192,76144,1,0,0:0:0:0:
192,192,76234,1,0,0:0:0:0:
448,192,76234,1,0,0:0:0:0:
64,192,76234,128,0,76594:0:0:0:0:
192,192,76594,1,0,0:0:0:0:
320,192,76683,1,0,0:0:0:0:
192,192,76773,1,0,0:0:0:0:
448,192,76773,1,0,0:0:0:0:
320,192,76863,1,0,0:0:0:0:
448,192,76953,1,0,0:0:0:0:
320,192,77043,1,0,0:0:0:0:
192,192,77133,1,0,0:0:0:0:
320,192,77222,1,0,0:0:0:0:
64,192,77312,1,0,0:0:0:0:
448,192,77312,1,0,0:0:0:0:
320,192,77402,1,0,0:0:0:0:
192,192,77492,1,0,0:0:0:0:
64,192,77582,1,0,0:0:0:0:
192,192,77671,1,0,0:0:0:0:
320,192,77671,1,0,0:0:0:0:
448,192,77671,1,0,0:0:0:0:
320,192,77941,1,0,0:0:0:0:
448,192,77941,128,0,78210:0:0:0:0:
64,192,78210,1,0,0:0:0:0:
320,192,78210,1,0,0:0:0:0:
192,192,78210,128,0,78570:0:0:0:0:
448,192,78570,1,0,0:0:0:0:
320,192,78570,128,0,78749:0:0:0:0:
64,192,78749,1,0,0:0:0:0:
192,192,78749,128,0,78929:0:0:0:0:
448,192,78929,1,0,0:0:0:0:
64,192,78929,128,0,79109:0:0:0:0:
320,192,79109,1,0,0:0:0:0:
448,192,79109,128,0,79288:0:0:0:0:
192,192,79288,128,0,79468:0:0:0:0:
64,192,79288,1,0,0:0:0:0:
320,192,79468,1,0,0:0:0:0:
64,192,79468,128,0,79647:0:0:0:0:
448,192,79647,1,0,0:0:0:0:
192,192,79827,1,0,0:0:0:0:
64,192,79827,1,0,0:0:0:0:
320,192,79917,1,0,0:0:0:0:
448,192,79917,1,0,0:0:0:0:
192,192,80097,1,0,0:0:0:0:
64,192,80097,1,0,0:0:0:0:
320,192,80366,1,0,0:0:0:0:
448,192,80366,1,0,0:0:0:0:
64,192,80546,1,0,0:0:0:0:
320,192,80546,1,0,0:0:0:0:
192,192,80546,1,0,0:0:0:0:
448,192,80815,1,0,0:0:0:0:
192,192,81085,1,0,0:0:0:0:
448,192,81085,1,0,0:0:0:0:
320,192,81444,1,0,0:0:0:0:
192,192,81624,1,0,0:0:0:0:
448,192,81803,1,0,0:0:0:0:
64,192,81803,1,0,0:0:0:0:
320,192,81893,1,0,0:0:0:0:
192,192,81893,1,0,0:0:0:0:
64,192,81983,1,0,0:0:0:0:
448,192,81983,1,0,0:0:0:0:
192,192,82162,1,0,0:0:0:0:
448,192,82342,1,0,0:0:0:0:
320,192,82522,1,0,0:0:0:0:
192,192,82701,1,0,0:0:0:0:
64,192,82791,1,0,0:0:0:0:
64,192,82971,1,0,0:0:0:0:
320,192,82971,1,0,0:0:0:0:
448,192,82971,1,0,0:0:0:0:
192,192,83240,1,0,0:0:0:0:
64,192,83420,1,0,0:0:0:0:
320,192,83420,1,0,0:0:0:0:
192,192,83689,1,0,0:0:0:0:
320,192,83959,1,0,0:0:0:0:
448,192,84318,1,0,0:0:0:0:
64,192,84498,1,0,0:0:0:0:
320,192,84498,1,0,0:0:0:0:
320,192,84677,1,0,0:0:0:0:
192,192,84677,1,0,0:0:0:0:
320,192,84857,1,0,0:0:0:0:
64,192,85037,1,0,0:0:0:0:
448,192,85037,1,0,0:0:0:0:
64,192,85216,1,0,0:0:0:0:
192,192,85216,1,0,0:0:0:0:
192,192,85396,1,0,0:0:0:0:
320,192,85396,1,0,0:0:0:0:
448,192,85396,1,0,0:0:0:0:
448,192,85576,1,0,0:0:0:0:
64,192,85576,1,0,0:0:0:0:
192,192,85665,1,0,0:0:0:0:
320,192,85845,1,0,0:0:0:0:
192,192,86115,1,0,0:0:0:0:
320,192,86294,1,0,0:0:0:0:
64,192,86294,1,0,0:0:0:0:
448,192,86294,128,0,87731:0:0:0:0:
192,192,86474,1,0,0:0:0:0:
64,192,86653,1,0,0:0:0:0:
320,192,86653,1,0,0:0:0:0:
320,192,86833,1,0,0:0:0:0:
192,192,87013,1,0,0:0:0:0:
64,192,87013,1,0,0:0:0:0:
192,192,87192,1,0,0:0:0:0:
64,192,87372,1,0,0:0:0:0:
320,192,87372,1,0,0:0:0:0:
320,192,87552,1,0,0:0:0:0:
192,192,87642,1,0,0:0:0:0:
64,192,87731,1,0,0:0:0:0:
320,192,87731,128,0,88809:0:0:0:0:
448,192,87911,1,0,0:0:0:0:
192,192,88091,1,0,0:0:0:0:
448,192,88270,1,0,0:0:0:0:
192,192,88450,1,0,0:0:0:0:
448,192,88630,1,0,0:0:0:0:
64,192,88809,1,0,0:0:0:0:
448,192,88809,1,0,0:0:0:0:
192,192,88899,1,0,0:0:0:0:
320,192,88989,1,0,0:0:0:0:
448,192,89079,1,0,0:0:0:0:
64,192,89168,1,0,0:0:0:0:
192,192,89228,1,0,0:0:0:0:
448,192,89288,1,0,0:0:0:0:
320,192,89348,1,0,0:0:0:0:
192,192,89408,1,0,0:0:0:0:
64,192,89468,1,0,0:0:0:0:
320,192,89528,1,0,0:0:0:0:
448,192,89588,1,0,0:0:0:0:
64,192,89647,1,0,0:0:0:0:
192,192,89707,1,0,0:0:0:0:
320,192,89767,1,0,0:0:0:0:
448,192,89827,1,0,0:0:0:0:
192,192,89887,1,0,0:0:0:0:
64,192,89947,1,0,0:0:0:0:
448,192,90007,1,0,0:0:0:0:
320,192,90067,1,0,0:0:0:0:
192,192,90127,1,0,0:0:0:0:
64,192,90186,1,0,0:0:0:0:
320,192,90246,1,0,0:0:0:0:
448,192,90306,1,0,0:0:0:0:
64,192,90366,1,0,0:0:0:0:
192,192,90426,1,0,0:0:0:0:
320,192,90486,1,0,0:0:0:0:
448,192,90546,1,0,0:0:0:0:
192,192,90606,1,0,0:0:0:0:
64,192,90665,1,0,0:0:0:0:
448,192,90725,1,0,0:0:0:0:
320,192,90785,1,0,0:0:0:0:
192,192,90845,1,0,0:0:0:0:
64,192,90905,1,0,0:0:0:0:
320,192,90965,1,0,0:0:0:0:
448,192,91025,1,0,0:0:0:0:
64,192,91085,1,0,0:0:0:0:
192,192,91144,1,0,0:0:0:0:
320,192,91204,1,0,0:0:0:0:
448,192,91264,1,0,0:0:0:0:
192,192,91324,1,0,0:0:0:0:
64,192,91384,1,0,0:0:0:0:
448,192,91444,1,0,0:0:0:0:
320,192,91504,1,0,0:0:0:0:
192,192,91564,1,0,0:0:0:0:
64,192,91624,1,0,0:0:0:0:
320,192,91683,1,0,0:0:0:0:
448,192,91743,1,0,0:0:0:0:
64,192,91803,1,0,0:0:0:0:
192,192,91863,1,0,0:0:0:0:
320,192,91923,1,0,0:0:0:0:
448,192,91983,1,0,0:0:0:0:
192,192,92043,1,0,0:0:0:0:
64,192,92103,1,0,0:0:0:0:
448,192,92162,1,0,0:0:0:0:
320,192,92222,1,0,0:0:0:0:
192,192,92282,1,0,0:0:0:0:
64,192,92342,1,0,0:0:0:0:
320,192,92402,1,0,0:0:0:0:
448,192,92462,1,0,0:0:0:0:
64,192,92522,1,0,0:0:0:0:
192,192,92582,1,0,0:0:0:0:
320,192,92642,1,0,0:0:0:0:
448,192,92701,1,0,0:0:0:0:
192,192,92761,1,0,0:0:0:0:
64,192,92821,1,0,0:0:0:0:
448,192,92881,1,0,0:0:0:0:
320,192,92941,1,0,0:0:0:0:
192,192,93001,1,0,0:0:0:0:
64,192,93061,1,0,0:0:0:0:
320,192,93121,1,0,0:0:0:0:
448,192,93180,1,0,0:0:0:0:
64,192,93240,1,0,0:0:0:0:
192,192,93300,1,0,0:0:0:0:
320,192,93360,1,0,0:0:0:0:
448,192,93420,1,0,0:0:0:0:
192,192,93480,1,0,0:0:0:0:
64,192,93540,1,0,0:0:0:0:
448,192,93600,1,0,0:0:0:0:
320,192,93659,1,0,0:0:0:0:
192,192,93719,1,0,0:0:0:0:
64,192,93779,1,0,0:0:0:0:
320,192,93839,1,0,0:0:0:0:
448,192,93899,1,0,0:0:0:0:
64,192,93959,1,0,0:0:0:0:
192,192,94019,1,0,0:0:0:0:
320,192,94079,1,0,0:0:0:0:
448,192,94139,1,0,0:0:0:0:
192,192,94198,1,0,0:0:0:0:
64,192,94258,1,0,0:0:0:0:
448,192,94318,1,0,0:0:0:0:
320,192,94378,1,0,0:0:0:0:
192,192,94438,1,0,0:0:0:0:
64,192,94498,1,0,0:0:0:0:
448,192,94558,1,0,0:0:0:0:
320,192,94618,1,0,0:0:0:0:
192,192,94677,1,0,0:0:0:0:
64,192,94737,1,0,0:0:0:0:
320,192,94797,1,0,0:0:0:0:
192,192,94857,1,0,0:0:0:0:
320,192,94917,1,0,0:0:0:0:
448,192,94917,1,0,0:0:0:0:
64,192,94917,1,0,0:0:0:0:
320,192,95546,1,0,0:0:0:0:
64,192,95636,1,0,0:0:0:0:
192,192,95636,1,0,0:0:0:0:
320,192,95815,1,0,0:0:0:0:
448,192,95905,1,0,0:0:0:0:
192,192,95905,1,0,0:0:0:0:
192,192,96085,1,0,0:0:0:0:
64,192,96174,1,0,0:0:0:0:
448,192,96174,1,0,0:0:0:0:
320,192,96354,1,0,0:0:0:0:
448,192,96354,1,0,0:0:0:0:
320,192,96803,1,0,0:0:0:0:
64,192,96893,1,0,0:0:0:0:
192,192,96983,1,0,0:0:0:0:
448,192,97162,1,0,0:0:0:0:
320,192,97252,1,0,0:0:0:0:
64,192,97612,1,0,0:0:0:0:
192,192,97612,1,0,0:0:0:0:
320,192,97612,1,0,0:0:0:0:
320,192,97971,1,0,0:0:0:0:
320,192,98061,1,0,0:0:0:0:
64,192,98150,1,0,0:0:0:0:
448,192,98150,1,0,0:0:0:0:
192,192,98330,1,0,0:0:0:0:
192,192,98420,1,0,0:0:0:0:
64,192,98510,1,0,0:0:0:0:
320,192,98510,1,0,0:0:0:0:
448,192,98689,1,0,0:0:0:0:
448,192,98779,1,0,0:0:0:0:
192,192,98869,1,0,0:0:0:0:
320,192,98869,1,0,0:0:0:0:
192,192,99049,1,0,0:0:0:0:
192,192,99139,1,0,0:0:0:0:
64,192,99228,1,0,0:0:0:0:
320,192,99228,1,0,0:0:0:0:
320,192,99408,1,0,0:0:0:0:
320,192,99498,1,0,0:0:0:0:
64,192,99588,1,0,0:0:0:0:
448,192,99588,1,0,0:0:0:0:
320,192,99767,1,0,0:0:0:0:
320,192,99857,1,0,0:0:0:0:
192,192,99947,1,0,0:0:0:0:
448,192,99947,1,0,0:0:0:0:
320,192,100127,1,0,0:0:0:0:
320,192,100216,1,0,0:0:0:0:
64,192,100306,1,0,0:0:0:0:
448,192,100306,1,0,0:0:0:0:
192,192,100396,1,0,0:0:0:0:
192,192,100486,1,0,0:0:0:0:
64,192,100576,1,0,0:0:0:0:
320,192,100576,1,0,0:0:0:0:
448,192,100665,1,0,0:0:0:0:
192,192,100665,1,0,0:0:0:0:
64,192,100755,1,0,0:0:0:0:
448,192,100845,1,0,0:0:0:0:
64,192,100935,1,0,0:0:0:0:
448,192,101025,1,0,0:0:0:0:
64,192,101115,1,0,0:0:0:0:
448,192,101204,1,0,0:0:0:0:
192,192,101294,1,0,0:0:0:0:
320,192,101384,1,0,0:0:0:0:
192,192,101474,1,0,0:0:0:0:
320,192,101564,1,0,0:0:0:0:
192,192,101653,1,0,0:0:0:0:
64,192,101743,1,0,0:0:0:0:
448,192,101743,1,0,0:0:0:0:
320,192,101833,1,0,0:0:0:0:
192,192,101923,1,0,0:0:0:0:
64,192,102013,1,0,0:0:0:0:
192,192,102103,1,0,0:0:0:0:
320,192,102192,1,0,0:0:0:0:
192,192,102282,1,0,0:0:0:0:
64,192,102372,1,0,0:0:0:0:
448,192,102462,1,0,0:0:0:0:
192,192,102462,1,0,0:0:0:0:
320,192,102462,1,0,0:0:0:0:
64,192,102821,1,0,0:0:0:0:
192,192,102821,1,0,0:0:0:0:
320,192,102821,1,0,0:0:0:0:
64,192,103180,1,0,0:0:0:0:
320,192,103180,1,0,0:0:0:0:
448,192,103180,1,0,0:0:0:0:
64,192,103540,1,0,0:0:0:0:
320,192,103540,1,0,0:0:0:0:
192,192,103630,1,0,0:0:0:0:
320,192,103719,1,0,0:0:0:0:
192,192,103809,1,0,0:0:0:0:
448,192,103899,1,0,0:0:0:0:
320,192,103989,1,0,0:0:0:0:
64,192,104079,1,0,0:0:0:0:
192,192,104168,1,0,0:0:0:0:
320,192,104258,1,0,0:0:0:0:
192,192,104348,1,0,0:0:0:0:
64,192,104438,1,0,0:0:0:0:
448,192,104438,1,0,0:0:0:0:
320,192,104528,1,0,0:0:0:0:
64,192,104618,1,0,0:0:0:0:
448,192,104618,1,0,0:0:0:0:
192,192,104707,1,0,0:0:0:0:
320,192,104797,1,0,0:0:0:0:
192,192,104887,1,0,0:0:0:0:
64,192,104977,1,0,0:0:0:0:
320,192,104977,1,0,0:0:0:0:
448,192,104977,1,0,0:0:0:0:
448,192,105156,1,0,0:0:0:0:
320,192,105216,1,0,0:0:0:0:
192,192,105276,1,0,0:0:0:0:
64,192,105336,1,0,0:0:0:0:
192,192,105516,1,0,0:0:0:0:
448,192,105695,1,0,0:0:0:0:
192,192,105695,128,0,105785:0:0:0:0:
320,192,105875,1,0,0:0:0:0:
448,192,105875,128,0,105965:0:0:0:0:
192,192,106055,1,0,0:0:0:0:
64,192,106055,128,0,106144:0:0:0:0:
320,192,106234,128,0,106324:0:0:0:0:
448,192,106234,1,0,0:0:0:0:
192,192,106414,1,0,0:0:0:0:
64,192,106414,1,0,0:0:0:0:
64,192,106594,1,0,0:0:0:0:
192,192,106683,1,0,0:0:0:0:
64,192,106773,1,0,0:0:0:0:
448,192,106773,1,0,0:0:0:0:
320,192,106863,1,0,0:0:0:0:
192,192,106953,1,0,0:0:0:0:
320,192,107043,1,0,0:0:0:0:
192,192,107133,1,0,0:0:0:0:
448,192,107133,1,0,0:0:0:0:
320,192,107312,1,0,0:0:0:0:
192,192,107492,1,0,0:0:0:0:
320,192,107552,1,0,0:0:0:0:
448,192,107612,1,0,0:0:0:0:
64,192,107851,1,0,0:0:0:0:
320,192,107851,1,0,0:0:0:0:
320,192,108031,1,0,0:0:0:0:
448,192,108390,1,0,0:0:0:0:
192,192,108390,128,0,108570:0:0:0:0:
320,192,108570,1,0,0:0:0:0:
448,192,108570,128,0,108749:0:0:0:0:
64,192,108749,1,0,0:0:0:0:
320,192,108749,1,0,0:0:0:0:
192,192,108749,128,0,108929:0:0:0:0:
448,192,108929,1,0,0:0:0:0:
64,192,108929,128,0,109109:0:0:0:0:
320,192,109109,1,0,0:0:0:0:
192,192,109109,128,0,109288:0:0:0:0:
448,192,109288,1,0,0:0:0:0:
320,192,109378,1,0,0:0:0:0:
192,192,109468,1,0,0:0:0:0:
64,192,109558,1,0,0:0:0:0:
192,192,109647,1,0,0:0:0:0:
448,192,109647,1,0,0:0:0:0:
320,192,109737,1,0,0:0:0:0:
192,192,109827,1,0,0:0:0:0:
64,192,109917,1,0,0:0:0:0:
192,192,110007,1,0,0:0:0:0:
448,192,110007,1,0,0:0:0:0:
320,192,110186,1,0,0:0:0:0:
64,192,110366,1,0,0:0:0:0:
320,192,110366,1,0,0:0:0:0:
320,192,110546,1,0,0:0:0:0:
320,192,110725,1,0,0:0:0:0:
448,192,110725,1,0,0:0:0:0:
64,192,111085,1,0,0:0:0:0:
192,192,111174,1,0,0:0:0:0:
64,192,111264,1,0,0:0:0:0:
192,192,111354,1,0,0:0:0:0:
448,192,111444,1,0,0:0:0:0:
320,192,111624,1,0,0:0:0:0:
64,192,111803,1,0,0:0:0:0:
192,192,111983,1,0,0:0:0:0:
448,192,112162,1,0,0:0:0:0:
320,192,112222,1,0,0:0:0:0:
192,192,112282,1,0,0:0:0:0:
64,192,112342,1,0,0:0:0:0:
448,192,112402,1,0,0:0:0:0:
320,192,112462,1,0,0:0:0:0:
192,192,112522,1,0,0:0:0:0:
64,192,112582,1,0,0:0:0:0:
448,192,112642,1,0,0:0:0:0:
320,192,112701,1,0,0:0:0:0:
192,192,112761,1,0,0:0:0:0:
64,192,112821,1,0,0:0:0:0:
320,192,112881,1,0,0:0:0:0:
448,192,112881,1,0,0:0:0:0:
64,192,113001,1,0,0:0:0:0:
192,192,113061,1,0,0:0:0:0:
320,192,113121,1,0,0:0:0:0:
448,192,113180,1,0,0:0:0:0:
320,192,113240,1,0,0:0:0:0:
192,192,113300,1,0,0:0:0:0:
64,192,113360,1,0,0:0:0:0:
192,192,113420,1,0,0:0:0:0:
320,192,113480,1,0,0:0:0:0:
448,192,113540,1,0,0:0:0:0:
64,192,113600,1,0,0:0:0:0:
192,192,113600,1,0,0:0:0:0:
320,192,113600,1,0,0:0:0:0:
320,192,113719,1,0,0:0:0:0:
448,192,113779,1,0,0:0:0:0:
192,192,113839,1,0,0:0:0:0:
64,192,113899,1,0,0:0:0:0:
448,192,113959,1,0,0:0:0:0:
320,192,114019,1,0,0:0:0:0:
192,192,114079,1,0,0:0:0:0:
64,192,114139,1,0,0:0:0:0:
448,192,114198,1,0,0:0:0:0:
320,192,114258,1,0,0:0:0:0:
192,192,114318,1,0,0:0:0:0:
320,192,114408,1,0,0:0:0:0:
64,192,114498,1,0,0:0:0:0:
448,192,114498,1,0,0:0:0:0:
320,192,114588,1,0,0:0:0:0:
64,192,114677,1,0,0:0:0:0:
192,192,114767,1,0,0:0:0:0:
448,192,114857,1,0,0:0:0:0:
320,192,114947,1,0,0:0:0:0:
192,192,115037,1,0,0:0:0:0:
64,192,115037,1,0,0:0:0:0:
448,192,115216,1,0,0:0:0:0:
320,192,115306,1,0,0:0:0:0:
448,192,115396,1,0,0:0:0:0:
320,192,115486,1,0,0:0:0:0:
192,192,115576,1,0,0:0:0:0:
448,192,115665,1,0,0:0:0:0:
64,192,115665,1,0,0:0:0:0:
320,192,115755,1,0,0:0:0:0:
192,192,115845,1,0,0:0:0:0:
320,192,115935,1,0,0:0:0:0:
448,192,116025,1,0,0:0:0:0:
320,192,116115,1,0,0:0:0:0:
64,192,116204,1,0,0:0:0:0:
192,192,116294,1,0,0:0:0:0:
320,192,116384,1,0,0:0:0:0:
448,192,116474,1,0,0:0:0:0:
64,192,116474,1,0,0:0:0:0:
320,192,116653,1,0,0:0:0:0:
192,192,116743,1,0,0:0:0:0:
64,192,116833,1,0,0:0:0:0:
448,192,116833,1,0,0:0:0:0:
192,192,117013,1,0,0:0:0:0:
320,192,117103,1,0,0:0:0:0:
192,192,117192,1,0,0:0:0:0:
448,192,117192,1,0,0:0:0:0:
320,192,117372,1,0,0:0:0:0:
192,192,117462,1,0,0:0:0:0:
64,192,117552,1,0,0:0:0:0:
320,192,117552,1,0,0:0:0:0:
448,192,117731,1,0,0:0:0:0:
320,192,117821,1,0,0:0:0:0:
192,192,117911,1,0,0:0:0:0:
64,192,117911,1,0,0:0:0:0:
320,192,118001,1,0,0:0:0:0:
448,192,118091,1,0,0:0:0:0:
320,192,118180,1,0,0:0:0:0:
64,192,118270,1,0,0:0:0:0:
192,192,118360,1,0,0:0:0:0:
320,192,118450,1,0,0:0:0:0:
192,192,118540,1,0,0:0:0:0:
64,192,118630,1,0,0:0:0:0:
320,192,118630,1,0,0:0:0:0:
448,192,118630,1,0,0:0:0:0:
192,192,118719,1,0,0:0:0:0:
320,192,118809,1,0,0:0:0:0:
448,192,118899,1,0,0:0:0:0:
320,192,118989,1,0,0:0:0:0:
192,192,118989,1,0,0:0:0:0:
64,192,119079,1,0,0:0:0:0:
448,192,119168,1,0,0:0:0:0:
320,192,119258,1,0,0:0:0:0:
192,192,119348,1,0,0:0:0:0:
64,192,119348,1,0,0:0:0:0:
448,192,119438,1,0,0:0:0:0:
320,192,119528,1,0,0:0:0:0:
192,192,119618,1,0,0:0:0:0:
448,192,119707,1,0,0:0:0:0:
64,192,119707,1,0,0:0:0:0:
192,192,119767,1,0,0:0:0:0:
320,192,119827,1,0,0:0:0:0:
448,192,119887,1,0,0:0:0:0:
64,192,119947,1,0,0:0:0:0:
192,192,120007,1,0,0:0:0:0:
320,192,120067,1,0,0:0:0:0:
448,192,120067,1,0,0:0:0:0:
320,192,120246,1,0,0:0:0:0:
192,192,120306,1,0,0:0:0:0:
64,192,120366,1,0,0:0:0:0:
192,192,120426,1,0,0:0:0:0:
320,192,120486,1,0,0:0:0:0:
448,192,120546,1,0,0:0:0:0:
320,192,120606,1,0,0:0:0:0:
448,192,120665,1,0,0:0:0:0:
320,192,120725,1,0,0:0:0:0:
192,192,120785,1,0,0:0:0:0:
64,192,120785,1,0,0:0:0:0:
448,192,120845,1,0,0:0:0:0:
320,192,120905,1,0,0:0:0:0:
64,192,120965,1,0,0:0:0:0:
192,192,121025,1,0,0:0:0:0:
448,192,121085,1,0,0:0:0:0:
320,192,121144,1,0,0:0:0:0:
64,192,121144,1,0,0:0:0:0:
192,192,121204,1,0,0:0:0:0:
320,192,121264,1,0,0:0:0:0:
448,192,121324,1,0,0:0:0:0:
192,192,121324,1,0,0:0:0:0:
64,192,121384,1,0,0:0:0:0:
192,192,121444,1,0,0:0:0:0:
448,192,121504,1,0,0:0:0:0:
320,192,121594,1,0,0:0:0:0:
192,192,121683,1,0,0:0:0:0:
64,192,121773,1,0,0:0:0:0:
320,192,121863,1,0,0:0:0:0:
64,192,121953,1,0,0:0:0:0:
192,192,121953,1,0,0:0:0:0:
320,192,122043,1,0,0:0:0:0:
448,192,122133,1,0,0:0:0:0:
320,192,122222,1,0,0:0:0:0:
64,192,122222,1,0,0:0:0:0:
192,192,122222,1,0,0:0:0:0:
448,192,122342,1,0,0:0:0:0:
320,192,122402,1,0,0:0:0:0:
192,192,122462,1,0,0:0:0:0:
64,192,122522,1,0,0:0:0:0:
192,192,122582,1,0,0:0:0:0:
320,192,122642,1,0,0:0:0:0:
448,192,122701,1,0,0:0:0:0:
320,192,122761,1,0,0:0:0:0:
192,192,122821,1,0,0:0:0:0:
64,192,122881,1,0,0:0:0:0:
448,192,122941,1,0,0:0:0:0:
64,192,123031,1,0,0:0:0:0:
320,192,123031,1,0,0:0:0:0:
192,192,123121,1,0,0:0:0:0:
448,192,123210,1,0,0:0:0:0:
64,192,123300,1,0,0:0:0:0:
192,192,123300,1,0,0:0:0:0:
320,192,123390,1,0,0:0:0:0:
448,192,123480,1,0,0:0:0:0:
320,192,123570,1,0,0:0:0:0:
64,192,123659,1,0,0:0:0:0:
448,192,123659,1,0,0:0:0:0:
192,192,123659,1,0,0:0:0:0:
192,192,124019,1,0,0:0:0:0:
320,192,124198,1,0,0:0:0:0:
448,192,124198,1,0,0:0:0:0:
192,192,124737,1,0,0:0:0:0:
64,192,125097,1,0,0:0:0:0:
320,192,125097,1,0,0:0:0:0:
448,192,125097,1,0,0:0:0:0:
192,192,125456,1,0,0:0:0:0:
320,192,125636,1,0,0:0:0:0:
448,192,125636,1,0,0:0:0:0:
192,192,126174,1,0,0:0:0:0:
448,192,126534,128,0,127612:0:0:0:0:
64,192,127612,128,0,127791:0:0:0:0:
192,192,127791,128,0,127971:0:0:0:0:
64,192,128330,1,0,0:0:0:0:
192,192,128390,1,0,0:0:0:0:
448,192,128510,1,0,0:0:0:0:
64,192,128689,1,0,0:0:0:0:
192,192,128749,1,0,0:0:0:0:
320,192,128809,1,0,0:0:0:0:
448,192,129049,1,0,0:0:0:0:
320,192,129109,1,0,0:0:0:0:
192,192,129168,1,0,0:0:0:0:
64,192,129228,1,0,0:0:0:0:
320,192,129228,1,0,0:0:0:0:
448,192,129288,1,0,0:0:0:0:
192,192,129348,1,0,0:0:0:0:
64,192,129408,1,0,0:0:0:0:
320,192,129468,1,0,0:0:0:0:
448,192,129528,1,0,0:0:0:0:
320,192,129588,1,0,0:0:0:0:
192,192,129647,1,0,0:0:0:0:
448,192,129707,1,0,0:0:0:0:
64,192,129707,1,0,0:0:0:0:
320,192,129767,1,0,0:0:0:0:
192,192,129827,1,0,0:0:0:0:
320,192,129887,1,0,0:0:0:0:
64,192,130007,1,0,0:0:0:0:
448,192,130067,1,0,0:0:0:0:
192,192,130067,1,0,0:0:0:0:
320,192,130127,1,0,0:0:0:0:
192,192,130186,1,0,0:0:0:0:
448,192,130246,1,0,0:0:0:0:
320,192,130306,1,0,0:0:0:0:
192,192,130366,1,0,0:0:0:0:
64,192,130426,1,0,0:0:0:0:
320,192,130486,1,0,0:0:0:0:
448,192,130546,1,0,0:0:0:0:
64,192,130606,1,0,0:0:0:0:
192,192,130665,1,0,0:0:0:0:
320,192,130725,1,0,0:0:0:0:
64,192,130785,1,0,0:0:0:0:
448,192,130785,1,0,0:0:0:0:
320,192,130905,1,0,0:0:0:0:
448,192,130965,1,0,0:0:0:0:
64,192,131025,1,0,0:0:0:0:
192,192,131085,1,0,0:0:0:0:
320,192,131144,1,0,0:0:0:0:
64,192,131204,1,0,0:0:0:0:
320,192,131324,1,0,0:0:0:0:
448,192,131384,1,0,0:0:0:0:
64,192,131444,1,0,0:0:0:0:
192,192,131504,1,0,0:0:0:0:
320,192,131564,1,0,0:0:0:0:
64,192,131624,1,0,0:0:0:0:
192,192,131683,1,0,0:0:0:0:
320,192,131743,1,0,0:0:0:0:
448,192,131803,1,0,0:0:0:0:
192,192,131863,1,0,0:0:0:0:
320,192,131923,1,0,0:0:0:0:
64,192,132103,1,0,0:0:0:0:
192,192,132192,1,0,0:0:0:0:
320,192,132282,1,0,0:0:0:0:
192,192,132372,1,0,0:0:0:0:
320,192,132462,1,0,0:0:0:0:
192,192,132552,1,0,0:0:0:0:
320,192,132642,1,0,0:0:0:0:
64,192,132731,1,0,0:0:0:0:
448,192,132821,1,0,0:0:0:0:
64,192,132911,1,0,0:0:0:0:
448,192,133001,1,0,0:0:0:0:
64,192,133091,1,0,0:0:0:0:
320,192,133180,1,0,0:0:0:0:
448,192,133270,1,0,0:0:0:0:
64,192,133360,1,0,0:0:0:0:
192,192,133450,1,0,0:0:0:0:
320,192,133540,1,0,0:0:0:0:
448,192,133630,1,0,0:0:0:0:
192,192,133719,1,0,0:0:0:0:
320,192,133809,1,0,0:0:0:0:
192,192,133899,1,0,0:0:0:0:
320,192,133989,1,0,0:0:0:0:
192,192,134079,1,0,0:0:0:0:
64,192,134168,1,0,0:0:0:0:
448,192,134168,1,0,0:0:0:0:
320,192,134258,1,0,0:0:0:0:
192,192,134348,1,0,0:0:0:0:
320,192,134438,1,0,0:0:0:0:
192,192,134528,1,0,0:0:0:0:
64,192,134618,1,0,0:0:0:0:
192,192,134707,1,0,0:0:0:0:
320,192,134797,1,0,0:0:0:0:
448,192,134797,128,0,135516:0:0:0:0:
192,192,134887,1,0,0:0:0:0:
320,192,134977,1,0,0:0:0:0:
192,192,135067,1,0,0:0:0:0:
320,192,135156,1,0,0:0:0:0:
320,192,135516,1,0,0:0:0:0:
64,192,135516,128,0,139109:0:0:0:0:
448,192,137671,1,0,0:0:0:0:
320,192,137731,1,0,0:0:0:0:
192,192,137791,1,0,0:0:0:0:
