osu file format v12

[General]
AudioFilename: HAELEQUIN.mp3
AudioLeadIn: 0
PreviewTime: 103535
Countdown: 0
SampleSet: Soft
StackLeniency: 0.7
Mode: 3
LetterboxInBreaks: 1
EpilepsyWarning: 1
SpecialStyle: 0
WidescreenStoryboard: 0

[Editor]
Bookmarks: 14450,28821,40318,51815,63312,77683,89180,103552,115049,123671,135168
DistanceSpacing: 1.6
BeatDivisor: 8
GridSize: 8

[Metadata]
Title:HAELEQUIN
TitleUnicode:HAELEQUIN
Artist:orangentle
ArtistUnicode:orangentle
Creator:DJNightmare
Version:Maximum
Source:BMS Of Fighters 2012 -Ein neuer Heiliger Krieg-
Tags:Hanyuu ExPew ishimaru94 deadblue238
BeatmapID:308455
BeatmapSetID:115198

[Difficulty]
HPDrainRate:7
CircleSize:7
OverallDifficulty:7
ApproachRate:5
SliderMultiplier:1.4
SliderTickRate:1

[Events]
//Background and Video events
Video,0,"BGA.flv"
0,0,"HAELEQUIN.jpg",0,0
//Break Periods
//Storyboard Layer 0 (Background)
//Storyboard Layer 1 (Fail)
//Storyboard Layer 2 (Pass)
//Storyboard Layer 3 (Foreground)
Sprite,Foreground,Centre,"SB\Collab\Ishi-Blur.png",320,240 S,0,1437,,0.2565474 M,1,1437,1796,-257,310,509,310
Sprite,Foreground,Centre,"SB\Collab\Ishi.png",320,240 M,0,1796,,525,311 S,0,1796,,0.2565482 M,0,135089,135449,525,510 M,1,135449,135808,525,510,525,209 M,1,135808,139401,525,209,525,155 F,0,139131,139401,1,0
//Storyboard Sound Samples
//Background Colour Transformations
3,100,163,162,255

[TimingPoints]
1076,425.531914893617,4,2,0,40,1,0
1500,359.281437125748,4,2,0,40,1,0
51799,-200,4,2,0,40,0,0
60422,-100,4,2,0,40,0,0

[HitObjects]
109,192,1076,1,0,0:0:0:0:
182,192,1182,1,0,0:0:0:0:
256,192,1288,1,0,0:0:0:0:
329,192,1395,1,0,0:0:0:0:
36,192,1500,1,0,0:0:0:0:
182,192,1500,1,0,0:0:0:0:
402,192,1500,1,0,0:0:0:0:
109,192,2038,1,0,0:0:0:0:
329,192,2038,1,0,0:0:0:0:
475,192,2038,1,0,0:0:0:0:
256,192,2577,1,0,0:0:0:0:
182,192,2577,1,0,0:0:0:0:
36,192,2577,1,0,0:0:0:0:
109,192,3116,1,0,0:0:0:0:
329,192,3116,1,0,0:0:0:0:
402,192,3116,1,0,0:0:0:0:
256,192,3655,1,0,0:0:0:0:
36,192,3655,1,0,0:0:0:0:
475,192,3655,1,0,0:0:0:0:
109,192,4014,1,0,0:0:0:0:
402,192,4014,1,0,0:0:0:0:
256,192,4014,1,0,0:0:0:0:
36,192,4374,1,0,0:0:0:0:
256,192,4374,1,0,0:0:0:0:
475,192,4374,1,0,0:0:0:0:
109,192,4913,1,0,0:0:0:0:
182,192,4913,1,0,0:0:0:0:
329,192,4913,1,0,0:0:0:0:
256,192,5452,1,0,0:0:0:0:
402,192,5452,1,0,0:0:0:0:
475,192,5452,1,0,0:0:0:0:
109,192,5991,1,0,0:0:0:0:
329,192,5991,1,0,0:0:0:0:
36,192,5991,1,0,0:0:0:0:
109,192,6529,1,0,0:0:0:0:
256,192,6529,1,0,0:0:0:0:
402,192,6529,1,0,0:0:0:0:
109,192,7068,128,0,7158:0:0:0:0:
182,192,7158,128,0,7248:0:0:0:0:
256,192,7248,128,0,8505:0:0:0:0:
475,192,7248,1,0,0:0:0:0:
402,192,7428,1,0,0:0:0:0:
109,192,7607,1,0,0:0:0:0:
329,192,7607,1,0,0:0:0:0:
402,192,7787,1,0,0:0:0:0:
475,192,7967,1,0,0:0:0:0:
329,192,8146,1,0,0:0:0:0:
36,192,8326,1,0,0:0:0:0:
182,192,8326,1,0,0:0:0:0:
329,192,8505,128,0,8595:0:0:0:0:
109,192,8505,1,0,0:0:0:0:
402,192,8595,128,0,8685:0:0:0:0:
475,192,8685,128,0,9943:0:0:0:0:
182,192,8685,1,0,0:0:0:0:
256,192,8865,1,0,0:0:0:0:
329,192,9044,1,0,0:0:0:0:
109,192,9044,1,0,0:0:0:0:
402,192,9224,1,0,0:0:0:0:
329,192,9404,1,0,0:0:0:0:
256,192,9583,1,0,0:0:0:0:
109,192,9763,1,0,0:0:0:0:
402,192,9763,1,0,0:0:0:0:
182,192,9943,128,0,10032:0:0:0:0:
329,192,9943,1,0,0:0:0:0:
109,192,10032,128,0,10122:0:0:0:0:
36,192,10122,128,0,11559:0:0:0:0:
256,192,10122,1,0,0:0:0:0:
329,192,10302,1,0,0:0:0:0:
402,192,10482,1,0,0:0:0:0:
182,192,10482,1,0,0:0:0:0:
256,192,10661,1,0,0:0:0:0:
329,192,10841,1,0,0:0:0:0:
402,192,11020,1,0,0:0:0:0:
109,192,11200,1,0,0:0:0:0:
329,192,11200,1,0,0:0:0:0:
182,192,11380,1,0,0:0:0:0:
475,192,11559,1,0,0:0:0:0:
256,192,11559,1,0,0:0:0:0:
109,192,11919,128,0,14434:0:0:0:0:
402,192,11919,128,0,14434:0:0:0:0:
329,192,12997,1,0,0:0:0:0:
475,192,13086,1,0,0:0:0:0:
182,192,13266,1,0,0:0:0:0:
36,192,13356,1,0,0:0:0:0:
475,192,13535,1,0,0:0:0:0:
329,192,13625,1,0,0:0:0:0:
36,192,13805,1,0,0:0:0:0:
182,192,13895,1,0,0:0:0:0:
256,192,14074,1,0,0:0:0:0:
182,192,14164,1,0,0:0:0:0:
256,192,14254,1,0,0:0:0:0:
329,192,14344,1,0,0:0:0:0:
475,192,14434,1,0,0:0:0:0:
36,192,14434,1,0,0:0:0:0:
256,192,14434,1,0,0:0:0:0:
182,192,14613,1,0,0:0:0:0:
329,192,14613,1,0,0:0:0:0:
256,192,14793,1,0,0:0:0:0:
109,192,14973,128,0,15332:0:0:0:0:
402,192,14973,128,0,15332:0:0:0:0:
329,192,15332,1,0,0:0:0:0:
182,192,15332,1,0,0:0:0:0:
109,192,15511,1,0,0:0:0:0:
402,192,15511,1,0,0:0:0:0:
36,192,15511,1,0,0:0:0:0:
475,192,15511,1,0,0:0:0:0:
182,192,15691,1,0,0:0:0:0:
329,192,15691,1,0,0:0:0:0:
109,192,15871,1,0,0:0:0:0:
402,192,15871,1,0,0:0:0:0:
182,192,16050,1,0,0:0:0:0:
329,192,16050,1,0,0:0:0:0:
256,192,16230,1,0,0:0:0:0:
109,192,16410,128,0,16769:0:0:0:0:
402,192,16410,128,0,16769:0:0:0:0:
182,192,16769,1,0,0:0:0:0:
329,192,16769,1,0,0:0:0:0:
109,192,16949,1,0,0:0:0:0:
402,192,16949,1,0,0:0:0:0:
256,192,17038,1,0,0:0:0:0:
329,192,17128,1,0,0:0:0:0:
36,192,17128,1,0,0:0:0:0:
402,192,17218,1,0,0:0:0:0:
36,192,17308,1,0,0:0:0:0:
475,192,17308,128,0,17757:0:0:0:0:
182,192,17488,1,0,0:0:0:0:
109,192,17667,1,0,0:0:0:0:
256,192,17757,1,0,0:0:0:0:
329,192,17847,1,0,0:0:0:0:
36,192,17847,1,0,0:0:0:0:
402,192,17937,1,0,0:0:0:0:
475,192,18026,128,0,18206:0:0:0:0:
182,192,18026,1,0,0:0:0:0:
402,192,18206,128,0,18386:0:0:0:0:
36,192,18206,1,0,0:0:0:0:
329,192,18386,128,0,18565:0:0:0:0:
109,192,18386,1,0,0:0:0:0:
475,192,18565,128,0,18745:0:0:0:0:
182,192,18565,1,0,0:0:0:0:
36,192,18745,1,0,0:0:0:0:
402,192,18745,128,0,19014:0:0:0:0:
182,192,18925,1,0,0:0:0:0:
329,192,19014,128,0,19284:0:0:0:0:
109,192,19104,1,0,0:0:0:0:
36,192,19284,1,0,0:0:0:0:
256,192,19284,128,0,19643:0:0:0:0:
182,192,19464,1,0,0:0:0:0:
36,192,19643,1,0,0:0:0:0:
36,192,19733,1,0,0:0:0:0:
36,192,20002,1,0,0:0:0:0:
256,192,20002,1,0,0:0:0:0:
329,192,20092,1,0,0:0:0:0:
36,192,20182,1,0,0:0:0:0:
402,192,20182,128,0,20721:0:0:0:0:
109,192,20362,1,0,0:0:0:0:
182,192,20541,1,0,0:0:0:0:
36,192,20721,1,0,0:0:0:0:
256,192,20721,1,0,0:0:0:0:
329,192,20811,1,0,0:0:0:0:
475,192,20901,128,0,21080:0:0:0:0:
182,192,20901,1,0,0:0:0:0:
402,192,21080,128,0,21260:0:0:0:0:
109,192,21080,1,0,0:0:0:0:
329,192,21260,128,0,21440:0:0:0:0:
36,192,21260,1,0,0:0:0:0:
256,192,21440,128,0,21619:0:0:0:0:
109,192,21440,1,0,0:0:0:0:
329,192,21619,128,0,22338:0:0:0:0:
36,192,21619,1,0,0:0:0:0:
109,192,21799,1,0,0:0:0:0:
182,192,21979,1,0,0:0:0:0:
36,192,22158,1,0,0:0:0:0:
109,192,22338,1,0,0:0:0:0:
36,192,22517,1,0,0:0:0:0:
256,192,22517,1,0,0:0:0:0:
36,192,22607,1,0,0:0:0:0:
329,192,22697,1,0,0:0:0:0:
36,192,22877,1,0,0:0:0:0:
402,192,22877,1,0,0:0:0:0:
475,192,23056,1,0,0:0:0:0:
329,192,23056,1,0,0:0:0:0:
182,192,23056,1,0,0:0:0:0:
402,192,23326,1,0,0:0:0:0:
256,192,23326,1,0,0:0:0:0:
109,192,23326,1,0,0:0:0:0:
475,192,23595,1,0,0:0:0:0:
182,192,23595,1,0,0:0:0:0:
329,192,23595,128,0,24134:0:0:0:0:
402,192,24134,1,0,0:0:0:0:
109,192,24314,1,0,0:0:0:0:
329,192,24494,1,0,0:0:0:0:
182,192,24494,1,0,0:0:0:0:
36,192,24494,1,0,0:0:0:0:
402,192,24763,1,0,0:0:0:0:
109,192,24763,1,0,0:0:0:0:
256,192,24763,1,0,0:0:0:0:
329,192,25032,1,0,0:0:0:0:
36,192,25032,1,0,0:0:0:0:
182,192,25032,128,0,25571:0:0:0:0:
109,192,25571,1,0,0:0:0:0:
402,192,25571,1,0,0:0:0:0:
256,192,25751,1,0,0:0:0:0:
329,192,25841,1,0,0:0:0:0:
402,192,25931,128,0,26470:0:0:0:0:
36,192,25931,1,0,0:0:0:0:
182,192,26110,1,0,0:0:0:0:
109,192,26290,1,0,0:0:0:0:
329,192,26470,128,0,26649:0:0:0:0:
36,192,26470,1,0,0:0:0:0:
402,192,26649,128,0,26919:0:0:0:0:
109,192,26649,1,0,0:0:0:0:
36,192,26829,1,0,0:0:0:0:
475,192,26919,128,0,27188:0:0:0:0:
36,192,26919,1,0,0:0:0:0:
402,192,27188,1,0,0:0:0:0:
36,192,27188,1,0,0:0:0:0:
402,192,27368,128,0,27547:0:0:0:0:
36,192,27368,1,0,0:0:0:0:
182,192,27547,1,0,0:0:0:0:
329,192,27727,128,0,28535:0:0:0:0:
36,192,27727,1,0,0:0:0:0:
475,192,27727,128,0,28535:0:0:0:0:
109,192,27907,1,0,0:0:0:0:
182,192,28086,1,0,0:0:0:0:
36,192,28266,1,0,0:0:0:0:
36,192,28356,1,0,0:0:0:0:
256,192,28535,1,0,0:0:0:0:
329,192,28625,1,0,0:0:0:0:
36,192,28625,1,0,0:0:0:0:
402,192,28715,1,0,0:0:0:0:
475,192,28805,128,0,29254:0:0:0:0:
36,192,28805,1,0,0:0:0:0:
256,192,28805,1,0,0:0:0:0:
182,192,28985,1,0,0:0:0:0:
36,192,29164,1,0,0:0:0:0:
256,192,29254,1,0,0:0:0:0:
329,192,29344,1,0,0:0:0:0:
109,192,29344,1,0,0:0:0:0:
402,192,29434,1,0,0:0:0:0:
475,192,29523,128,0,29703:0:0:0:0:
36,192,29523,1,0,0:0:0:0:
402,192,29703,128,0,29883:0:0:0:0:
182,192,29703,1,0,0:0:0:0:
329,192,29883,128,0,30062:0:0:0:0:
36,192,29883,1,0,0:0:0:0:
475,192,30062,128,0,30242:0:0:0:0:
109,192,30062,1,0,0:0:0:0:
36,192,30242,1,0,0:0:0:0:
402,192,30242,128,0,30511:0:0:0:0:
182,192,30422,1,0,0:0:0:0:
329,192,30511,128,0,30781:0:0:0:0:
36,192,30601,1,0,0:0:0:0:
256,192,30781,128,0,31320:0:0:0:0:
109,192,30781,1,0,0:0:0:0:
36,192,30961,1,0,0:0:0:0:
329,192,31230,1,0,0:0:0:0:
36,192,31320,1,0,0:0:0:0:
182,192,31320,1,0,0:0:0:0:
36,192,31499,1,0,0:0:0:0:
329,192,31499,1,0,0:0:0:0:
36,192,31679,1,0,0:0:0:0:
256,192,31679,1,0,0:0:0:0:
402,192,31679,128,0,31949:0:0:0:0:
475,192,31949,128,0,32218:0:0:0:0:
402,192,32218,128,0,32398:0:0:0:0:
329,192,32398,128,0,32667:0:0:0:0:
475,192,32398,1,0,0:0:0:0:
36,192,32398,1,0,0:0:0:0:
182,192,32667,128,0,32937:0:0:0:0:
109,192,32937,128,0,33116:0:0:0:0:
329,192,33116,128,0,33835:0:0:0:0:
475,192,33116,128,0,33835:0:0:0:0:
36,192,33116,1,0,0:0:0:0:
256,192,33116,1,0,0:0:0:0:
36,192,33835,1,0,0:0:0:0:
256,192,33835,1,0,0:0:0:0:
36,192,34194,1,0,0:0:0:0:
329,192,34194,128,0,34553:0:0:0:0:
475,192,34194,128,0,34553:0:0:0:0:
182,192,34284,1,0,0:0:0:0:
36,192,34374,1,0,0:0:0:0:
182,192,34464,1,0,0:0:0:0:
36,192,34553,1,0,0:0:0:0:
256,192,34553,128,0,34913:0:0:0:0:
109,192,34553,1,0,0:0:0:0:
402,192,34553,128,0,34913:0:0:0:0:
182,192,34733,1,0,0:0:0:0:
36,192,34913,1,0,0:0:0:0:
329,192,35092,128,0,35272:0:0:0:0:
109,192,35092,1,0,0:0:0:0:
256,192,35272,128,0,35452:0:0:0:0:
36,192,35272,1,0,0:0:0:0:
329,192,35452,128,0,35631:0:0:0:0:
182,192,35452,1,0,0:0:0:0:
402,192,35631,128,0,35811:0:0:0:0:
36,192,35631,1,0,0:0:0:0:
475,192,35811,128,0,35991:0:0:0:0:
109,192,35811,1,0,0:0:0:0:
329,192,35991,128,0,36260:0:0:0:0:
36,192,35991,1,0,0:0:0:0:
182,192,36170,1,0,0:0:0:0:
402,192,36260,128,0,36529:0:0:0:0:
36,192,36350,1,0,0:0:0:0:
475,192,36529,128,0,37068:0:0:0:0:
109,192,36529,1,0,0:0:0:0:
36,192,36709,1,0,0:0:0:0:
182,192,36889,1,0,0:0:0:0:
36,192,37068,1,0,0:0:0:0:
109,192,37248,1,0,0:0:0:0:
329,192,37248,1,0,0:0:0:0:
402,192,37338,1,0,0:0:0:0:
36,192,37428,1,0,0:0:0:0:
256,192,37428,1,0,0:0:0:0:
475,192,37428,128,0,37697:0:0:0:0:
402,192,37697,128,0,37967:0:0:0:0:
329,192,37967,128,0,38146:0:0:0:0:
256,192,38146,1,0,0:0:0:0:
475,192,38146,1,0,0:0:0:0:
109,192,38146,128,0,38416:0:0:0:0:
182,192,38416,128,0,38685:0:0:0:0:
475,192,38685,128,0,38865:0:0:0:0:
36,192,38865,1,0,0:0:0:0:
256,192,38865,1,0,0:0:0:0:
329,192,38865,128,0,39044:0:0:0:0:
182,192,39044,1,0,0:0:0:0:
36,192,39224,1,0,0:0:0:0:
256,192,39224,128,0,39943:0:0:0:0:
402,192,39224,128,0,39943:0:0:0:0:
182,192,39404,1,0,0:0:0:0:
36,192,39583,1,0,0:0:0:0:
182,192,39763,1,0,0:0:0:0:
36,192,39943,1,0,0:0:0:0:
475,192,39943,1,0,0:0:0:0:
182,192,40032,1,0,0:0:0:0:
329,192,40032,1,0,0:0:0:0:
36,192,40122,1,0,0:0:0:0:
475,192,40122,1,0,0:0:0:0:
182,192,40212,1,0,0:0:0:0:
329,192,40212,1,0,0:0:0:0:
36,192,40302,1,0,0:0:0:0:
256,192,40302,1,0,0:0:0:0:
475,192,40302,1,0,0:0:0:0:
329,192,40482,1,0,0:0:0:0:
109,192,40482,1,0,0:0:0:0:
402,192,40571,1,0,0:0:0:0:
182,192,40571,1,0,0:0:0:0:
329,192,40661,1,0,0:0:0:0:
109,192,40661,1,0,0:0:0:0:
256,192,40751,1,0,0:0:0:0:
36,192,40751,1,0,0:0:0:0:
182,192,40841,1,0,0:0:0:0:
475,192,40841,1,0,0:0:0:0:
109,192,40931,1,0,0:0:0:0:
402,192,40931,1,0,0:0:0:0:
36,192,41020,1,0,0:0:0:0:
329,192,41020,1,0,0:0:0:0:
182,192,41200,1,0,0:0:0:0:
402,192,41200,1,0,0:0:0:0:
109,192,41290,1,0,0:0:0:0:
329,192,41290,1,0,0:0:0:0:
182,192,41380,1,0,0:0:0:0:
402,192,41380,1,0,0:0:0:0:
256,192,41470,1,0,0:0:0:0:
475,192,41470,1,0,0:0:0:0:
36,192,41470,1,0,0:0:0:0:
329,192,41559,1,0,0:0:0:0:
109,192,41559,1,0,0:0:0:0:
402,192,41649,1,0,0:0:0:0:
182,192,41649,1,0,0:0:0:0:
329,192,41739,1,0,0:0:0:0:
109,192,41739,1,0,0:0:0:0:
182,192,41919,1,0,0:0:0:0:
402,192,41919,1,0,0:0:0:0:
109,192,42008,1,0,0:0:0:0:
329,192,42008,1,0,0:0:0:0:
182,192,42098,1,0,0:0:0:0:
402,192,42098,1,0,0:0:0:0:
256,192,42188,1,0,0:0:0:0:
475,192,42188,1,0,0:0:0:0:
329,192,42278,1,0,0:0:0:0:
36,192,42278,1,0,0:0:0:0:
402,192,42368,1,0,0:0:0:0:
109,192,42368,1,0,0:0:0:0:
475,192,42458,1,0,0:0:0:0:
182,192,42458,1,0,0:0:0:0:
329,192,42637,1,0,0:0:0:0:
109,192,42637,1,0,0:0:0:0:
402,192,42727,1,0,0:0:0:0:
182,192,42727,1,0,0:0:0:0:
329,192,42817,1,0,0:0:0:0:
109,192,42817,1,0,0:0:0:0:
256,192,42907,1,0,0:0:0:0:
36,192,42907,1,0,0:0:0:0:
182,192,42997,1,0,0:0:0:0:
402,192,42997,1,0,0:0:0:0:
109,192,43086,1,0,0:0:0:0:
329,192,43086,1,0,0:0:0:0:
36,192,43176,1,0,0:0:0:0:
475,192,43176,1,0,0:0:0:0:
256,192,43176,1,0,0:0:0:0:
182,192,43356,1,0,0:0:0:0:
402,192,43356,1,0,0:0:0:0:
109,192,43446,1,0,0:0:0:0:
329,192,43446,1,0,0:0:0:0:
182,192,43535,1,0,0:0:0:0:
402,192,43535,1,0,0:0:0:0:
256,192,43625,1,0,0:0:0:0:
475,192,43625,1,0,0:0:0:0:
329,192,43715,1,0,0:0:0:0:
36,192,43715,1,0,0:0:0:0:
402,192,43805,1,0,0:0:0:0:
109,192,43805,1,0,0:0:0:0:
475,192,43895,128,0,44074:0:0:0:0:
182,192,43895,1,0,0:0:0:0:
402,192,44074,128,0,44254:0:0:0:0:
109,192,44074,1,0,0:0:0:0:
329,192,44254,128,0,44434:0:0:0:0:
36,192,44254,1,0,0:0:0:0:
475,192,44434,128,0,44613:0:0:0:0:
182,192,44434,1,0,0:0:0:0:
109,192,44523,1,0,0:0:0:0:
36,192,44613,1,0,0:0:0:0:
256,192,44613,128,0,44973:0:0:0:0:
402,192,44613,128,0,44973:0:0:0:0:
36,192,44973,1,0,0:0:0:0:
329,192,44973,128,0,45332:0:0:0:0:
182,192,44973,128,0,45332:0:0:0:0:
36,192,45332,1,0,0:0:0:0:
256,192,45332,128,0,45691:0:0:0:0:
109,192,45332,128,0,45691:0:0:0:0:
36,192,45691,1,0,0:0:0:0:
329,192,45691,128,0,45871:0:0:0:0:
475,192,45691,128,0,45871:0:0:0:0:
182,192,45781,1,0,0:0:0:0:
256,192,45871,1,0,0:0:0:0:
36,192,45871,1,0,0:0:0:0:
329,192,45961,1,0,0:0:0:0:
182,192,45961,1,0,0:0:0:0:
402,192,46050,1,0,0:0:0:0:
36,192,46050,1,0,0:0:0:0:
109,192,46050,1,0,0:0:0:0:
475,192,46140,1,0,0:0:0:0:
402,192,46230,1,0,0:0:0:0:
329,192,46320,1,0,0:0:0:0:
256,192,46410,1,0,0:0:0:0:
329,192,46499,1,0,0:0:0:0:
256,192,46589,1,0,0:0:0:0:
182,192,46679,1,0,0:0:0:0:
109,192,46769,1,0,0:0:0:0:
36,192,46859,1,0,0:0:0:0:
402,192,46949,1,0,0:0:0:0:
329,192,47038,1,0,0:0:0:0:
256,192,47128,1,0,0:0:0:0:
329,192,47218,1,0,0:0:0:0:
402,192,47308,1,0,0:0:0:0:
109,192,47398,1,0,0:0:0:0:
182,192,47488,1,0,0:0:0:0:
256,192,47577,1,0,0:0:0:0:
182,192,47667,1,0,0:0:0:0:
109,192,47757,1,0,0:0:0:0:
402,192,47847,1,0,0:0:0:0:
109,192,47937,1,0,0:0:0:0:
402,192,48026,1,0,0:0:0:0:
256,192,48116,1,0,0:0:0:0:
36,192,48206,1,0,0:0:0:0:
109,192,48266,1,0,0:0:0:0:
182,192,48326,1,0,0:0:0:0:
256,192,48386,1,0,0:0:0:0:
329,192,48446,1,0,0:0:0:0:
402,192,48505,1,0,0:0:0:0:
475,192,48565,1,0,0:0:0:0:
402,192,48925,1,0,0:0:0:0:
475,192,49014,1,0,0:0:0:0:
402,192,49104,1,0,0:0:0:0:
329,192,49194,1,0,0:0:0:0:
256,192,49284,1,0,0:0:0:0:
329,192,49374,1,0,0:0:0:0:
256,192,49464,1,0,0:0:0:0:
182,192,49553,1,0,0:0:0:0:
109,192,49643,1,0,0:0:0:0:
36,192,49733,1,0,0:0:0:0:
109,192,49823,1,0,0:0:0:0:
182,192,49913,1,0,0:0:0:0:
256,192,50002,1,0,0:0:0:0:
329,192,50092,1,0,0:0:0:0:
402,192,50182,1,0,0:0:0:0:
475,192,50272,1,0,0:0:0:0:
36,192,50362,1,0,0:0:0:0:
402,192,50362,128,0,50901:0:0:0:0:
109,192,50541,1,0,0:0:0:0:
182,192,50721,1,0,0:0:0:0:
109,192,50901,1,0,0:0:0:0:
256,192,50901,1,0,0:0:0:0:
402,192,50991,1,0,0:0:0:0:
36,192,51080,1,0,0:0:0:0:
256,192,51080,128,0,51440:0:0:0:0:
182,192,51260,1,0,0:0:0:0:
36,192,51440,1,0,0:0:0:0:
475,192,51440,1,0,0:0:0:0:
109,192,51529,1,0,0:0:0:0:
402,192,51529,1,0,0:0:0:0:
182,192,51619,1,0,0:0:0:0:
329,192,51619,1,0,0:0:0:0:
109,192,51709,1,0,0:0:0:0:
402,192,51709,1,0,0:0:0:0:
36,192,51799,1,0,0:0:0:0:
256,192,51799,1,0,0:0:0:0:
475,192,51799,128,0,54673:0:0:0:0:
109,192,51979,1,0,0:0:0:0:
402,192,52248,1,0,0:0:0:0:
109,192,52517,1,0,0:0:0:0:
109,192,52787,1,0,0:0:0:0:
402,192,53056,1,0,0:0:0:0:
109,192,53416,1,0,0:0:0:0:
402,192,53685,1,0,0:0:0:0:
109,192,53955,1,0,0:0:0:0:
109,192,54224,1,0,0:0:0:0:
402,192,54494,1,0,0:0:0:0:
329,192,54673,128,0,56829:0:0:0:0:
36,192,54853,1,0,0:0:0:0:
256,192,55122,1,0,0:0:0:0:
36,192,55392,1,0,0:0:0:0:
36,192,55661,1,0,0:0:0:0:
256,192,55931,1,0,0:0:0:0:
36,192,56290,1,0,0:0:0:0:
256,192,56559,1,0,0:0:0:0:
182,192,56829,128,0,57547:0:0:0:0:
402,192,56829,128,0,57547:0:0:0:0:
36,192,56829,1,0,0:0:0:0:
256,192,57098,1,0,0:0:0:0:
475,192,57368,1,0,0:0:0:0:
109,192,57547,128,0,58985:0:0:0:0:
329,192,57727,1,0,0:0:0:0:
475,192,57997,1,0,0:0:0:0:
329,192,58266,1,0,0:0:0:0:
329,192,58535,1,0,0:0:0:0:
402,192,58805,1,0,0:0:0:0:
36,192,58985,128,0,60422:0:0:0:0:
329,192,59164,1,0,0:0:0:0:
475,192,59434,1,0,0:0:0:0:
329,192,59703,1,0,0:0:0:0:
329,192,59973,1,0,0:0:0:0:
402,192,60242,1,0,0:0:0:0:
256,192,60422,1,0,0:0:0:0:
475,192,60422,1,0,0:0:0:0:
182,192,60511,1,0,0:0:0:0:
36,192,60601,1,0,0:0:0:0:
182,192,60691,1,0,0:0:0:0:
36,192,60781,1,0,0:0:0:0:
182,192,60871,1,0,0:0:0:0:
36,192,60961,1,0,0:0:0:0:
109,192,61050,1,0,0:0:0:0:
329,192,61140,1,0,0:0:0:0:
182,192,61140,1,0,0:0:0:0:
36,192,61140,1,0,0:0:0:0:
109,192,61230,1,0,0:0:0:0:
256,192,61320,1,0,0:0:0:0:
109,192,61410,1,0,0:0:0:0:
256,192,61499,1,0,0:0:0:0:
109,192,61589,1,0,0:0:0:0:
256,192,61679,1,0,0:0:0:0:
109,192,61769,1,0,0:0:0:0:
36,192,61859,1,0,0:0:0:0:
475,192,61859,1,0,0:0:0:0:
329,192,61859,1,0,0:0:0:0:
182,192,61949,1,0,0:0:0:0:
329,192,62038,1,0,0:0:0:0:
256,192,62128,1,0,0:0:0:0:
402,192,62218,1,0,0:0:0:0:
182,192,62218,1,0,0:0:0:0:
36,192,62218,1,0,0:0:0:0:
475,192,62308,1,0,0:0:0:0:
402,192,62398,1,0,0:0:0:0:
475,192,62488,1,0,0:0:0:0:
329,192,62577,1,0,0:0:0:0:
109,192,62577,1,0,0:0:0:0:
36,192,62577,1,0,0:0:0:0:
256,192,62667,1,0,0:0:0:0:
402,192,62757,1,0,0:0:0:0:
475,192,62757,1,0,0:0:0:0:
182,192,62757,1,0,0:0:0:0:
256,192,62847,1,0,0:0:0:0:
36,192,62937,1,0,0:0:0:0:
182,192,62937,1,0,0:0:0:0:
329,192,63026,1,0,0:0:0:0:
475,192,63026,1,0,0:0:0:0:
182,192,63116,1,0,0:0:0:0:
36,192,63116,1,0,0:0:0:0:
329,192,63206,1,0,0:0:0:0:
475,192,63206,1,0,0:0:0:0:
182,192,63296,1,0,0:0:0:0:
36,192,63296,1,0,0:0:0:0:
402,192,63296,128,0,63416:0:0:0:0:
256,192,63296,1,0,0:0:0:0:
256,192,63416,128,0,63535:0:0:0:0:
109,192,63535,128,0,63655:0:0:0:0:
329,192,63655,128,0,63775:0:0:0:0:
182,192,63775,128,0,63895:0:0:0:0:
36,192,63895,128,0,64014:0:0:0:0:
256,192,64014,128,0,64134:0:0:0:0:
109,192,64134,128,0,64254:0:0:0:0:
36,192,64254,128,0,64374:0:0:0:0:
182,192,64374,128,0,64494:0:0:0:0:
109,192,64494,128,0,64613:0:0:0:0:
36,192,64613,128,0,64733:0:0:0:0:
475,192,64733,128,0,64853:0:0:0:0:
402,192,64853,128,0,64973:0:0:0:0:
256,192,64973,128,0,65092:0:0:0:0:
475,192,65092,128,0,65212:0:0:0:0:
329,192,65212,128,0,65332:0:0:0:0:
182,192,65332,128,0,65452:0:0:0:0:
475,192,65452,128,0,65571:0:0:0:0:
256,192,65571,128,0,65691:0:0:0:0:
109,192,65691,128,0,65811:0:0:0:0:
475,192,65811,128,0,65931:0:0:0:0:
182,192,65931,128,0,66050:0:0:0:0:
36,192,66050,128,0,66170:0:0:0:0:
475,192,66170,1,0,0:0:0:0:
109,192,66170,1,0,0:0:0:0:
182,192,66260,1,0,0:0:0:0:
256,192,66350,1,0,0:0:0:0:
329,192,66440,1,0,0:0:0:0:
182,192,66529,1,0,0:0:0:0:
256,192,66619,1,0,0:0:0:0:
329,192,66709,1,0,0:0:0:0:
402,192,66799,1,0,0:0:0:0:
475,192,66889,1,0,0:0:0:0:
402,192,66949,1,0,0:0:0:0:
329,192,67008,1,0,0:0:0:0:
256,192,67068,1,0,0:0:0:0:
182,192,67158,1,0,0:0:0:0:
109,192,67248,128,0,67368:0:0:0:0:
36,192,67368,128,0,67488:0:0:0:0:
109,192,67488,128,0,67607:0:0:0:0:
182,192,67607,128,0,67727:0:0:0:0:
109,192,67727,128,0,67847:0:0:0:0:
182,192,67847,128,0,67967:0:0:0:0:
256,192,67967,128,0,68086:0:0:0:0:
182,192,68086,128,0,68206:0:0:0:0:
256,192,68206,128,0,68326:0:0:0:0:
329,192,68326,128,0,68446:0:0:0:0:
256,192,68446,128,0,68565:0:0:0:0:
329,192,68565,128,0,68685:0:0:0:0:
475,192,68685,128,0,68805:0:0:0:0:
402,192,68805,128,0,68925:0:0:0:0:
329,192,68925,128,0,69044:0:0:0:0:
36,192,69044,1,0,0:0:0:0:
256,192,69044,1,0,0:0:0:0:
182,192,69224,1,0,0:0:0:0:
256,192,69404,1,0,0:0:0:0:
329,192,69494,1,0,0:0:0:0:
36,192,69583,1,0,0:0:0:0:
402,192,69583,128,0,69943:0:0:0:0:
36,192,69943,1,0,0:0:0:0:
256,192,69943,1,0,0:0:0:0:
329,192,70032,1,0,0:0:0:0:
402,192,70122,1,0,0:0:0:0:
182,192,70122,1,0,0:0:0:0:
475,192,70212,1,0,0:0:0:0:
36,192,70302,1,0,0:0:0:0:
402,192,70302,128,0,70661:0:0:0:0:
36,192,70661,1,0,0:0:0:0:
475,192,70661,1,0,0:0:0:0:
402,192,70751,1,0,0:0:0:0:
329,192,70841,1,0,0:0:0:0:
109,192,70841,1,0,0:0:0:0:
256,192,70931,1,0,0:0:0:0:
36,192,71020,1,0,0:0:0:0:
329,192,71020,128,0,71380:0:0:0:0:
182,192,71380,1,0,0:0:0:0:
475,192,71380,1,0,0:0:0:0:
109,192,71470,1,0,0:0:0:0:
36,192,71559,1,0,0:0:0:0:
402,192,71559,1,0,0:0:0:0:
36,192,71739,1,0,0:0:0:0:
475,192,71739,128,0,72098:0:0:0:0:
256,192,71739,1,0,0:0:0:0:
182,192,71919,1,0,0:0:0:0:
256,192,71919,1,0,0:0:0:0:
36,192,72098,1,0,0:0:0:0:
329,192,72098,1,0,0:0:0:0:
182,192,72278,1,0,0:0:0:0:
402,192,72278,1,0,0:0:0:0:
36,192,72458,1,0,0:0:0:0:
475,192,72458,128,0,72817:0:0:0:0:
182,192,72637,1,0,0:0:0:0:
36,192,72817,1,0,0:0:0:0:
402,192,72817,1,0,0:0:0:0:
182,192,72997,1,0,0:0:0:0:
329,192,72997,1,0,0:0:0:0:
36,192,73176,1,0,0:0:0:0:
402,192,73176,128,0,73535:0:0:0:0:
256,192,73176,1,0,0:0:0:0:
36,192,73535,1,0,0:0:0:0:
475,192,73535,1,0,0:0:0:0:
402,192,73715,1,0,0:0:0:0:
109,192,73715,1,0,0:0:0:0:
36,192,73895,1,0,0:0:0:0:
329,192,73895,128,0,74254:0:0:0:0:
182,192,74254,1,0,0:0:0:0:
402,192,74254,1,0,0:0:0:0:
36,192,74434,1,0,0:0:0:0:
475,192,74434,1,0,0:0:0:0:
182,192,74613,1,0,0:0:0:0:
36,192,74793,1,0,0:0:0:0:
402,192,74793,128,0,75152:0:0:0:0:
256,192,74793,1,0,0:0:0:0:
475,192,75152,1,0,0:0:0:0:
402,192,75242,1,0,0:0:0:0:
329,192,75332,1,0,0:0:0:0:
256,192,75422,1,0,0:0:0:0:
182,192,75511,1,0,0:0:0:0:
475,192,75511,1,0,0:0:0:0:
109,192,75601,1,0,0:0:0:0:
402,192,75601,1,0,0:0:0:0:
36,192,75691,1,0,0:0:0:0:
329,192,75691,1,0,0:0:0:0:
256,192,75781,1,0,0:0:0:0:
182,192,75871,1,0,0:0:0:0:
475,192,75871,1,0,0:0:0:0:
109,192,75961,1,0,0:0:0:0:
402,192,75961,1,0,0:0:0:0:
36,192,76050,1,0,0:0:0:0:
329,192,76050,1,0,0:0:0:0:
256,192,76140,1,0,0:0:0:0:
182,192,76230,1,0,0:0:0:0:
256,192,76320,1,0,0:0:0:0:
329,192,76410,1,0,0:0:0:0:
36,192,76410,1,0,0:0:0:0:
402,192,76499,1,0,0:0:0:0:
109,192,76499,1,0,0:0:0:0:
475,192,76589,1,0,0:0:0:0:
182,192,76589,1,0,0:0:0:0:
256,192,76679,1,0,0:0:0:0:
329,192,76769,1,0,0:0:0:0:
36,192,76769,1,0,0:0:0:0:
402,192,76859,1,0,0:0:0:0:
109,192,76859,1,0,0:0:0:0:
475,192,76949,1,0,0:0:0:0:
182,192,76949,1,0,0:0:0:0:
256,192,77038,1,0,0:0:0:0:
329,192,77128,1,0,0:0:0:0:
36,192,77128,1,0,0:0:0:0:
402,192,77218,1,0,0:0:0:0:
109,192,77218,1,0,0:0:0:0:
475,192,77308,1,0,0:0:0:0:
182,192,77308,1,0,0:0:0:0:
256,192,77398,1,0,0:0:0:0:
329,192,77488,1,0,0:0:0:0:
402,192,77577,1,0,0:0:0:0:
475,192,77667,1,0,0:0:0:0:
36,192,77667,1,0,0:0:0:0:
256,192,77667,1,0,0:0:0:0:
36,192,77937,1,0,0:0:0:0:
256,192,77937,1,0,0:0:0:0:
182,192,78206,1,0,0:0:0:0:
475,192,78206,1,0,0:0:0:0:
182,192,78565,1,0,0:0:0:0:
475,192,78565,1,0,0:0:0:0:
109,192,78745,1,0,0:0:0:0:
402,192,78745,1,0,0:0:0:0:
36,192,78925,1,0,0:0:0:0:
329,192,78925,1,0,0:0:0:0:
475,192,79104,1,0,0:0:0:0:
256,192,79104,1,0,0:0:0:0:
402,192,79284,1,0,0:0:0:0:
182,192,79284,1,0,0:0:0:0:
329,192,79464,1,0,0:0:0:0:
109,192,79464,1,0,0:0:0:0:
36,192,79643,1,0,0:0:0:0:
256,192,79643,1,0,0:0:0:0:
182,192,79823,1,0,0:0:0:0:
402,192,79823,1,0,0:0:0:0:
256,192,79913,1,0,0:0:0:0:
475,192,79913,1,0,0:0:0:0:
402,192,80092,1,0,0:0:0:0:
109,192,80092,1,0,0:0:0:0:
329,192,80362,1,0,0:0:0:0:
36,192,80362,1,0,0:0:0:0:
256,192,80541,1,0,0:0:0:0:
475,192,80541,1,0,0:0:0:0:
256,192,80811,1,0,0:0:0:0:
475,192,80811,1,0,0:0:0:0:
36,192,81080,1,0,0:0:0:0:
329,192,81080,1,0,0:0:0:0:
36,192,81440,1,0,0:0:0:0:
329,192,81440,1,0,0:0:0:0:
109,192,81619,1,0,0:0:0:0:
402,192,81619,1,0,0:0:0:0:
329,192,81799,1,0,0:0:0:0:
36,192,81799,1,0,0:0:0:0:
475,192,81979,1,0,0:0:0:0:
256,192,81979,1,0,0:0:0:0:
182,192,82158,1,0,0:0:0:0:
402,192,82158,1,0,0:0:0:0:
109,192,82338,1,0,0:0:0:0:
329,192,82338,1,0,0:0:0:0:
402,192,82517,1,0,0:0:0:0:
182,192,82517,1,0,0:0:0:0:
36,192,82697,1,0,0:0:0:0:
475,192,82697,1,0,0:0:0:0:
109,192,82787,1,0,0:0:0:0:
402,192,82787,1,0,0:0:0:0:
36,192,82967,1,0,0:0:0:0:
475,192,82967,1,0,0:0:0:0:
109,192,83236,1,0,0:0:0:0:
402,192,83236,1,0,0:0:0:0:
182,192,83416,1,0,0:0:0:0:
329,192,83416,1,0,0:0:0:0:
182,192,83685,1,0,0:0:0:0:
329,192,83685,1,0,0:0:0:0:
256,192,83955,1,0,0:0:0:0:
475,192,83955,1,0,0:0:0:0:
256,192,84314,1,0,0:0:0:0:
475,192,84314,1,0,0:0:0:0:
182,192,84494,1,0,0:0:0:0:
402,192,84494,1,0,0:0:0:0:
329,192,84673,1,0,0:0:0:0:
109,192,84673,1,0,0:0:0:0:
475,192,84853,1,0,0:0:0:0:
182,192,84853,1,0,0:0:0:0:
402,192,85032,1,0,0:0:0:0:
109,192,85032,1,0,0:0:0:0:
329,192,85212,1,0,0:0:0:0:
36,192,85212,1,0,0:0:0:0:
256,192,85392,1,0,0:0:0:0:
109,192,85392,1,0,0:0:0:0:
182,192,85571,1,0,0:0:0:0:
402,192,85571,1,0,0:0:0:0:
475,192,85661,1,0,0:0:0:0:
256,192,85661,1,0,0:0:0:0:
182,192,85841,1,0,0:0:0:0:
329,192,85841,1,0,0:0:0:0:
109,192,86110,1,0,0:0:0:0:
256,192,86110,1,0,0:0:0:0:
36,192,86290,1,0,0:0:0:0:
182,192,86290,128,0,87547:0:0:0:0:
329,192,86290,128,0,87547:0:0:0:0:
36,192,87008,1,0,0:0:0:0:
256,192,87547,1,0,0:0:0:0:
402,192,87637,1,0,0:0:0:0:
36,192,87727,1,0,0:0:0:0:
475,192,87727,128,0,89164:0:0:0:0:
329,192,87727,128,0,89164:0:0:0:0:
36,192,88086,1,0,0:0:0:0:
36,192,88446,1,0,0:0:0:0:
36,192,88625,1,0,0:0:0:0:
36,192,88805,1,0,0:0:0:0:
182,192,88895,1,0,0:0:0:0:
36,192,88985,1,0,0:0:0:0:
182,192,89074,1,0,0:0:0:0:
36,192,89164,1,0,0:0:0:0:
256,192,89164,1,0,0:0:0:0:
402,192,89164,128,0,89523:0:0:0:0:
256,192,89434,1,0,0:0:0:0:
475,192,89523,128,0,89883:0:0:0:0:
36,192,89523,1,0,0:0:0:0:
329,192,89703,1,0,0:0:0:0:
402,192,89883,128,0,90242:0:0:0:0:
36,192,89883,1,0,0:0:0:0:
329,192,90062,1,0,0:0:0:0:
475,192,90242,128,0,90601:0:0:0:0:
36,192,90242,1,0,0:0:0:0:
256,192,90242,1,0,0:0:0:0:
182,192,90422,1,0,0:0:0:0:
402,192,90601,128,0,90961:0:0:0:0:
36,192,90601,1,0,0:0:0:0:
256,192,90601,1,0,0:0:0:0:
182,192,90781,1,0,0:0:0:0:
475,192,90961,128,0,91320:0:0:0:0:
36,192,90961,1,0,0:0:0:0:
109,192,90961,1,0,0:0:0:0:
182,192,91140,1,0,0:0:0:0:
402,192,91320,128,0,91679:0:0:0:0:
36,192,91320,1,0,0:0:0:0:
256,192,91320,1,0,0:0:0:0:
329,192,91410,1,0,0:0:0:0:
36,192,91589,1,0,0:0:0:0:
256,192,91589,1,0,0:0:0:0:
475,192,91679,128,0,92038:0:0:0:0:
36,192,91859,1,0,0:0:0:0:
182,192,91859,1,0,0:0:0:0:
109,192,92038,128,0,92398:0:0:0:0:
256,192,92038,1,0,0:0:0:0:
402,192,92038,1,0,0:0:0:0:
329,192,92218,1,0,0:0:0:0:
256,192,92308,1,0,0:0:0:0:
36,192,92398,128,0,92757:0:0:0:0:
475,192,92398,1,0,0:0:0:0:
182,192,92577,1,0,0:0:0:0:
109,192,92757,128,0,93116:0:0:0:0:
475,192,92757,1,0,0:0:0:0:
256,192,92937,1,0,0:0:0:0:
36,192,93116,128,0,93476:0:0:0:0:
475,192,93116,1,0,0:0:0:0:
329,192,93116,1,0,0:0:0:0:
256,192,93296,1,0,0:0:0:0:
109,192,93476,128,0,93835:0:0:0:0:
475,192,93476,1,0,0:0:0:0:
182,192,93476,1,0,0:0:0:0:
256,192,93655,1,0,0:0:0:0:
36,192,93835,128,0,94194:0:0:0:0:
475,192,93835,1,0,0:0:0:0:
329,192,93835,1,0,0:0:0:0:
256,192,94014,1,0,0:0:0:0:
109,192,94194,128,0,94553:0:0:0:0:
475,192,94194,1,0,0:0:0:0:
329,192,94194,1,0,0:0:0:0:
402,192,94284,1,0,0:0:0:0:
475,192,94464,1,0,0:0:0:0:
329,192,94464,1,0,0:0:0:0:
36,192,94553,128,0,94913:0:0:0:0:
475,192,94733,1,0,0:0:0:0:
256,192,94733,1,0,0:0:0:0:
182,192,94913,128,0,96350:0:0:0:0:
109,192,94913,1,0,0:0:0:0:
329,192,94913,1,0,0:0:0:0:
402,192,95092,1,0,0:0:0:0:
36,192,95272,1,0,0:0:0:0:
475,192,95272,1,0,0:0:0:0:
402,192,95452,1,0,0:0:0:0:
36,192,95631,1,0,0:0:0:0:
329,192,95631,1,0,0:0:0:0:
256,192,95811,1,0,0:0:0:0:
36,192,95991,1,0,0:0:0:0:
329,192,95991,1,0,0:0:0:0:
36,192,96170,1,0,0:0:0:0:
402,192,96170,1,0,0:0:0:0:
329,192,96350,128,0,97607:0:0:0:0:
36,192,96350,1,0,0:0:0:0:
475,192,96350,1,0,0:0:0:0:
402,192,96529,1,0,0:0:0:0:
36,192,96709,1,0,0:0:0:0:
256,192,96709,1,0,0:0:0:0:
182,192,96889,1,0,0:0:0:0:
36,192,97068,1,0,0:0:0:0:
109,192,97068,1,0,0:0:0:0:
182,192,97248,1,0,0:0:0:0:
36,192,97428,1,0,0:0:0:0:
256,192,97428,1,0,0:0:0:0:
36,192,97607,1,0,0:0:0:0:
402,192,97607,1,0,0:0:0:0:
256,192,97607,128,0,97967:0:0:0:0:
36,192,97787,1,0,0:0:0:0:
475,192,97787,1,0,0:0:0:0:
182,192,97967,1,0,0:0:0:0:
256,192,98056,1,0,0:0:0:0:
329,192,98146,128,0,98326:0:0:0:0:
36,192,98146,128,0,98505:0:0:0:0:
256,192,98326,1,0,0:0:0:0:
329,192,98416,1,0,0:0:0:0:
402,192,98505,128,0,98685:0:0:0:0:
109,192,98505,128,0,98865:0:0:0:0:
329,192,98685,1,0,0:0:0:0:
402,192,98775,1,0,0:0:0:0:
475,192,98865,128,0,99044:0:0:0:0:
256,192,98865,128,0,99224:0:0:0:0:
36,192,99044,1,0,0:0:0:0:
109,192,99134,1,0,0:0:0:0:
182,192,99224,128,0,99404:0:0:0:0:
402,192,99224,128,0,99583:0:0:0:0:
109,192,99404,1,0,0:0:0:0:
182,192,99494,1,0,0:0:0:0:
256,192,99583,128,0,99763:0:0:0:0:
475,192,99583,128,0,99943:0:0:0:0:
182,192,99763,1,0,0:0:0:0:
256,192,99853,1,0,0:0:0:0:
329,192,99943,128,0,100122:0:0:0:0:
109,192,99943,128,0,100302:0:0:0:0:
256,192,100122,1,0,0:0:0:0:
329,192,100212,1,0,0:0:0:0:
402,192,100302,128,0,100482:0:0:0:0:
182,192,100302,128,0,100661:0:0:0:0:
329,192,100482,1,0,0:0:0:0:
402,192,100571,1,0,0:0:0:0:
475,192,100661,128,0,102098:0:0:0:0:
36,192,100661,128,0,102098:0:0:0:0:
256,192,100661,1,0,0:0:0:0:
329,192,100751,1,0,0:0:0:0:
109,192,100841,1,0,0:0:0:0:
402,192,100931,1,0,0:0:0:0:
182,192,101020,1,0,0:0:0:0:
256,192,101110,1,0,0:0:0:0:
109,192,101200,1,0,0:0:0:0:
402,192,101290,1,0,0:0:0:0:
256,192,101380,1,0,0:0:0:0:
329,192,101470,1,0,0:0:0:0:
109,192,101559,1,0,0:0:0:0:
402,192,101649,1,0,0:0:0:0:
182,192,101739,1,0,0:0:0:0:
256,192,101829,1,0,0:0:0:0:
109,192,101919,1,0,0:0:0:0:
402,192,102008,1,0,0:0:0:0:
256,192,102098,1,0,0:0:0:0:
109,192,102188,1,0,0:0:0:0:
182,192,102278,1,0,0:0:0:0:
109,192,102368,1,0,0:0:0:0:
329,192,102458,1,0,0:0:0:0:
475,192,102458,1,0,0:0:0:0:
36,192,102458,1,0,0:0:0:0:
109,192,102547,1,0,0:0:0:0:
256,192,102637,1,0,0:0:0:0:
402,192,102727,1,0,0:0:0:0:
36,192,102817,1,0,0:0:0:0:
109,192,102817,1,0,0:0:0:0:
329,192,102817,1,0,0:0:0:0:
256,192,102907,1,0,0:0:0:0:
182,192,102997,1,0,0:0:0:0:
109,192,103086,1,0,0:0:0:0:
402,192,103176,1,0,0:0:0:0:
475,192,103176,1,0,0:0:0:0:
182,192,103176,1,0,0:0:0:0:
256,192,103266,1,0,0:0:0:0:
329,192,103356,1,0,0:0:0:0:
402,192,103446,1,0,0:0:0:0:
182,192,103535,1,0,0:0:0:0:
36,192,103535,1,0,0:0:0:0:
475,192,103535,1,0,0:0:0:0:
256,192,103535,1,0,0:0:0:0:
402,192,103625,1,0,0:0:0:0:
329,192,103715,1,0,0:0:0:0:
256,192,103805,1,0,0:0:0:0:
402,192,103895,1,0,0:0:0:0:
36,192,103895,1,0,0:0:0:0:
329,192,103985,1,0,0:0:0:0:
256,192,104074,1,0,0:0:0:0:
182,192,104164,1,0,0:0:0:0:
329,192,104254,1,0,0:0:0:0:
36,192,104254,1,0,0:0:0:0:
256,192,104344,1,0,0:0:0:0:
182,192,104434,1,0,0:0:0:0:
109,192,104523,1,0,0:0:0:0:
182,192,104613,1,0,0:0:0:0:
36,192,104613,1,0,0:0:0:0:
256,192,104703,1,0,0:0:0:0:
329,192,104793,1,0,0:0:0:0:
402,192,104883,1,0,0:0:0:0:
329,192,104973,1,0,0:0:0:0:
475,192,104973,1,0,0:0:0:0:
256,192,105242,1,0,0:0:0:0:
329,192,105332,1,0,0:0:0:0:
475,192,105332,1,0,0:0:0:0:
256,192,105422,1,0,0:0:0:0:
109,192,105511,1,0,0:0:0:0:
36,192,105601,1,0,0:0:0:0:
182,192,105691,1,0,0:0:0:0:
475,192,105691,1,0,0:0:0:0:
36,192,105781,1,0,0:0:0:0:
256,192,105871,1,0,0:0:0:0:
36,192,105961,1,0,0:0:0:0:
329,192,106050,1,0,0:0:0:0:
475,192,106050,1,0,0:0:0:0:
36,192,106140,1,0,0:0:0:0:
402,192,106230,1,0,0:0:0:0:
36,192,106320,1,0,0:0:0:0:
475,192,106410,1,0,0:0:0:0:
256,192,106410,1,0,0:0:0:0:
109,192,106589,1,0,0:0:0:0:
182,192,106679,1,0,0:0:0:0:
36,192,106769,1,0,0:0:0:0:
182,192,106859,1,0,0:0:0:0:
329,192,106949,1,0,0:0:0:0:
402,192,107038,1,0,0:0:0:0:
475,192,107128,1,0,0:0:0:0:
36,192,107128,1,0,0:0:0:0:
256,192,107308,1,0,0:0:0:0:
36,192,107488,1,0,0:0:0:0:
475,192,107488,1,0,0:0:0:0:
109,192,107547,1,0,0:0:0:0:
182,192,107607,1,0,0:0:0:0:
256,192,107667,1,0,0:0:0:0:
329,192,107727,1,0,0:0:0:0:
402,192,107787,1,0,0:0:0:0:
475,192,107847,1,0,0:0:0:0:
36,192,107847,1,0,0:0:0:0:
402,192,108116,1,0,0:0:0:0:
36,192,108206,1,0,0:0:0:0:
329,192,108386,1,0,0:0:0:0:
256,192,108565,1,0,0:0:0:0:
36,192,108565,1,0,0:0:0:0:
475,192,108655,1,0,0:0:0:0:
182,192,108745,1,0,0:0:0:0:
475,192,108835,1,0,0:0:0:0:
256,192,108835,1,0,0:0:0:0:
109,192,108925,1,0,0:0:0:0:
256,192,108925,1,0,0:0:0:0:
475,192,109014,1,0,0:0:0:0:
36,192,109104,1,0,0:0:0:0:
256,192,109104,1,0,0:0:0:0:
475,192,109194,1,0,0:0:0:0:
329,192,109284,1,0,0:0:0:0:
402,192,109284,1,0,0:0:0:0:
256,192,109374,1,0,0:0:0:0:
182,192,109464,1,0,0:0:0:0:
109,192,109553,1,0,0:0:0:0:
36,192,109643,1,0,0:0:0:0:
475,192,109643,1,0,0:0:0:0:
109,192,109733,1,0,0:0:0:0:
182,192,109823,1,0,0:0:0:0:
256,192,109913,1,0,0:0:0:0:
329,192,110002,1,0,0:0:0:0:
36,192,110002,1,0,0:0:0:0:
402,192,110182,1,0,0:0:0:0:
475,192,110362,1,0,0:0:0:0:
109,192,110362,1,0,0:0:0:0:
402,192,110541,1,0,0:0:0:0:
329,192,110721,1,0,0:0:0:0:
182,192,110721,1,0,0:0:0:0:
329,192,111080,1,0,0:0:0:0:
109,192,111080,1,0,0:0:0:0:
256,192,111170,1,0,0:0:0:0:
329,192,111260,1,0,0:0:0:0:
475,192,111350,1,0,0:0:0:0:
402,192,111440,1,0,0:0:0:0:
36,192,111440,1,0,0:0:0:0:
329,192,111619,1,0,0:0:0:0:
36,192,111709,1,0,0:0:0:0:
256,192,111799,1,0,0:0:0:0:
182,192,111979,1,0,0:0:0:0:
36,192,111979,1,0,0:0:0:0:
109,192,112158,128,0,112877:0:0:0:0:
36,192,112158,1,0,0:0:0:0:
329,192,112338,1,0,0:0:0:0:
475,192,112428,1,0,0:0:0:0:
402,192,112517,1,0,0:0:0:0:
36,192,112517,1,0,0:0:0:0:
475,192,112607,1,0,0:0:0:0:
329,192,112697,1,0,0:0:0:0:
182,192,112877,128,0,113595:0:0:0:0:
36,192,112877,1,0,0:0:0:0:
402,192,113056,1,0,0:0:0:0:
329,192,113146,1,0,0:0:0:0:
475,192,113236,1,0,0:0:0:0:
36,192,113236,1,0,0:0:0:0:
329,192,113326,1,0,0:0:0:0:
402,192,113416,1,0,0:0:0:0:
329,192,113595,128,0,114314:0:0:0:0:
475,192,113595,1,0,0:0:0:0:
109,192,113775,1,0,0:0:0:0:
182,192,113865,1,0,0:0:0:0:
36,192,113955,1,0,0:0:0:0:
475,192,113955,1,0,0:0:0:0:
182,192,114044,1,0,0:0:0:0:
109,192,114134,1,0,0:0:0:0:
475,192,114224,1,0,0:0:0:0:
402,192,114314,128,0,115032:0:0:0:0:
475,192,114314,1,0,0:0:0:0:
36,192,114494,1,0,0:0:0:0:
475,192,114494,1,0,0:0:0:0:
109,192,114583,1,0,0:0:0:0:
182,192,114673,1,0,0:0:0:0:
475,192,114673,1,0,0:0:0:0:
256,192,114763,1,0,0:0:0:0:
109,192,114853,1,0,0:0:0:0:
475,192,114853,1,0,0:0:0:0:
329,192,114943,1,0,0:0:0:0:
182,192,115032,1,0,0:0:0:0:
475,192,115032,1,0,0:0:0:0:
36,192,115122,1,0,0:0:0:0:
109,192,115212,1,0,0:0:0:0:
182,192,115302,1,0,0:0:0:0:
182,192,115392,1,0,0:0:0:0:
475,192,115392,1,0,0:0:0:0:
109,192,115482,1,0,0:0:0:0:
182,192,115571,1,0,0:0:0:0:
256,192,115661,1,0,0:0:0:0:
329,192,115751,1,0,0:0:0:0:
475,192,115751,1,0,0:0:0:0:
256,192,115841,1,0,0:0:0:0:
182,192,115931,1,0,0:0:0:0:
256,192,116020,1,0,0:0:0:0:
329,192,116110,1,0,0:0:0:0:
475,192,116110,1,0,0:0:0:0:
256,192,116200,1,0,0:0:0:0:
182,192,116290,1,0,0:0:0:0:
475,192,116380,1,0,0:0:0:0:
402,192,116470,1,0,0:0:0:0:
36,192,116470,1,0,0:0:0:0:
329,192,116649,1,0,0:0:0:0:
402,192,116709,1,0,0:0:0:0:
329,192,116769,1,0,0:0:0:0:
256,192,116829,1,0,0:0:0:0:
36,192,116829,1,0,0:0:0:0:
256,192,117008,1,0,0:0:0:0:
329,192,117068,1,0,0:0:0:0:
256,192,117128,1,0,0:0:0:0:
182,192,117188,1,0,0:0:0:0:
475,192,117188,1,0,0:0:0:0:
182,192,117368,1,0,0:0:0:0:
256,192,117428,1,0,0:0:0:0:
182,192,117488,1,0,0:0:0:0:
109,192,117547,1,0,0:0:0:0:
475,192,117547,1,0,0:0:0:0:
109,192,117727,1,0,0:0:0:0:
182,192,117787,1,0,0:0:0:0:
109,192,117847,1,0,0:0:0:0:
36,192,117907,1,0,0:0:0:0:
475,192,117907,1,0,0:0:0:0:
256,192,117907,1,0,0:0:0:0:
402,192,117997,1,0,0:0:0:0:
329,192,118086,1,0,0:0:0:0:
256,192,118176,1,0,0:0:0:0:
182,192,118266,1,0,0:0:0:0:
36,192,118266,1,0,0:0:0:0:
256,192,118356,1,0,0:0:0:0:
329,192,118446,1,0,0:0:0:0:
402,192,118535,1,0,0:0:0:0:
36,192,118625,1,0,0:0:0:0:
475,192,118625,1,0,0:0:0:0:
256,192,118625,1,0,0:0:0:0:
109,192,118715,1,0,0:0:0:0:
182,192,118805,1,0,0:0:0:0:
256,192,118895,1,0,0:0:0:0:
329,192,118985,1,0,0:0:0:0:
475,192,118985,1,0,0:0:0:0:
256,192,119074,1,0,0:0:0:0:
182,192,119164,1,0,0:0:0:0:
109,192,119254,1,0,0:0:0:0:
36,192,119344,1,0,0:0:0:0:
475,192,119344,1,0,0:0:0:0:
256,192,119344,1,0,0:0:0:0:
109,192,119523,1,0,0:0:0:0:
182,192,119583,1,0,0:0:0:0:
256,192,119643,1,0,0:0:0:0:
329,192,119703,1,0,0:0:0:0:
402,192,119763,1,0,0:0:0:0:
475,192,119823,1,0,0:0:0:0:
36,192,119883,1,0,0:0:0:0:
182,192,119943,1,0,0:0:0:0:
329,192,120002,1,0,0:0:0:0:
475,192,120062,1,0,0:0:0:0:
36,192,120242,1,0,0:0:0:0:
109,192,120302,1,0,0:0:0:0:
182,192,120362,1,0,0:0:0:0:
256,192,120422,1,0,0:0:0:0:
329,192,120482,1,0,0:0:0:0:
402,192,120541,1,0,0:0:0:0:
475,192,120601,1,0,0:0:0:0:
329,192,120661,1,0,0:0:0:0:
182,192,120721,1,0,0:0:0:0:
475,192,120781,1,0,0:0:0:0:
36,192,120781,1,0,0:0:0:0:
402,192,120841,1,0,0:0:0:0:
329,192,120901,1,0,0:0:0:0:
256,192,120961,1,0,0:0:0:0:
182,192,121020,1,0,0:0:0:0:
109,192,121080,1,0,0:0:0:0:
36,192,121140,1,0,0:0:0:0:
475,192,121200,1,0,0:0:0:0:
402,192,121260,1,0,0:0:0:0:
329,192,121320,1,0,0:0:0:0:
256,192,121380,1,0,0:0:0:0:
182,192,121440,1,0,0:0:0:0:
109,192,121499,1,0,0:0:0:0:
182,192,121589,1,0,0:0:0:0:
256,192,121679,1,0,0:0:0:0:
182,192,121769,1,0,0:0:0:0:
256,192,121859,1,0,0:0:0:0:
329,192,121949,1,0,0:0:0:0:
256,192,122038,1,0,0:0:0:0:
475,192,122038,1,0,0:0:0:0:
182,192,122128,1,0,0:0:0:0:
109,192,122218,1,0,0:0:0:0:
475,192,122218,1,0,0:0:0:0:
182,192,122278,1,0,0:0:0:0:
256,192,122338,1,0,0:0:0:0:
329,192,122398,1,0,0:0:0:0:
402,192,122458,1,0,0:0:0:0:
475,192,122517,1,0,0:0:0:0:
36,192,122577,1,0,0:0:0:0:
109,192,122637,1,0,0:0:0:0:
182,192,122697,1,0,0:0:0:0:
256,192,122757,1,0,0:0:0:0:
329,192,122817,1,0,0:0:0:0:
36,192,122847,1,0,0:0:0:0:
402,192,122877,1,0,0:0:0:0:
475,192,122937,1,0,0:0:0:0:
182,192,123026,1,0,0:0:0:0:
256,192,123116,1,0,0:0:0:0:
36,192,123116,1,0,0:0:0:0:
329,192,123206,1,0,0:0:0:0:
402,192,123296,1,0,0:0:0:0:
329,192,123386,1,0,0:0:0:0:
182,192,123386,1,0,0:0:0:0:
256,192,123476,1,0,0:0:0:0:
36,192,123476,1,0,0:0:0:0:
402,192,123565,1,0,0:0:0:0:
182,192,123565,1,0,0:0:0:0:
256,192,123655,128,0,124194:0:0:0:0:
36,192,123655,1,0,0:0:0:0:
475,192,123655,1,0,0:0:0:0:
329,192,123655,128,0,124194:0:0:0:0:
36,192,124014,1,0,0:0:0:0:
182,192,124194,128,0,124733:0:0:0:0:
402,192,124194,128,0,124733:0:0:0:0:
36,192,124374,1,0,0:0:0:0:
36,192,124733,1,0,0:0:0:0:
109,192,124733,128,0,125092:0:0:0:0:
36,192,125092,1,0,0:0:0:0:
402,192,125092,128,0,125631:0:0:0:0:
256,192,125092,128,0,125631:0:0:0:0:
36,192,125452,1,0,0:0:0:0:
329,192,125631,128,0,126170:0:0:0:0:
182,192,125631,128,0,126170:0:0:0:0:
36,192,125811,1,0,0:0:0:0:
109,192,126170,128,0,126529:0:0:0:0:
36,192,126170,1,0,0:0:0:0:
256,192,126170,128,0,126529:0:0:0:0:
36,192,126529,1,0,0:0:0:0:
475,192,126529,128,0,127607:0:0:0:0:
402,192,126529,128,0,127607:0:0:0:0:
36,192,126889,1,0,0:0:0:0:
36,192,127248,1,0,0:0:0:0:
36,192,127607,1,0,0:0:0:0:
329,192,127607,128,0,127787:0:0:0:0:
256,192,127787,128,0,129044:0:0:0:0:
109,192,127787,128,0,129044:0:0:0:0:
36,192,127967,1,0,0:0:0:0:
36,192,128326,1,0,0:0:0:0:
36,192,128685,1,0,0:0:0:0:
36,192,129044,1,0,0:0:0:0:
36,192,129224,128,0,129404:0:0:0:0:
475,192,129404,1,0,0:0:0:0:
109,192,129404,128,0,130482:0:0:0:0:
475,192,129763,1,0,0:0:0:0:
475,192,130122,1,0,0:0:0:0:
475,192,130482,1,0,0:0:0:0:
182,192,130482,128,0,130571:0:0:0:0:
256,192,130571,128,0,130661:0:0:0:0:
329,192,130661,128,0,130751:0:0:0:0:
402,192,130751,128,0,130841:0:0:0:0:
36,192,130841,1,0,0:0:0:0:
329,192,130841,128,0,131200:0:0:0:0:
475,192,130841,128,0,131200:0:0:0:0:
36,192,131200,1,0,0:0:0:0:
402,192,131200,128,0,131559:0:0:0:0:
256,192,131200,128,0,131559:0:0:0:0:
475,192,131559,128,0,131919:0:0:0:0:
36,192,131559,1,0,0:0:0:0:
329,192,131559,128,0,131919:0:0:0:0:
402,192,131919,128,0,132188:0:0:0:0:
256,192,131919,128,0,132188:0:0:0:0:
36,192,131919,1,0,0:0:0:0:
329,192,132098,128,0,132278:0:0:0:0:
36,192,132098,1,0,0:0:0:0:
182,192,132098,128,0,132278:0:0:0:0:
109,192,132278,1,0,0:0:0:0:
182,192,132368,1,0,0:0:0:0:
256,192,132458,1,0,0:0:0:0:
329,192,132547,1,0,0:0:0:0:
36,192,132547,1,0,0:0:0:0:
402,192,132637,1,0,0:0:0:0:
109,192,132637,1,0,0:0:0:0:
475,192,132727,1,0,0:0:0:0:
182,192,132727,1,0,0:0:0:0:
402,192,132817,1,0,0:0:0:0:
109,192,132817,1,0,0:0:0:0:
329,192,132907,1,0,0:0:0:0:
36,192,132907,1,0,0:0:0:0:
256,192,132997,1,0,0:0:0:0:
182,192,133086,1,0,0:0:0:0:
402,192,133086,1,0,0:0:0:0:
109,192,133176,1,0,0:0:0:0:
36,192,133266,1,0,0:0:0:0:
256,192,133266,1,0,0:0:0:0:
475,192,133356,1,0,0:0:0:0:
402,192,133446,1,0,0:0:0:0:
109,192,133446,1,0,0:0:0:0:
329,192,133535,1,0,0:0:0:0:
256,192,133625,1,0,0:0:0:0:
182,192,133715,1,0,0:0:0:0:
475,192,133715,1,0,0:0:0:0:
109,192,133805,1,0,0:0:0:0:
402,192,133805,1,0,0:0:0:0:
36,192,133895,1,0,0:0:0:0:
329,192,133895,1,0,0:0:0:0:
109,192,133985,1,0,0:0:0:0:
402,192,133985,1,0,0:0:0:0:
182,192,134074,1,0,0:0:0:0:
475,192,134074,1,0,0:0:0:0:
256,192,134164,1,0,0:0:0:0:
329,192,134254,1,0,0:0:0:0:
109,192,134254,1,0,0:0:0:0:
402,192,134344,1,0,0:0:0:0:
475,192,134434,1,0,0:0:0:0:
256,192,134434,1,0,0:0:0:0:
36,192,134523,1,0,0:0:0:0:
109,192,134613,1,0,0:0:0:0:
402,192,134613,1,0,0:0:0:0:
182,192,134703,1,0,0:0:0:0:
256,192,134793,1,0,0:0:0:0:
329,192,134883,1,0,0:0:0:0:
36,192,134883,1,0,0:0:0:0:
402,192,134973,1,0,0:0:0:0:
109,192,134973,1,0,0:0:0:0:
475,192,135062,1,0,0:0:0:0:
182,192,135062,1,0,0:0:0:0:
256,192,135152,1,0,0:0:0:0:
36,192,135511,128,0,139104:0:0:0:0:
329,192,135511,128,0,139104:0:0:0:0:
475,192,135511,128,0,139104:0:0:0:0:
182,192,135511,128,0,139104:0:0:0:0:
