osu file format v12

[General]
AudioFilename: HAELEQUIN.mp3
AudioLeadIn: 0
PreviewTime: 103535
Countdown: 0
SampleSet: Soft
StackLeniency: 0.7
Mode: 3
LetterboxInBreaks: 1
EpilepsyWarning: 1
SpecialStyle: 0
WidescreenStoryboard: 0

[Editor]
Bookmarks: 14450,28821,40318,51815,63312,77683,89180,103552,115049,123671,135168
DistanceSpacing: 1.6
BeatDivisor: 6
GridSize: 8

[Metadata]
Title:HAELEQUIN
TitleUnicode:HAELEQUIN
Artist:orangentle
ArtistUnicode:orangentle
Creator:DJNightmare
Version:Collab
Source:BMS Of Fighters 2012 -Ein neuer Heiliger Krieg-
Tags:Hanyuu ExPew ishimaru94 deadblue238
BeatmapID:297821
BeatmapSetID:115198

[Difficulty]
HPDrainRate:8
CircleSize:7
OverallDifficulty:8
ApproachRate:5
SliderMultiplier:1.4
SliderTickRate:1

[Events]
//Background and Video events
Video,0,"BGA.flv"
0,0,"HAELEQUIN.jpg",0,0
//Break Periods
//Storyboard Layer 0 (Background)
//Storyboard Layer 1 (Fail)
//Storyboard Layer 2 (Pass)
//Storyboard Layer 3 (Foreground)
Sprite,Foreground,Centre,"SB\Collab\ExPEW.png",320,240 F,0,14629,,1 M,0,14629,28462,463,324,478,324 F,0,28462,,0 M,0,28462,40318,478,324,474,324 F,0,40677,,1 F,0,51456,,1,0.0145755 F,0,63671,,1 M,1,63671,77324,473,324 M,2,77324,77683,473,324,473,-106 M,1,89180,89540,464,-45,464,324 M,1,89540,,464,324 M,0,89540,94868,464,324,464,341 S,0,94069,,0.5300824 M,0,94868,102458,464,341,464,324 M,0,94913,,464,341 M,1,102458,,464,324 M,1,102458,102637,464,324,464,163 M,1,102637,102817,464,163 M,1,102817,102997,464,163,464,331 M,1,102997,103176,464,331 M,1,103176,103356,464,331,464,-51 F,0,103192,,0 M,1,103356,103535,464,-51,464,191 M,0,103535,,464,191 M,0,115032,123581,464,326,464,324 F,0,115049,123581,1 M,1,123581,123671,464,324,464,230 F,0,123581,123941,1,0 M,1,123671,123761,464,230,464,416 M,1,123761,123851,464,416,464,514 M,1,123851,123941,464,514,464,338 M,0,123941,135152,464,338,464,-42 M,2,135152,135332,464,-42 M,1,135332,135691,464,-42,466,304 F,0,135348,139120,1 M,1,135691,139464,466,304,466,330 F,0,139120,139480,1,0
Sprite,Foreground,Centre,"SB\Collab\ExPEW-Blur.png",320,240 M,1,14270,14629,-260,323,464,323 S,0,14629,,0.5300818 F,0,14629,14809,1,0 M,2,14629,28462,464,323,478,323 F,0,14809,28282,0,0.02509567 F,0,28282,28462,0.02509567,1 M,2,28462,28821,478,323,-242,323 M,1,40318,40677,-262,323,474,323 F,0,40677,,0.1057532 M,2,40677,51456,474,323 F,0,51456,,1 M,2,51456,51815,474,323,-273,323 M,0,51815,63312,-273,323,-262,323 M,1,63312,63671,-262,323,474,323 F,0,63671,,0.01808228 M,2,63671,103192,474,323,464,323 M,2,103192,103552,464,323,-257,323 M,0,103552,,-257,323
Sprite,Foreground,Centre,"SB\Collab\DJN.png",320,240 M,0,1859,,483,341 F,0,1859,,1 F,0,14074,,0 F,0,28805,,1 F,0,39943,,0 F,0,51799,51932,1 F,0,51932,51938,1 F,0,51938,51943,1 F,0,51943,51949,1 F,0,51949,51953,1 F,0,51953,51955,1 F,0,51955,51958,1 F,0,51958,51960,1 F,0,51960,51961,1 F,0,51961,51964,1 F,0,51964,51968,1 F,0,51968,51969,1 F,0,51969,51973,1 F,0,51973,51974,1 F,0,51974,51978,1 F,0,51978,51979,1 F,0,51979,51981,1 F,0,51981,51984,1 F,0,51984,51988,1 F,0,51988,51992,1 F,0,51992,51995,1 F,0,51995,51999,1 F,0,51999,52000,1 F,0,52000,52003,1 F,0,52003,52007,1 F,0,52007,52008,1 F,0,52008,52012,1 F,0,52012,52015,1 F,0,52015,52019,1 F,0,52019,52020,1 F,0,52020,52022,1 F,0,52022,52023,1 F,0,52023,52027,1 F,0,52027,52028,1 F,0,52028,52031,1 F,0,52031,52035,1 F,0,52035,52039,1 F,0,52039,52042,1,0.8842738 F,0,52042,52043,0.8842738,1 F,0,52043,52045,1,0.8842738 F,0,52045,52047,0.8842738,1 F,0,52047,52049,1,0.6984108 F,0,52049,52051,0.6984108,1 F,0,52051,52053,1,0.6984108 F,0,52053,52055,0.6984108,0.8877809 F,0,52055,52056,0.8877809,0.5756711 F,0,52056,52059,0.5756711 F,0,52059,52061,0.5756711,0.8877809 F,0,52061,52062,0.8877809,0.5265751 F,0,52062,52066,0.5265751,0.7475069 F,0,52066,52072,0.7475069,0.5230684 F,0,52072,52077,0.5230684,0.6913972 F,0,52077,52081,0.6913972,0.5230684 F,0,52081,52084,0.5230684,0.6843837 F,0,52084,52085,0.6843837,0.5230684 F,0,52085,52088,0.5230684,0.6843837 F,0,52088,52089,0.6843837,0.5756711 F,0,52089,52092,0.5756711 F,0,52092,52093,0.5756711,0.6843837 F,0,52093,52095,0.6843837,0.7510136 F,0,52095,52097,0.7510136,0.6843837 F,0,52097,52099,0.6843837,0.7510136 F,0,52099,52102,0.7510136,0.7089316 F,0,52102,52104,0.7089316,1 F,0,52104,52106,1,0.8211507 F,0,52106,52108,0.8211507,1 F,0,52108,52110,1,0.8211507 F,0,52110,52111,0.8211507,1 F,0,52111,52113,1,0.8211507 F,0,52113,52114,0.8211507,1 F,0,52114,52118,1 F,0,52118,52119,1 F,0,52119,52122,1 F,0,52122,52126,1 F,0,52126,52130,1 F,0,52130,52134,1 F,0,52134,52135,1 F,0,52135,52138,1 F,0,52138,52140,1 F,0,52140,52143,1 F,0,52143,52146,1 F,0,52146,52147,1 F,0,52147,52150,1 F,0,52150,52152,1 F,0,52152,52153,1 F,0,52153,52155,1 F,0,52155,52158,1 F,0,52158,52159,1 F,0,52159,52163,1 F,0,52163,52164,1 F,0,52164,52168,1 F,0,52168,52169,1 F,0,52169,52171,1 F,0,52171,52172,1 F,0,52172,52174,1 F,0,52174,52177,1 F,0,52177,52179,1 F,0,52179,52181,1 F,0,52181,52182,1 F,0,52182,52185,1 F,0,52185,52187,1 F,0,52187,52189,1 F,0,52189,52190,1 F,0,52190,52193,1 F,0,52193,52195,1 F,0,52195,52197,1 F,0,52197,52200,1 F,0,52200,52201,1 F,0,52201,52203,1 F,0,52203,52205,1 F,0,52205,52207,1 F,0,52207,52209,1 F,0,52209,52212,1 F,0,52212,52215,1 F,0,52215,52217,1 F,0,52217,52220,1 F,0,52220,52221,1 F,0,52221,52224,1 F,0,52224,52225,1 F,0,52225,52229,1 F,0,52229,52231,1 F,0,52231,52233,1 F,0,52233,52235,1 F,0,52235,52237,1 F,0,52237,52241,1 F,0,52241,52242,1 F,0,52242,52245,1 F,0,52245,52246,1 F,0,52246,52249,1 F,0,52249,52250,1 F,0,52250,52255,1 F,0,52255,52256,1 F,0,52256,52259,1 F,0,52259,52260,1,0.9684383 F,0,52260,52262,0.9684383,1 F,0,52262,52265,1,0.9684383 F,0,52265,52268,0.9684383,1 F,0,52268,52269,1,0.9228491 F,0,52269,52271,0.9228491,1 F,0,52271,52272,1,0.9228491 F,0,52272,52275,0.9228491,1 F,0,52275,52277,1,0.9193425 F,0,52277,52279,0.9193425,1 F,0,52279,52281,1,0.9193425 F,0,52281,52283,0.9193425,0.9964932 F,0,52283,52284,0.9964932,0.9193425 F,0,52284,52287,0.9193425,0.9964932 F,0,52287,52288,0.9964932,0.9193425 F,0,52288,52291,0.9193425,0.9964932 F,0,52291,52292,0.9964932,0.929863 F,0,52292,52294,0.929863,0.9964932 F,0,52294,52297,0.9964932,0.929863 F,0,52297,52299,0.929863,0.9964932 F,0,52299,52301,0.9964932,0.971945 F,0,52301,52303,0.971945,0.9964932 F,0,52303,52305,0.9964932,0.971945 F,0,52305,52306,0.971945,1 F,0,52306,52309,1 F,0,52309,52310,1 F,0,52310,52312,1 F,0,52312,52313,1 F,0,52313,52318,1 F,0,52318,52321,1 F,0,52321,52322,1 F,0,52322,52325,1 F,0,52325,52327,1 F,0,52327,52329,1 F,0,52329,52331,1 F,0,52331,52333,1 F,0,52333,52335,1 F,0,52335,52338,1 F,0,52338,52339,1 F,0,52339,52344,1 F,0,52344,52345,1 F,0,52345,52348,1 F,0,52348,52350,1 F,0,52350,52352,1 F,0,52352,52353,1 F,0,52353,52357,1 F,0,52357,52358,1 F,0,52358,52361,1 F,0,52361,52364,1 F,0,52364,52365,1 F,0,52365,52368,1 F,0,52368,52369,1 F,0,52369,52372,1 F,0,52372,52373,1 F,0,52373,52377,1 F,0,52377,52381,1 F,0,52381,52382,1 F,0,52382,52384,1 F,0,52384,52385,1 F,0,52385,52388,1 F,0,52388,52389,1 F,0,52389,52392,1 F,0,52392,52393,1 F,0,52393,52395,1 F,0,52395,52398,1 F,0,52398,52400,1 F,0,52400,52402,1 F,0,52402,52403,1 F,0,52403,52405,1 F,0,52405,52408,1 F,0,52408,52409,1 F,0,52409,52412,1,0.8877808 F,0,52412,52414,0.8877808,1 F,0,52414,52415,1,0.8877808 F,0,52415,52418,0.8877808,1 F,0,52418,52420,1,0.6738629 F,0,52420,52422,0.6738629,1 F,0,52422,52423,1,0.6738629 F,0,52423,52427,0.6738629,1 F,0,52427,52432,1,0.9579179 F,0,52432,52437,0.9579179 F,0,52437,52438,0.9579179,0.3442191 F,0,52438,52441,0.3442191,0.8316713 F,0,52441,52442,0.8316713,0.3442191 F,0,52442,52444,0.3442191,0.8316713 F,0,52444,52445,0.8316713,0.277589 F,0,52445,52449,0.277589,0.7440001 F,0,52449,52452,0.7440001,0.2705751 F,0,52452,52453,0.2705751,0.7440001 F,0,52453,52456,0.7440001,0.7124383 F,0,52456,52460,0.7124383 F,0,52460,52463,0.7124383,0.2705751 F,0,52463,52464,0.2705751,0.7019179 F,0,52464,52468,0.7019179 F,0,52468,52472,0.7019179 F,0,52472,52473,0.7019179,0.3301916 F,0,52473,52475,0.3301916,0.7019179 F,0,52475,52479,0.7019179,0.4879999 F,0,52479,52480,0.4879999,0.7159451 F,0,52480,52483,0.7159451 F,0,52483,52488,0.7159451,0.7580273 F,0,52488,52491,0.7580273,0.9228491 F,0,52491,52492,0.9228491,0.7580273 F,0,52492,52494,0.7580273,0.9228491 F,0,52494,52497,0.9228491,0.8316713 F,0,52497,52500,0.8316713 F,0,52500,52504,0.8316713,0.9228493 F,0,52504,52508,0.9228493 F,0,52508,52512,0.9228493,1 F,0,52512,52513,1 F,0,52513,52516,1 F,0,52516,52517,1 F,0,52517,52520,1 F,0,52520,52523,1 F,0,52523,52524,1 F,0,52524,52527,1 F,0,52527,52530,1 F,0,52530,52531,1 F,0,52531,52533,1 F,0,52533,52534,1 F,0,52534,52538,1 F,0,52538,52539,1 F,0,52539,52541,1 F,0,52541,52543,1 F,0,52543,52547,1 F,0,52547,52551,1 F,0,52551,52554,1 F,0,52554,52558,1 F,0,52558,52562,1 F,0,52562,52563,1 F,0,52563,52566,1 F,0,52566,52568,1 F,0,52568,52570,1 F,0,52570,52571,1 F,0,52571,52573,1 F,0,52573,52574,1 F,0,52574,52577,1 F,0,52577,52579,1 F,0,52579,52581,1 F,0,52581,52583,1 F,0,52583,52585,1,0.8667396 F,0,52585,52587,0.8667396,1 F,0,52587,52589,1,0.8667396 F,0,52589,52591,0.8667396,1 F,0,52591,52593,1,0.6633424 F,0,52593,52595,0.6633424,1 F,0,52595,52598,1,0.6633424 F,0,52598,52599,0.6633424,1 F,0,52599,52602,1,0.4564382 F,0,52602,52603,0.4564382,1 F,0,52603,52605,1,0.4564382 F,0,52605,52607,0.4564382,1 F,0,52607,52609,1,0.2846028 F,0,52609,52613,0.2846028,1 F,0,52613,52615,1,0.1513423 F,0,52615,52618,0.1513423,1 F,0,52618,52620,1,0.1513423 F,0,52620,52621,0.1513423,1 F,0,52621,52623,1,0.1443285 F,0,52623,52625,0.1443285,1 F,0,52625,52627,1,0.1443285 F,0,52627,52630,0.1443285,1 F,0,52630,52633,1 F,0,52633,52637,1,0.1443285 F,0,52637,52638,0.1443285,0.8456987 F,0,52638,52641,0.8456987 F,0,52641,52644,0.8456987,0.1443285 F,0,52644,52646,0.1443285,0.7019179 F,0,52646,52648,0.7019179,0.1443285 F,0,52648,52650,0.1443285,0.7019179 F,0,52650,52653,0.7019179,0.5967124 F,0,52653,52655,0.5967124,0.1618628 F,0,52655,52658,0.1618628,0.5967124 F,0,52658,52659,0.5967124,0.1618628 F,0,52659,52662,0.1618628,0.2460272 F,0,52662,52663,0.2460272,0.5546301 F,0,52663,52666,0.5546301 F,0,52666,52667,0.5546301,0.2460272 F,0,52667,52670,0.2460272,0.5406027 F,0,52670,52672,0.5406027,0.3898082 F,0,52672,52673,0.3898082,0.5406027 F,0,52673,52675,0.5406027,0.3898082 F,0,52675,52678,0.3898082,0.5406027 F,0,52678,52679,0.5406027,0.5616437 F,0,52679,52682,0.5616437,0.5406027 F,0,52682,52687,0.5406027,0.5476164 F,0,52687,52690,0.5476164 F,0,52690,52691,0.5476164,0.7545204 F,0,52691,52694,0.7545204 F,0,52694,52695,0.7545204,0.5896986 F,0,52695,52698,0.5896986,0.9368767 F,0,52698,52700,0.9368767,0.5896986 F,0,52700,52703,0.5896986,1 F,0,52703,52705,1,0.652822 F,0,52705,52708,0.652822,1 F,0,52708,52711,1,0.652822 F,0,52711,52712,0.652822,1 F,0,52712,52715,1 F,0,52715,52716,1,0.7299725 F,0,52716,52719,0.7299725,1 F,0,52719,52720,1,0.8176438 F,0,52720,52723,0.8176438,1 F,0,52723,52725,1,0.8176438 F,0,52725,52727,0.8176438,1 F,0,52727,52729,1,0.8176438 F,0,52729,52731,0.8176438,1 F,0,52731,52735,1,0.9123288 F,0,52735,52739,0.9123288,1 F,0,52739,52742,1 F,0,52742,52743,1 F,0,52743,52746,1 F,0,52746,52747,1 F,0,52747,52749,1 F,0,52749,52752,1 F,0,52752,52753,1 F,0,52753,52756,1 F,0,52756,52757,1 F,0,52757,52760,1 F,0,52760,52761,1 F,0,52761,52764,1 F,0,52764,52768,1 F,0,52768,52769,1 F,0,52769,52772,1 F,0,52772,52773,1 F,0,52773,52775,1,0.9193425 F,0,52775,52777,0.9193425,1 F,0,52777,52779,1,0.9193425 F,0,52779,52781,0.9193425,1 F,0,52781,52782,1,0.7580272 F,0,52782,52787,0.7580272,1 F,0,52787,52792,1 F,0,52792,52795,1,0.6002191 F,0,52795,52797,0.6002191,1 F,0,52797,52799,1,0.4318904 F,0,52799,52801,0.4318904,1 F,0,52801,52804,1,0.4318904 F,0,52804,52805,0.4318904,1 F,0,52805,52808,1,0.2881094 F,0,52808,52809,0.2881094,1 F,0,52809,52811,1,0.2881094 F,0,52811,52813,0.2881094,1 F,0,52813,52814,1,0.1548491 F,0,52814,52819,0.1548491,1 F,0,52819,52822,1,0.954411 F,0,52822,52825,0.954411,0.1443285 F,0,52825,52827,0.1443285,0.954411 F,0,52827,52830,0.954411,0.1443285 F,0,52830,52831,0.1443285,0.7615343 F,0,52831,52834,0.7615343,0.1443285 F,0,52834,52835,0.1443285,0.5511234 F,0,52835,52839,0.5511234 F,0,52839,52842,0.5511234,0.1443285 F,0,52842,52843,0.1443285,0.3617534 F,0,52843,52847,0.3617534 F,0,52847,52851,0.3617534,0.1443285 F,0,52851,52853,0.1443285,0.1899179 F,0,52853,52854,0.1899179,0.1688766 F,0,52854,52857,0.1688766,0.1899179 F,0,52857,52860,0.1899179,0.1688766 F,0,52860,52861,0.1688766,0.1022464 F,0,52861,52864,0.1022464 F,0,52864,52865,0.1022464,0.2600546 F,0,52865,52870,0.2600546,0.1022464 F,0,52870,52871,0.1022464,0.2600546 F,0,52871,52873,0.2600546,0.1022464 F,0,52873,52875,0.1022464,0.4108493 F,0,52875,52878,0.4108493,0.1022464 F,0,52878,52880,0.1022464,0.4108493 F,0,52880,52883,0.4108493,0.1022464 F,0,52883,52885,0.1022464,0.6107396 F,0,52885,52889,0.6107396,0.1022464 F,0,52889,52892,0.1022464 F,0,52892,52894,0.1022464,0.8071232 F,0,52894,52895,0.8071232,0.1022464 F,0,52895,52898,0.1022464,0.9824657 F,0,52898,52900,0.9824657,0.1303014 F,0,52900,52902,0.1303014,0.9824657 F,0,52902,52904,0.9824657,0.1303014 F,0,52904,52908,0.1303014,0.1969315 F,0,52908,52911,0.1969315,1 F,0,52911,52912,1,0.1969315 F,0,52912,52916,0.1969315,1 F,0,52916,52918,1,0.3126575 F,0,52918,52920,0.3126575,1 F,0,52920,52922,1,0.3126575 F,0,52922,52924,0.3126575,1 F,0,52924,52925,1,0.4318904 F,0,52925,52928,0.4318904,1 F,0,52928,52929,1,0.4318904 F,0,52929,52932,0.4318904,1 F,0,52932,52934,1,0.5686575 F,0,52934,52937,0.5686575,1 F,0,52937,52938,1,0.6949041 F,0,52938,52941,0.6949041,1 F,0,52941,52942,1,0.6949041 F,0,52942,52944,0.6949041,1 F,0,52944,52945,1,0.8071232 F,0,52945,52948,0.8071232,1 F,0,52948,52950,1,0.8071232 F,0,52950,52953,0.8071232,1 F,0,52953,52954,1,0.9123288 F,0,52954,52958,0.9123288 F,0,52958,52961,0.9123288,1 F,0,52961,52962,1 F,0,52962,52965,1 F,0,52965,52967,1 F,0,52967,52969,1 F,0,52969,52973,1 F,0,52973,52975,1,0.9473972 F,0,52975,52977,0.9473972,1 F,0,52977,52979,1,0.8141368 F,0,52979,52982,0.8141368,1 F,0,52982,52986,1 F,0,52986,52990,1 F,0,52990,52991,1,0.6142465 F,0,52991,52994,0.6142465,1 F,0,52994,52998,1,0.4248766 F,0,52998,52999,0.4248766,1 F,0,52999,53002,1,0.4248766 F,0,53002,53003,0.4248766,1 F,0,53003,53007,1 F,0,53007,53011,1,0.9333699 F,0,53011,53014,0.9333699,0.1443285 F,0,53014,53015,0.1443285,0.9333699 F,0,53015,53018,0.9333699,0.1443285 F,0,53018,53019,0.1443285,0.7720547 F,0,53019,53022,0.7720547,0.1443285 F,0,53022,53023,0.1443285,0.7720547 F,0,53023,53027,0.7720547,0.1443285 F,0,53027,53028,0.1443285,0.5616438 F,0,53028,53030,0.5616438,0.1443285 F,0,53030,53032,0.1443285,0.5616438 F,0,53032,53035,0.5616438,0.3512328 F,0,53035,53039,0.3512328,0.1443285 F,0,53039,53040,0.1443285,0.3512328 F,0,53040,53043,0.3512328,0.1338081 F,0,53043,53044,0.1338081,0.1443285 F,0,53044,53047,0.1443285 F,0,53047,53048,0.1443285,0.1022464 F,0,53048,53052,0.1022464 F,0,53052,53055,0.1022464,0.1443285 F,0,53055,53057,0.1443285,0.1022464 F,0,53057,53060,0.1022464,0.1653696 F,0,53060,53062,0.1653696,0.1022464 F,0,53062,53063,0.1022464,0.1653696 F,0,53063,53068,0.1653696,0.1022464 F,0,53068,53072,0.1022464 F,0,53072,53075,0.1022464 F,0,53075,53079,0.1022464,0.2986301 F,0,53079,53080,0.2986301,0.1022464 F,0,53080,53083,0.1022464,0.3898082 F,0,53083,53084,0.3898082,0.1022464 F,0,53084,53088,0.1022464,0.3898082 F,0,53088,53089,0.3898082,0.1022464 F,0,53089,53092,0.1022464 F,0,53092,53095,0.1022464,0.484493 F,0,53095,53098,0.484493,0.1303014 F,0,53098,53100,0.1303014,0.5651504 F,0,53100,53101,0.5651504,0.1303014 F,0,53101,53104,0.1303014,0.5651504 F,0,53104,53105,0.5651504,0.2039452 F,0,53105,53109,0.2039452 F,0,53109,53112,0.2039452,0.6493149 F,0,53112,53114,0.6493149,0.3372055 F,0,53114,53115,0.3372055,0.7369862 F,0,53115,53118,0.7369862,0.3372055 F,0,53118,53119,0.3372055,0.7369862 F,0,53119,53122,0.7369862,0.4950137 F,0,53122,53124,0.4950137,0.81063 F,0,53124,53125,0.81063,0.4950137 F,0,53125,53128,0.4950137,0.81063 F,0,53128,53131,0.81063,0.6493151 F,0,53131,53134,0.6493151,0.8106302 F,0,53134,53135,0.8106302,0.8772603 F,0,53135,53139,0.8772603,0.8106302 F,0,53139,53140,0.8106302,0.9193425 F,0,53140,53142,0.9193425,0.9438904 F,0,53142,53143,0.9438904,0.9193425 F,0,53143,53148,0.9193425,0.9438904 F,0,53148,53153,0.9438904,1 F,0,53153,53157,1 F,0,53157,53159,1,0.9473972 F,0,53159,53161,0.9473972,1 F,0,53161,53162,1,0.9473972 F,0,53162,53165,0.9473972,1 F,0,53165,53170,1 F,0,53170,53173,1 F,0,53173,53177,1,0.8737534 F,0,53177,53179,0.8737534,1 F,0,53179,53181,1,0.8737534 F,0,53181,53182,0.8737534,1 F,0,53182,53184,1,0.7615341 F,0,53184,53187,0.7615341,1 F,0,53187,53189,1,0.7615341 F,0,53189,53191,0.7615341,1 F,0,53191,53192,1,0.579178 F,0,53192,53195,0.579178,1 F,0,53195,53196,1,0.579178 F,0,53196,53199,0.579178,1 F,0,53199,53201,1,0.3933148 F,0,53201,53204,0.3933148,1 F,0,53204,53205,1,0.3933148 F,0,53205,53208,0.3933148,1 F,0,53208,53209,1,0.2179724 F,0,53209,53213,0.2179724,1 F,0,53213,53217,1,0.8877809 F,0,53217,53221,0.8877809 F,0,53221,53225,0.8877809,0.7159451 F,0,53225,53229,0.7159451,0.1443285 F,0,53229,53230,0.1443285,0.5546301 F,0,53230,53233,0.5546301 F,0,53233,53238,0.5546301,0.4003288 F,0,53238,53243,0.4003288,0.1443285 F,0,53243,53244,0.1443285,0.4003288 F,0,53244,53247,0.4003288,0.1443285 F,0,53247,53249,0.1443285,0.2916164 F,0,53249,53250,0.2916164,0.1443285 F,0,53250,53253,0.1443285,0.2355069 F,0,53253,53254,0.2355069,0.1443285 F,0,53254,53258,0.1443285,0.2355069 F,0,53258,53262,0.2355069,0.2039452 F,0,53262,53265,0.2039452,0.1723834 F,0,53265,53266,0.1723834,0.2039452 F,0,53266,53270,0.2039452 F,0,53270,53271,0.2039452,0.1723834 F,0,53271,53273,0.1723834,0.2039452 F,0,53273,53274,0.2039452,0.2355067 F,0,53274,53278,0.2355067 F,0,53278,53279,0.2355067,0.2039452 F,0,53279,53282,0.2039452,0.3161643 F,0,53282,53283,0.3161643,0.2039452 F,0,53283,53287,0.2039452,0.3161643 F,0,53287,53288,0.3161643,0.2249863 F,0,53288,53291,0.2249863,0.3933148 F,0,53291,53292,0.3933148,0.2249863 F,0,53292,53294,0.2249863,0.3933148 F,0,53294,53297,0.3933148,0.2846028 F,0,53297,53299,0.2846028,0.484493 F,0,53299,53301,0.484493,0.3827945 F,0,53301,53303,0.3827945,0.5721643 F,0,53303,53305,0.5721643,0.3827945 F,0,53305,53307,0.3827945,0.5721643 F,0,53307,53310,0.5721643,0.5160549 F,0,53310,53311,0.5160549,0.5721643 F,0,53311,53314,0.5721643,0.5160549 F,0,53314,53315,0.5160549,0.6738629 F,0,53315,53319,0.6738629,0.6317809 F,0,53319,53320,0.6317809,0.7615341 F,0,53320,53322,0.7615341,0.6317809 F,0,53322,53323,0.6317809,0.7615341 F,0,53323,53326,0.7615341,0.8492053 F,0,53326,53328,0.8492053,0.7475069 F,0,53328,53331,0.7475069,0.8492053 F,0,53331,53334,0.8492053,0.8456987 F,0,53334,53337,0.8456987,0.8877808 F,0,53337,53340,0.8877808,0.8456987 F,0,53340,53341,0.8456987,0.8877808 F,0,53341,53344,0.8877808,0.9123287 F,0,53344,53346,0.9123287,0.9053151 F,0,53346,53348,0.9053151,0.9123287 F,0,53348,53351,0.9123287,0.9053151 F,0,53351,53353,0.9053151,0.9123287 F,0,53353,53356,0.9123287,0.9368768 F,0,53356,53357,0.9368768,0.9123287 F,0,53357,53360,0.9123287,0.9368768 F,0,53360,53361,0.9368768,0.9123287 F,0,53361,53364,0.9123287 F,0,53364,53365,0.9123287,0.9438904 F,0,53365,53370,0.9438904 F,0,53370,53373,0.9438904,0.8912876 F,0,53373,53376,0.8912876,0.9438904 F,0,53376,53378,0.9438904,0.8281643 F,0,53378,53380,0.8281643,0.9228493 F,0,53380,53381,0.9228493,0.8281643 F,0,53381,53385,0.8281643,0.6913971 F,0,53385,53387,0.6913971,0.8421918 F,0,53387,53389,0.8421918,0.6913971 F,0,53389,53392,0.6913971,0.8421918 F,0,53392,53395,0.8421918,0.5370958 F,0,53395,53397,0.5370958,0.722959 F,0,53397,53399,0.722959,0.4038354 F,0,53399,53403,0.4038354,0.5651506 F,0,53403,53404,0.5651506,0.4038354 F,0,53404,53408,0.4038354,0.5651506 F,0,53408,53412,0.5651506,0.4003288 F,0,53412,53415,0.4003288,0.203945 F,0,53415,53419,0.203945,0.4003288 F,0,53419,53420,0.4003288,0.203945 F,0,53420,53423,0.203945,0.1688766 F,0,53423,53426,0.1688766,0.2249863 F,0,53426,53428,0.2249863,0.1688766 F,0,53428,53431,0.1688766,0.1022464 F,0,53431,53432,0.1022464,0.1583562 F,0,53432,53437,0.1583562 F,0,53437,53438,0.1583562,0.1022464 F,0,53438,53441,0.1022464,0.1583562 F,0,53441,53443,0.1583562,0.1022464 F,0,53443,53444,0.1022464,0.1583562 F,0,53444,53448,0.1583562,0.1022464 F,0,53448,53453,0.1022464,0.1969313 F,0,53453,53454,0.1969313,0.1022464 F,0,53454,53457,0.1022464,0.1969313 F,0,53457,53459,0.1969313,0.1022464 F,0,53459,53460,0.1022464,0.1969313 F,0,53460,53464,0.1969313,0.1022464 F,0,53464,53465,0.1022464,0.2600546 F,0,53465,53470,0.2600546,0.1022464 F,0,53470,53473,0.1022464,0.3442191 F,0,53473,53474,0.3442191,0.1022464 F,0,53474,53478,0.1022464,0.4494246 F,0,53478,53479,0.4494246,0.1162741 F,0,53479,53481,0.1162741,0.4494246 F,0,53481,53484,0.4494246,0.1653697 F,0,53484,53485,0.1653697,0.5511232 F,0,53485,53489,0.5511232 F,0,53489,53490,0.5511232,0.1653697 F,0,53490,53493,0.1653697,0.6598355 F,0,53493,53494,0.6598355,0.2390137 F,0,53494,53499,0.2390137,0.3372055 F,0,53499,53504,0.3372055 F,0,53504,53505,0.3372055,0.7615341 F,0,53505,53509,0.7615341,0.4529315 F,0,53509,53513,0.4529315,0.8351781 F,0,53513,53514,0.8351781,0.5581371 F,0,53514,53517,0.5581371,0.8351781 F,0,53517,53520,0.8351781,0.5581371 F,0,53520,53523,0.5581371,0.8772603 F,0,53523,53524,0.8772603,0.6423015 F,0,53524,53527,0.6423015,0.8772603 F,0,53527,53530,0.8772603,0.7019179 F,0,53530,53532,0.7019179,0.8983012 F,0,53532,53536,0.8983012,0.7019179 F,0,53536,53541,0.7019179,0.7404932 F,0,53541,53545,0.7404932 F,0,53545,53550,0.7404932,0.8983012 F,0,53550,53551,0.8983012,0.7510138 F,0,53551,53553,0.7510138,0.8983012 F,0,53553,53557,0.8983012,0.7510138 F,0,53557,53558,0.7510138,0.8737534 F,0,53558,53561,0.8737534,0.7510138 F,0,53561,53566,0.7510138,0.8036163 F,0,53566,53568,0.8036163,0.7510138 F,0,53568,53570,0.7510138,0.8036163 F,0,53570,53573,0.8036163,0.7194521 F,0,53573,53575,0.7194521,0.6984108 F,0,53575,53578,0.6984108,0.7194521 F,0,53578,53579,0.7194521,0.6984108 F,0,53579,53582,0.6984108,0.533589 F,0,53582,53584,0.533589,0.6493151 F,0,53584,53587,0.6493151,0.533589 F,0,53587,53589,0.533589,0.5511234 F,0,53589,53592,0.5511234,0.3407123 F,0,53592,53593,0.3407123,0.5511234 F,0,53593,53595,0.5511234,0.3407123 F,0,53595,53598,0.3407123,0.4318904 F,0,53598,53600,0.4318904,0.1583562 F,0,53600,53603,0.1583562,0.1443285 F,0,53603,53608,0.1443285,0.3372055 F,0,53608,53612,0.3372055,0.2214795 F,0,53612,53616,0.2214795,0.1443285 F,0,53616,53618,0.1443285,0.2214795 F,0,53618,53621,0.2214795,0.1443285 F,0,53621,53623,0.1443285,0.1373151 F,0,53623,53625,0.1373151,0.1443285 F,0,53625,53629,0.1443285,0.1022464 F,0,53629,53630,0.1022464,0.1443285 F,0,53630,53633,0.1443285 F,0,53633,53634,0.1443285,0.1022464 F,0,53634,53638,0.1022464,0.1443285 F,0,53638,53639,0.1443285,0.1022464 F,0,53639,53642,0.1022464,0.1443285 F,0,53642,53643,0.1443285,0.1022464 F,0,53643,53645,0.1022464,0.1443285 F,0,53645,53648,0.1443285,0.1022464 F,0,53648,53649,0.1022464,0.1443285 F,0,53649,53652,0.1443285,0.1583562 F,0,53652,53654,0.1583562,0.1022464 F,0,53654,53658,0.1022464,0.1583562 F,0,53658,53660,0.1583562,0.1267946 F,0,53660,53662,0.1267946,0.2214793 F,0,53662,53666,0.2214793,0.2004385 F,0,53666,53667,0.2004385,0.2214793 F,0,53667,53671,0.2214793,0.3091505 F,0,53671,53672,0.3091505,0.2004385 F,0,53672,53675,0.2004385,0.4213698 F,0,53675,53678,0.4213698,0.3301916 F,0,53678,53679,0.3301916,0.4213698 F,0,53679,53683,0.4213698,0.4704658 F,0,53683,53686,0.4704658,0.5476162 F,0,53686,53689,0.5476162,0.6072328 F,0,53689,53692,0.6072328,0.6773697 F,0,53692,53694,0.6773697,0.6072328 F,0,53694,53695,0.6072328,0.6773697 F,0,53695,53699,0.6773697,0.8071232 F,0,53699,53701,0.8071232,0.7299725 F,0,53701,53703,0.7299725,0.8071232 F,0,53703,53706,0.8071232,0.8176438 F,0,53706,53709,0.8176438,0.9123287 F,0,53709,53711,0.9123287,0.8176438 F,0,53711,53712,0.8176438,0.9123287 F,0,53712,53716,0.9123287,0.9684383 F,0,53716,53718,0.9684383,0.8632329 F,0,53718,53720,0.8632329,0.9684383 F,0,53720,53723,0.9684383,0.8912877 F,0,53723,53724,0.8912877,1 F,0,53724,53728,1 F,0,53728,53729,1,0.8983014 F,0,53729,53732,0.8983014,1 F,0,53732,53734,1,0.8983014 F,0,53734,53735,0.8983014,1 F,0,53735,53740,1,0.8983014 F,0,53740,53741,0.8983014,1 F,0,53741,53744,1 F,0,53744,53745,1,0.8912877 F,0,53745,53748,0.8912877,1 F,0,53748,53751,1,0.8912877 F,0,53751,53752,0.8912877,1 F,0,53752,53756,1,0.8562192 F,0,53756,53757,0.8562192,1 F,0,53757,53760,1 F,0,53760,53761,1,0.8036165 F,0,53761,53764,0.8036165,1 F,0,53764,53768,1,0.722959 F,0,53768,53773,0.722959,0.9824657 F,0,53773,53774,0.9824657,0.722959 F,0,53774,53778,0.722959,0.9403834 F,0,53778,53779,0.9403834,0.6247671 F,0,53779,53784,0.6247671,0.9403834 F,0,53784,53785,0.9403834,0.537096 F,0,53785,53789,0.537096,0.8772603 F,0,53789,53790,0.8772603,0.537096 F,0,53790,53792,0.537096,0.8772603 F,0,53792,53794,0.8772603,0.4424109 F,0,53794,53795,0.4424109,0.81063 F,0,53795,53800,0.81063,0.3336986 F,0,53800,53804,0.3336986 F,0,53804,53808,0.3336986,0.7229588 F,0,53808,53810,0.7229588,0.2600548 F,0,53810,53812,0.2600548,0.6352876 F,0,53812,53816,0.6352876 F,0,53816,53817,0.6352876,0.2004385 F,0,53817,53820,0.2004385,0.579178 F,0,53820,53822,0.579178,0.1653697 F,0,53822,53824,0.1653697,0.579178 F,0,53824,53827,0.579178,0.1653697 F,0,53827,53829,0.1653697,0.5511232 F,0,53829,53832,0.5511232 F,0,53832,53833,0.5511232,0.1513425 F,0,53833,53837,0.1513425,0.5476162 F,0,53837,53839,0.5476162,0.1513425 F,0,53839,53842,0.1513425,0.5476162 F,0,53842,53843,0.5476162,0.1513425 F,0,53843,53845,0.1513425,0.5476162 F,0,53845,53849,0.5476162,0.1618629 F,0,53849,53853,0.1618629 F,0,53853,53858,0.1618629,0.2144658 F,0,53858,53862,0.2144658,0.6668492 F,0,53862,53864,0.6668492,0.3161644 F,0,53864,53865,0.3161644,0.81063 F,0,53865,53869,0.81063,0.3161644 F,0,53869,53871,0.3161644,0.81063 F,0,53871,53875,0.81063,0.9754519 F,0,53875,53876,0.9754519,0.4669589 F,0,53876,53879,0.4669589,0.9754519 F,0,53879,53882,0.9754519,0.6282739 F,0,53882,53883,0.6282739,1 F,0,53883,53886,1,0.7755617 F,0,53886,53889,0.7755617,1 F,0,53889,53891,1,0.7755617 F,0,53891,53892,0.7755617,1 F,0,53892,53895,1 F,0,53895,53898,1,0.9123288 F,0,53898,53899,0.9123288,1 F,0,53899,53903,1,0.9894794 F,0,53903,53904,0.9894794,1 F,0,53904,53908,1 F,0,53908,53910,1 F,0,53910,53913,1 F,0,53913,53917,1 F,0,53917,53921,1 F,0,53921,53923,1 F,0,53923,53925,1 F,0,53925,53929,1 F,0,53929,53933,1 F,0,53933,53934,1 F,0,53934,53938,1 F,0,53938,53940,1 F,0,53940,53941,1 F,0,53941,53945,1 F,0,53945,53946,1,0.9754521 F,0,53946,53948,0.9754521,1 F,0,53948,53951,1,0.9228493 F,0,53951,53953,0.9228493,1 F,0,53953,53957,1,0.8667398 F,0,53957,53962,0.8667398,1 F,0,53962,53963,1,0.8667398 F,0,53963,53965,0.8667398,1 F,0,53965,53968,1,0.7755617 F,0,53968,53971,0.7755617,1 F,0,53971,53972,1,0.6808768 F,0,53972,53974,0.6808768,0.8597258 F,0,53974,53978,0.8597258 F,0,53978,53980,0.8597258,0.6808768 F,0,53980,53982,0.6808768,0.8597258 F,0,53982,53987,0.8597258,0.5967124 F,0,53987,53991,0.5967124,0.5651504 F,0,53991,53994,0.5651504,0.4985205 F,0,53994,53999,0.4985205,0.435397 F,0,53999,54003,0.435397,0.4213699 F,0,54003,54004,0.4213699,0.435397 F,0,54004,54008,0.435397,0.347726 F,0,54008,54010,0.347726,0.3477261 F,0,54010,54012,0.3477261,0.347726 F,0,54012,54015,0.347726,0.3091505 F,0,54015,54018,0.3091505,0.3161644 F,0,54018,54021,0.3161644,0.3091505 F,0,54021,54024,0.3091505,0.3056438 F,0,54024,54025,0.3056438,0.3161644 F,0,54025,54029,0.3161644,0.3056438 F,0,54029,54030,0.3056438,0.3091507 F,0,54030,54032,0.3091507,0.3056438 F,0,54032,54037,0.3056438,0.3301916 F,0,54037,54038,0.3301916,0.3091507 F,0,54038,54041,0.3091507,0.3301916 F,0,54041,54043,0.3301916,0.326685 F,0,54043,54044,0.326685,0.3301916 F,0,54044,54048,0.3301916,0.326685 F,0,54048,54049,0.326685,0.4318904 F,0,54049,54053,0.4318904,0.579178 F,0,54053,54055,0.579178,0.3722739 F,0,54055,54057,0.3722739,0.579178 F,0,54057,54060,0.579178,0.4494247 F,0,54060,54062,0.4494247,0.7650411 F,0,54062,54067,0.7650411 F,0,54067,54068,0.7650411,0.5476164 F,0,54068,54072,0.5476164,0.9789589 F,0,54072,54074,0.9789589,0.5476164 F,0,54074,54075,0.5476164,0.9789589 F,0,54075,54079,0.9789589,1 F,0,54079,54080,1,0.6563287 F,0,54080,54083,0.6563287,1 F,0,54083,54086,1,0.7369862 F,0,54086,54088,0.7369862,1 F,0,54088,54091,1,0.7369862 F,0,54091,54095,0.7369862,1 F,0,54095,54097,1,0.8176438 F,0,54097,54100,0.8176438,1 F,0,54100,54103,1,0.859726 F,0,54103,54105,0.859726,1 F,0,54105,54108,1,0.859726 F,0,54108,54109,0.859726,1 F,0,54109,54112,1 F,0,54112,54113,1,0.8877809 F,0,54113,54118,0.8877809,1 F,0,54118,54119,1,0.9018081 F,0,54119,54121,0.9018081,1 F,0,54121,54123,1,0.9018081 F,0,54123,54124,0.9018081,1 F,0,54124,54128,1 F,0,54128,54129,1,0.9018081 F,0,54129,54133,0.9018081,1 F,0,54133,54135,1,0.9018081 F,0,54135,54139,0.9018081,1 F,0,54139,54141,1,0.8667398 F,0,54141,54145,0.8667398 F,0,54145,54146,0.8667398,1 F,0,54146,54151,1 F,0,54151,54152,1,0.7790685 F,0,54152,54157,0.7790685,0.652822 F,0,54157,54161,0.652822,1 F,0,54161,54162,1,0.652822 F,0,54162,54165,0.652822,1 F,0,54165,54169,1,0.5020275 F,0,54169,54173,0.5020275,0.3477261 F,0,54173,54175,0.3477261,1 F,0,54175,54177,1,0.3477261 F,0,54177,54180,0.3477261,0.9684383 F,0,54180,54182,0.9684383,0.2214795 F,0,54182,54185,0.2214795,0.9684383 F,0,54185,54188,0.9684383,0.1443286 F,0,54188,54189,0.1443286,0.7369862 F,0,54189,54193,0.7369862,0.1443286 F,0,54193,54198,0.1443286,0.1162741 F,0,54198,54202,0.1162741,0.5195615 F,0,54202,54203,0.5195615,0.1162741 F,0,54203,54208,0.1162741 F,0,54208,54211,0.1162741,0.3407123 F,0,54211,54213,0.3407123,0.1162741 F,0,54213,54214,0.1162741,0.2214793 F,0,54214,54219,0.2214793,0.1443286 F,0,54219,54222,0.1443286,0.1618628 F,0,54222,54223,0.1618628,0.1443286 F,0,54223,54228,0.1443286,0.2249863 F,0,54228,54233,0.2249863,0.1548491 F,0,54233,54235,0.1548491,0.3301916 F,0,54235,54238,0.3301916,0.1548491 F,0,54238,54240,0.1548491,0.3301916 F,0,54240,54243,0.3301916,0.1548491 F,0,54243,54244,0.1548491,0.4389041 F,0,54244,54247,0.4389041,0.1864107 F,0,54247,54250,0.1864107,0.5441095 F,0,54250,54251,0.5441095,0.1864107 F,0,54251,54254,0.1864107,0.5441095 F,0,54254,54259,0.5441095,0.6598356 F,0,54259,54260,0.6598356,0.4564382 F,0,54260,54263,0.4564382,0.6598356 F,0,54263,54264,0.6598356,0.4564382 F,0,54264,54268,0.4564382,0.6387944 F,0,54268,54270,0.6387944,0.7369862 F,0,54270,54272,0.7369862,0.6387944 F,0,54272,54274,0.6387944,0.7895891 F,0,54274,54277,0.7895891,0.8492053 F,0,54277,54279,0.8492053,0.7895891 F,0,54279,54281,0.7895891,0.8492053 F,0,54281,54284,0.8492053,0.8211507 F,0,54284,54287,0.8211507,1 F,0,54287,54289,1,0.8351782 F,0,54289,54292,0.8351782,1 F,0,54292,54294,1,0.8351782 F,0,54294,54296,0.8351782,1 F,0,54296,54300,1 F,0,54300,54301,1,0.8351782 F,0,54301,54304,0.8351782,1 F,0,54304,54305,1,0.8351782 F,0,54305,54309,0.8351782,1 F,0,54309,54311,1,0.8351782 F,0,54311,54313,0.8351782,1 F,0,54313,54317,1,0.814137 F,0,54317,54322,0.814137,0.7615343 F,0,54322,54323,0.7615343,1 F,0,54323,54327,1,0.7615343 F,0,54327,54328,0.7615343,1 F,0,54328,54332,1 F,0,54332,54333,1,0.6808768 F,0,54333,54336,0.6808768,1 F,0,54336,54338,1,0.5721645 F,0,54338,54340,0.5721645,1 F,0,54340,54342,1,0.5721645 F,0,54342,54344,0.5721645,1 F,0,54344,54347,1,0.463452 F,0,54347,54348,0.463452,1 F,0,54348,54353,1,0.3477261 F,0,54353,54358,0.3477261 F,0,54358,54361,0.3477261,1 F,0,54361,54362,1,0.2635617 F,0,54362,54365,0.2635617,1 F,0,54365,54368,1,0.2635617 F,0,54368,54369,0.2635617,1 F,0,54369,54372,1,0.210959 F,0,54372,54374,0.210959,0.81063 F,0,54374,54376,0.81063,0.210959 F,0,54376,54378,0.210959,0.81063 F,0,54378,54381,0.81063,0.1793973 F,0,54381,54382,0.1793973,0.5932054 F,0,54382,54385,0.5932054,0.1653697 F,0,54385,54386,0.1653697,0.3968217 F,0,54386,54389,0.3968217,0.1653697 F,0,54389,54390,0.1653697,0.3968217 F,0,54390,54393,0.3968217,0.1653697 F,0,54393,54394,0.1653697,0.2460272 F,0,54394,54398,0.2460272 F,0,54398,54399,0.2460272,0.1653697 F,0,54399,54402,0.1653697,0.1443285 F,0,54402,54403,0.1443285,0.1793973 F,0,54403,54407,0.1793973,0.1443285 F,0,54407,54408,0.1443285,0.2249863 F,0,54408,54413,0.2249863,0.1443285 F,0,54413,54415,0.1443285,0.2249863 F,0,54415,54418,0.2249863,0.1443285 F,0,54418,54419,0.1443285,0.3126575 F,0,54419,54422,0.3126575,0.1443285 F,0,54422,54423,0.1443285,0.4459178 F,0,54423,54425,0.4459178,0.1443285 F,0,54425,54428,0.1443285,0.4459178 F,0,54428,54430,0.4459178,0.1443285 F,0,54430,54433,0.1443285,0.5861917 F,0,54433,54436,0.5861917 F,0,54436,54439,0.5861917,0.1688766 F,0,54439,54441,0.1688766,0.7299725 F,0,54441,54442,0.7299725,0.249534 F,0,54442,54445,0.249534 F,0,54445,54447,0.249534,0.8737535 F,0,54447,54450,0.8737535,0.3722737 F,0,54450,54451,0.3722737,0.8737535 F,0,54451,54454,0.8737535,0.3722737 F,0,54454,54455,0.3722737,0.9964932 F,0,54455,54458,0.9964932,0.5055341 F,0,54458,54460,0.5055341,0.9964932 F,0,54460,54462,0.9964932,0.5055341 F,0,54462,54465,0.5055341,1 F,0,54465,54468,1,0.6773697 F,0,54468,54469,0.6773697,1 F,0,54469,54472,1,0.6773697 F,0,54472,54473,0.6773697,1 F,0,54473,54477,1,0.8667396 F,0,54477,54479,0.8667396,1 F,0,54479,54480,1,0.8667396 F,0,54480,54483,0.8667396,1 F,0,54483,54484,1 F,0,54484,54488,1 F,0,54488,54489,1 F,0,54489,54492,1 F,0,54492,54495,1 F,0,54495,54497,1 F,0,54497,54501,1 F,0,54501,54503,1 F,0,54503,54507,1 F,0,54507,54508,1 F,0,54508,54511,1 F,0,54511,54513,1 F,0,54513,54514,1 F,0,54514,54517,1 F,0,54517,54518,1 F,0,54518,54522,1 F,0,54522,54523,1 F,0,54523,54525,1 F,0,54525,54528,1 F,0,54528,54531,1,0.8492055 F,0,54531,54535,0.8492055,0.6878903 F,0,54535,54540,0.6878903 F,0,54540,54541,0.6878903,1 F,0,54541,54544,1 F,0,54544,54545,1,0.5265753 F,0,54545,54549,0.5265753,1 F,0,54549,54550,1,0.3652603 F,0,54550,54553,0.3652603 F,0,54553,54557,0.3652603,0.9263561 F,0,54557,54558,0.9263561,0.228493 F,0,54558,54561,0.228493,0.7019177 F,0,54561,54563,0.7019177,0.228493 F,0,54563,54565,0.228493,0.7019177 F,0,54565,54568,0.7019177,0.1303014 F,0,54568,54570,0.1303014,0.4774792 F,0,54570,54573,0.4774792 F,0,54573,54574,0.4774792,0.1022464 F,0,54574,54578,0.1022464,0.2600546 F,0,54578,54579,0.2600546,0.1022464 F,0,54579,54582,0.1022464,0.2600546 F,0,54582,54583,0.2600546,0.1022464 F,0,54583,54587,0.1022464,0.1443285 F,0,54587,54590,0.1443285,0.1057535 F,0,54590,54593,0.1057535,0.1443285 F,0,54593,54595,0.1443285,0.1057535 F,0,54595,54598,0.1057535,0.1443285 F,0,54598,54599,0.1443285,0.1232875 F,0,54599,54602,0.1232875,0.1443285 F,0,54602,54604,0.1443285,0.182904 F,0,54604,54606,0.182904,0.1443285 F,0,54606,54610,0.1443285,0.182904 F,0,54610,54613,0.182904,0.1443285 F,0,54613,54615,0.1443285,0.2740822 F,0,54615,54618,0.2740822,0.1443285 F,0,54618,54621,0.1443285,0.2740822 F,0,54621,54623,0.2740822,0.1443285 F,0,54623,54626,0.1443285,0.4108495 F,0,54626,54627,0.4108495,0.1443285 F,0,54627,54631,0.1443285,0.1688766 F,0,54631,54633,0.1688766,0.537096 F,0,54633,54636,0.537096,0.1688766 F,0,54636,54638,0.1688766,0.537096 F,0,54638,54640,0.537096,0.249534 F,0,54640,54643,0.249534,0.6633426 F,0,54643,54644,0.6633426,0.249534 F,0,54644,54648,0.249534,0.3827944 F,0,54648,54649,0.3827944,0.7790685 F,0,54649,54653,0.7790685,0.3827944 F,0,54653,54654,0.3827944,0.7790685 F,0,54654,54656,0.7790685,0.5511232 F,0,54656,54659,0.5511232,0.8667398 F,0,54659,54660,0.8667398,0.5511232 F,0,54660,54664,0.5511232,0.7229588 F,0,54664,54665,0.7229588,0.8667398 F,0,54665,54669,0.8667398,0.7229588 F,0,54669,54671,0.7229588,0.9228493 F,0,54671,54673,0.9228493,0.8737534 F,0,54673,54676,0.8737534,0.9614247 F,0,54676,54680,0.9614247,1 F,0,54680,54684,1 F,0,54684,54686,1,0.978959 F,0,54686,54688,0.978959,1 F,0,54688,54691,1,0.978959 F,0,54691,54692,0.978959,1 F,0,54692,54697,1,0.978959 F,0,54697,54702,0.978959,0.9754521 F,0,54702,54705,0.9754521,1 F,0,54705,54707,1,0.9754521 F,0,54707,54709,0.9754521,1 F,0,54709,54711,1,0.9263562 F,0,54711,54713,0.9263562,1 F,0,54713,54717,1,0.8386849 F,0,54717,54718,0.8386849,1 F,0,54718,54722,1,0.8386849 F,0,54722,54725,0.8386849,1 F,0,54725,54727,1,0.7089316 F,0,54727,54730,0.7089316,1 F,0,54730,54732,1,0.7089316 F,0,54732,54735,0.7089316,1 F,0,54735,54739,1,0.5546301 F,0,54739,54743,0.5546301,0.4038356 F,0,54743,54747,0.4038356 F,0,54747,54752,0.4038356,0.2600548 F,0,54752,54755,0.2600548,0.1232875 F,0,54755,54757,0.1232875,0.6633424 F,0,54757,54760,0.6633424,0.1232875 F,0,54760,54761,0.1232875,0.6633424 F,0,54761,54764,0.6633424,0.1022464 F,0,54764,54770,0.1022464 F,0,54770,54772,0.1022464,0.4529315 F,0,54772,54774,0.4529315,0.1022464 F,0,54774,54779,0.1022464 F,0,54779,54784,0.1022464 F,0,54784,54788,0.1022464 F,0,54788,54789,0.1022464,0.4038354 F,0,54789,54793,0.4038354,0.1022464 F,0,54793,54794,0.1022464,0.3898082 F,0,54794,54798,0.3898082,0.112767 F,0,54798,54803,0.112767,0.1758904 F,0,54803,54804,0.1758904,0.3898082 F,0,54804,54809,0.3898082,0.1758904 F,0,54809,54813,0.1758904,0.2986302 F,0,54813,54814,0.2986302,0.3968217 F,0,54814,54819,0.3968217,0.2986302 F,0,54819,54823,0.2986302,0.4248767 F,0,54823,54824,0.4248767,0.4669588 F,0,54824,54828,0.4669588,0.5791782 F,0,54828,54829,0.5791782,0.579178 F,0,54829,54832,0.579178,0.5791782 F,0,54832,54833,0.5791782,0.579178 F,0,54833,54837,0.579178,0.7264658 F,0,54837,54838,0.7264658,0.7510138 F,0,54838,54842,0.7510138,0.7264658 F,0,54842,54843,0.7264658,0.884274 F,0,54843,54847,0.884274,0.901808 F,0,54847,54848,0.901808,0.884274 F,0,54848,54850,0.884274,0.901808 F,0,54850,54853,0.901808,1 F,0,54853,54854,1 F,0,54854,54860,1 F,0,54860,54864,1 F,0,54864,54868,1 F,0,54868,54869,1 F,0,54869,54873,1 F,0,54873,54879,1 F,0,54879,54883,1 F,0,54883,54884,1 F,0,54884,54888,1 F,0,54888,54889,1 F,0,54889,54893,1 F,0,54893,54897,1 F,0,54897,54898,1 F,0,54898,54902,1 F,0,54902,54904,1 F,0,54904,54905,1 F,0,54905,54909,1 F,0,54909,54910,1 F,0,54910,54913,1 F,0,54913,54918,1 F,0,54918,54919,1 F,0,54919,54922,1 F,0,54922,54924,1 F,0,54924,54927,1 F,0,54927,54929,1 F,0,54929,54931,1 F,0,54931,54934,1,0.9263562 F,0,54934,54935,0.9263562,1 F,0,54935,54939,1,0.793096 F,0,54939,54940,0.793096,1 F,0,54940,54944,1,0.793096 F,0,54944,54949,0.793096,0.8386849 F,0,54949,54950,0.8386849,0.6387945 F,0,54950,54953,0.6387945,0.8386849 F,0,54953,54955,0.8386849,0.5020275 F,0,54955,54958,0.5020275,0.6843836 F,0,54958,54959,0.6843836,0.5020275 F,0,54959,54962,0.5020275,0.6843836 F,0,54962,54964,0.6843836,0.3722739 F,0,54964,54965,0.3722739,0.5616437 F,0,54965,54970,0.5616437,0.2810959 F,0,54970,54974,0.2810959 F,0,54974,54975,0.2810959,0.463452 F,0,54975,54979,0.463452,0.2320001 F,0,54979,54982,0.2320001,0.4143559 F,0,54982,54984,0.4143559,0.2320001 F,0,54984,54987,0.2320001,0.3933148 F,0,54987,54989,0.3933148,0.2074519 F,0,54989,54992,0.2074519,0.3933148 F,0,54992,54993,0.3933148,0.2074519 F,0,54993,54995,0.2074519,0.3933148 F,0,54995,54999,0.3933148,0.2074519 F,0,54999,55003,0.2074519,0.3933148 F,0,55003,55004,0.3933148,0.210959 F,0,55004,55008,0.210959,0.2425207 F,0,55008,55009,0.2425207,0.3933148 F,0,55009,55012,0.3933148,0.2425207 F,0,55012,55017,0.2425207,0.438904 F,0,55017,55018,0.438904,0.3126575 F,0,55018,55022,0.3126575 F,0,55022,55027,0.3126575,0.6563286 F,0,55027,55028,0.6563286,0.4108495 F,0,55028,55031,0.4108495,0.6563286 F,0,55031,55034,0.6563286,0.5511234 F,0,55034,55035,0.5511234,0.7930958 F,0,55035,55039,0.7930958,0.5511234 F,0,55039,55041,0.5511234,0.9403834 F,0,55041,55044,0.9403834,0.6773698 F,0,55044,55045,0.6773698,0.9403834 F,0,55045,55049,0.9403834 F,0,55049,55050,0.9403834,0.8071232 F,0,55050,55053,0.8071232 F,0,55053,55058,0.8071232,0.9368768 F,0,55058,55062,0.9368768 F,0,55062,55065,0.9368768,1 F,0,55065,55069,1 F,0,55069,55070,1 F,0,55070,55074,1 F,0,55074,55075,1 F,0,55075,55078,1 F,0,55078,55079,1 F,0,55079,55082,1 F,0,55082,55083,1 F,0,55083,55088,1 F,0,55088,55091,1 F,0,55091,55093,1 F,0,55093,55095,1 F,0,55095,55099,1 F,0,55099,55103,1 F,0,55103,55104,1 F,0,55104,55109,1 F,0,55109,55112,1 F,0,55112,55114,1 F,0,55114,55117,1 F,0,55117,55118,1 F,0,55118,55121,1,0.9158356 F,0,55121,55122,0.9158356,0.9964932 F,0,55122,55125,0.9964932,0.9158356 F,0,55125,55128,0.9158356,0.9088219 F,0,55128,55130,0.9088219,0.7615341 F,0,55130,55133,0.7615341,0.9088219 F,0,55133,55134,0.9088219,0.7615341 F,0,55134,55137,0.7615341,0.8001096 F,0,55137,55140,0.8001096,0.6282738 F,0,55140,55142,0.6282738,0.8001096 F,0,55142,55143,0.8001096,0.5055341 F,0,55143,55146,0.5055341,0.6773698 F,0,55146,55148,0.6773698,0.5055341 F,0,55148,55151,0.5055341,0.5686575 F,0,55151,55153,0.5686575,0.4283835 F,0,55153,55155,0.4283835,0.5686575 F,0,55155,55157,0.5686575,0.4283835 F,0,55157,55160,0.4283835,0.4529315 F,0,55160,55161,0.4529315,0.3968217 F,0,55161,55164,0.3968217 F,0,55164,55165,0.3968217,0.3757808 F,0,55165,55169,0.3757808 F,0,55169,55170,0.3757808,0.3933148 F,0,55170,55173,0.3933148 F,0,55173,55174,0.3933148,0.3336986 F,0,55174,55178,0.3336986,0.3933148 F,0,55178,55179,0.3933148,0.3336986 F,0,55179,55182,0.3336986,0.3933148 F,0,55182,55184,0.3933148,0.3161644 F,0,55184,55188,0.3161644,0.4178629 F,0,55188,55189,0.4178629,0.3161644 F,0,55189,55191,0.3161644,0.4178629 F,0,55191,55194,0.4178629,0.3161644 F,0,55194,55195,0.3161644,0.4739725 F,0,55195,55199,0.4739725,0.326685 F,0,55199,55200,0.326685,0.5511232 F,0,55200,55203,0.5511232,0.326685 F,0,55203,55205,0.326685,0.5511232 F,0,55205,55208,0.5511232,0.393315 F,0,55208,55209,0.393315,0.6458081 F,0,55209,55213,0.6458081,0.5020275 F,0,55213,55218,0.5020275,0.7545204 F,0,55218,55219,0.7545204,0.5020275 F,0,55219,55222,0.5020275,0.7545204 F,0,55222,55223,0.7545204,0.6423015 F,0,55223,55227,0.6423015,0.8632327 F,0,55227,55230,0.8632327,0.814137 F,0,55230,55234,0.814137 F,0,55234,55239,0.814137,0.9859726 F,0,55239,55240,0.9859726,1 F,0,55240,55243,1 F,0,55243,55244,1 F,0,55244,55248,1 F,0,55248,55249,1 F,0,55249,55252,1 F,0,55252,55253,1 F,0,55253,55256,1 F,0,55256,55259,1 F,0,55259,55260,1 F,0,55260,55264,1 F,0,55264,55265,1 F,0,55265,55269,1 F,0,55269,55271,1 F,0,55271,55273,1 F,0,55273,55277,1 F,0,55277,55281,1,0.9614246 F,0,55281,55284,0.9614246,1 F,0,55284,55287,1,0.8246574 F,0,55287,55288,0.8246574,1 F,0,55288,55291,1,0.8246574 F,0,55291,55294,0.8246574,1 F,0,55294,55298,1,0.6598355 F,0,55298,55300,0.6598355,1 F,0,55300,55303,1,0.4879999 F,0,55303,55305,0.4879999,1 F,0,55305,55309,1,0.4879999 F,0,55309,55312,0.4879999,1 F,0,55312,55314,1,0.3442191 F,0,55314,55318,0.3442191,1 F,0,55318,55319,1,0.2214793 F,0,55319,55323,0.2214793,1 F,0,55323,55327,1,0.1583562 F,0,55327,55328,0.1583562,1 F,0,55328,55331,1,0.1583562 F,0,55331,55333,0.1583562,1 F,0,55333,55337,1,0.1443285 F,0,55337,55339,0.1443285,1 F,0,55339,55341,1,0.1443285 F,0,55341,55343,0.1443285,1 F,0,55343,55345,1,0.1443285 F,0,55345,55349,0.1443285,1 F,0,55349,55350,1,0.1443285 F,0,55350,55354,0.1443285,1 F,0,55354,55358,1,0.1758902 F,0,55358,55359,0.1758902,0.9403836 F,0,55359,55362,0.9403836,0.1758902 F,0,55362,55364,0.1758902,0.8456987 F,0,55364,55365,0.8456987,0.2390135 F,0,55365,55370,0.2390135 F,0,55370,55371,0.2390135,0.7369862 F,0,55371,55374,0.7369862,0.3407123 F,0,55374,55377,0.3407123,0.7369862 F,0,55377,55379,0.7369862,0.3407123 F,0,55379,55382,0.3407123,0.6563287 F,0,55382,55383,0.6563287,0.4739725 F,0,55383,55388,0.4739725,0.6107398 F,0,55388,55392,0.6107398 F,0,55392,55396,0.6107398,0.7229588 F,0,55396,55399,0.7229588,0.5932056 F,0,55399,55401,0.5932056,0.7229588 F,0,55401,55404,0.7229588,0.5932056 F,0,55404,55405,0.5932056,0.8386849 F,0,55405,55409,0.8386849,0.5932056 F,0,55409,55410,0.5932056,0.8386849 F,0,55410,55413,0.8386849,0.6002192 F,0,55413,55420,0.6002192,0.6423015 F,0,55420,55423,0.6423015 F,0,55423,55425,0.6423015,1 F,0,55425,55429,1,0.7475069 F,0,55429,55430,0.7475069,1 F,0,55430,55434,1,0.7475069 F,0,55434,55435,0.7475069,1 F,0,55435,55439,1,0.8983014 F,0,55439,55442,0.8983014,1 F,0,55442,55444,1 F,0,55444,55446,1 F,0,55446,55448,1 F,0,55448,55451,1 F,0,55451,55454,1 F,0,55454,55456,1 F,0,55456,55459,1 F,0,55459,55460,1 F,0,55460,55464,1 F,0,55464,55465,1 F,0,55465,55469,1,0.9684383 F,0,55469,55470,0.9684383,1 F,0,55470,55476,1 F,0,55476,55480,1,0.8421916 F,0,55480,55484,0.8421916,0.6913971 F,0,55484,55485,0.6913971,1 F,0,55485,55489,1,0.6913971 F,0,55489,55492,0.6913971,1 F,0,55492,55494,1,0.5195615 F,0,55494,55497,0.5195615,1 F,0,55497,55498,1,0.5195615 F,0,55498,55502,0.5195615,1 F,0,55502,55505,1,0.3652602 F,0,55505,55509,0.3652602,1 F,0,55509,55511,1,0.2355067 F,0,55511,55514,0.2355067,1 F,0,55514,55516,1,0.1513423 F,0,55516,55519,0.1513423,1 F,0,55519,55520,1,0.1513423 F,0,55520,55523,0.1513423,1 F,0,55523,55525,1,0.1443285 F,0,55525,55529,0.1443285,1 F,0,55529,55534,1 F,0,55534,55538,1,0.1443285 F,0,55538,55539,0.1443285,1 F,0,55539,55543,1 F,0,55543,55547,1,0.1443285 F,0,55547,55548,0.1443285,1 F,0,55548,55552,1,0.1758902 F,0,55552,55554,0.1758902,1 F,0,55554,55555,1,0.2600546 F,0,55555,55558,0.2600546,1 F,0,55558,55560,1,0.2600546 F,0,55560,55563,0.2600546,0.9088219 F,0,55563,55568,0.9088219,0.3863013 F,0,55568,55569,0.3863013,0.9088219 F,0,55569,55573,0.9088219,0.8316713 F,0,55573,55579,0.8316713,0.7720547 F,0,55579,55580,0.7720547,0.6984108 F,0,55580,55583,0.6984108 F,0,55583,55584,0.6984108,0.7720547 F,0,55584,55588,0.7720547,0.8421916 F,0,55588,55589,0.8421916,0.7510138 F,0,55589,55593,0.7510138 F,0,55593,55597,0.7510138,0.9789589 F,0,55597,55598,0.9789589,0.7475069 F,0,55598,55601,0.7475069,0.9789589 F,0,55601,55604,0.9789589,0.7475069 F,0,55604,55605,0.7475069,1 F,0,55605,55609,1,0.7475069 F,0,55609,55611,0.7475069,1 F,0,55611,55613,1,0.7720547 F,0,55613,55614,0.7720547,1 F,0,55614,55619,1,0.8386849 F,0,55619,55623,0.8386849 F,0,55623,55628,0.8386849,0.9403836 F,0,55628,55633,0.9403836,1 F,0,55633,55638,1 F,0,55638,55639,1 F,0,55639,55642,1 F,0,55642,55644,1 F,0,55644,55647,1 F,0,55647,55650,1 F,0,55650,55652,1 F,0,55652,55653,1 F,0,55653,55656,1 F,0,55656,55658,1 F,0,55658,55660,1,0.9088219 F,0,55660,55663,0.9088219,1 F,0,55663,55664,1,0.9088219 F,0,55664,55670,0.9088219,0.7825752 F,0,55670,55671,0.7825752,1 F,0,55671,55675,1 F,0,55675,55679,1,0.6563286 F,0,55679,55681,0.6563286,1 F,0,55681,55683,1,0.5406026 F,0,55683,55685,0.5406026,1 F,0,55685,55687,1,0.5406026 F,0,55687,55690,0.5406026,1 F,0,55690,55693,1,0.438904 F,0,55693,55694,0.438904,1 F,0,55694,55697,1,0.438904 F,0,55697,55700,0.438904,1 F,0,55700,55703,1,0.3757806 F,0,55703,55704,0.3757806,1 F,0,55704,55708,1,0.347726 F,0,55708,55709,0.347726,1 F,0,55709,55712,1,0.347726 F,0,55712,55714,0.347726,1 F,0,55714,55715,1,0.3442191 F,0,55715,55719,0.3442191,1 F,0,55719,55720,1,0.3442191 F,0,55720,55724,0.3442191,1 F,0,55724,55725,1,0.3442191 F,0,55725,55729,0.3442191,1 F,0,55729,55733,1,0.3687671 F,0,55733,55734,0.3687671,1 F,0,55734,55739,1,0.4424109 F,0,55739,55740,0.4424109,1 F,0,55740,55743,1,0.4424109 F,0,55743,55744,0.4424109,0.8176438 F,0,55744,55747,0.8176438,0.5511232 F,0,55747,55749,0.5511232,0.8176438 F,0,55749,55751,0.8176438,0.5511232 F,0,55751,55754,0.5511232,0.6002192 F,0,55754,55759,0.6002192,0.6773697 F,0,55759,55760,0.6773697,0.4003288 F,0,55760,55763,0.4003288,0.8281643 F,0,55763,55766,0.8281643 F,0,55766,55767,0.8281643,0.256548 F,0,55767,55771,0.256548,0.9754519 F,0,55771,55772,0.9754519,0.256548 F,0,55772,55775,0.256548,0.9754519 F,0,55775,55777,0.9754519,0.1443286 F,0,55777,55780,0.1443286,1 F,0,55780,55783,1,0.1022464 F,0,55783,55786,0.1022464,1 F,0,55786,55788,1,0.1022464 F,0,55788,55791,0.1022464,1 F,0,55791,55792,1,0.1022464 F,0,55792,55795,0.1022464,1 F,0,55795,55798,1,0.1022464 F,0,55798,55799,0.1022464,1 F,0,55799,55802,1,0.1022464 F,0,55802,55804,0.1022464,1 F,0,55804,55808,1 F,0,55808,55809,1,0.1338081 F,0,55809,55813,0.1338081,1 F,0,55813,55814,1,0.2214795 F,0,55814,55817,0.2214795,1 F,0,55817,55819,1,0.2214795 F,0,55819,55822,0.2214795,1 F,0,55822,55823,1,0.3407123 F,0,55823,55825,0.3407123,1 F,0,55825,55828,1,0.3407123 F,0,55828,55830,0.3407123,1 F,0,55830,55834,1,0.4985205 F,0,55834,55839,0.4985205,0.6387945 F,0,55839,55843,0.6387945 F,0,55843,55849,0.6387945,0.6282738 F,0,55849,55851,0.6282738,0.8001096 F,0,55851,55853,0.8001096,0.6282738 F,0,55853,55855,0.6282738,0.9368768 F,0,55855,55858,0.9368768,0.4529315 F,0,55858,55860,0.4529315,0.9368768 F,0,55860,55862,0.9368768,0.4529315 F,0,55862,55866,0.4529315,1 F,0,55866,55867,1,0.2881094 F,0,55867,55870,0.2881094,1 F,0,55870,55873,1,0.1583562 F,0,55873,55874,0.1583562,1 F,0,55874,55876,1,0.1583562 F,0,55876,55880,0.1583562,1 F,0,55880,55884,1 F,0,55884,55889,1 F,0,55889,55893,1,0.1443285 F,0,55893,55894,0.1443285,1 F,0,55894,55897,1,0.1443285 F,0,55897,55901,0.1443285,1 F,0,55901,55902,1,0.1443285 F,0,55902,55907,0.1443285,1 F,0,55907,55908,1,0.1443285 F,0,55908,55912,0.1443285,0.1864107 F,0,55912,55914,0.1864107,1 F,0,55914,55915,1,0.1864107 F,0,55915,55919,0.1864107,1 F,0,55919,55921,1,0.277589 F,0,55921,55924,0.277589,1 F,0,55924,55929,1 F,0,55929,55933,1,0.4248766 F,0,55933,55935,0.4248766,1 F,0,55935,55939,1,0.5721643 F,0,55939,55943,0.5721643,1 F,0,55943,55944,1,0.7264658 F,0,55944,55948,0.7264658 F,0,55948,55949,0.7264658,0.880767 F,0,55949,55953,0.880767,0.8702464 F,0,55953,55955,0.8702464,0.7475069 F,0,55955,55958,0.7475069,0.8702464 F,0,55958,55960,0.8702464,0.7475069 F,0,55960,55962,0.7475069,1 F,0,55962,55964,1,0.6072328 F,0,55964,55966,0.6072328,1 F,0,55966,55970,1,0.6072328 F,0,55970,55971,0.6072328,1 F,0,55971,55974,1 F,0,55974,55976,1,0.488 F,0,55976,55979,0.488,1 F,0,55979,55980,1,0.4038356 F,0,55980,55984,0.4038356,1 F,0,55984,55988,1 F,0,55988,55990,1,0.3652603 F,0,55990,55992,0.3652603,1 F,0,55992,55994,1,0.3652603 F,0,55994,55997,0.3652603,1 F,0,55997,55999,1,0.3582466 F,0,55999,56003,0.3582466,1 F,0,56003,56004,1,0.3582466 F,0,56004,56006,0.3582466,1 F,0,56006,56009,1,0.3582466 F,0,56009,56010,0.3582466,1 F,0,56010,56014,1,0.3757808 F,0,56014,56019,0.3757808,0.463452 F,0,56019,56023,0.463452 F,0,56023,56029,0.463452,0.9438902 F,0,56029,56031,0.9438902,0.5896986 F,0,56031,56034,0.5896986,0.9438902 F,0,56034,56037,0.9438902,0.7404932 F,0,56037,56039,0.7404932,0.7685478 F,0,56039,56041,0.7685478,0.7404932 F,0,56041,56043,0.7404932,0.7685478 F,0,56043,56047,0.7685478,0.9018081 F,0,56047,56048,0.9018081,0.6072327 F,0,56048,56053,0.6072327,1 F,0,56053,56058,1 F,0,56058,56059,1,0.4669588 F,0,56059,56062,0.4669588,1 F,0,56062,56064,1,0.3617534 F,0,56064,56067,0.3617534,1 F,0,56067,56069,1,0.3617534 F,0,56069,56074,0.3617534,1 F,0,56074,56079,1 F,0,56079,56083,1 F,0,56083,56084,1,0.2846028 F,0,56084,56089,0.2846028,1 F,0,56089,56090,1,0.2846028 F,0,56090,56093,0.2846028,1 F,0,56093,56095,1,0.2846028 F,0,56095,56098,0.2846028,1 F,0,56098,56099,1,0.2881094 F,0,56099,56103,0.2881094,1 F,0,56103,56105,1,0.2881094 F,0,56105,56109,0.2881094,1 F,0,56109,56111,1,0.3266849 F,0,56111,56113,0.3266849,1 F,0,56113,56117,1,0.4073424 F,0,56117,56121,0.4073424,1 F,0,56121,56124,1 F,0,56124,56127,1,0.4950136 F,0,56127,56129,0.4950136,1 F,0,56129,56131,1,0.4950136 F,0,56131,56134,0.4950136,1 F,0,56134,56139,1 F,0,56139,56144,1,0.7334793 F,0,56144,56145,0.7334793,1 F,0,56145,56149,1,0.8562191 F,0,56149,56150,0.8562191,0.8737535 F,0,56150,56153,0.8737535,0.8562191 F,0,56153,56155,0.8562191,0.7019179 F,0,56155,56158,0.7019179,0.971945 F,0,56158,56159,0.971945,0.7019179 F,0,56159,56162,0.7019179,0.971945 F,0,56162,56164,0.971945,0.533589 F,0,56164,56167,0.533589,1 F,0,56167,56169,1,0.533589 F,0,56169,56171,0.533589,1 F,0,56171,56174,1,0.4073425 F,0,56174,56177,0.4073425,1 F,0,56177,56180,1,0.2986302 F,0,56180,56181,0.2986302,1 F,0,56181,56184,1,0.2986302 F,0,56184,56189,0.2986302,0.2600548 F,0,56189,56194,0.2600548,0.2495341 F,0,56194,56198,0.2495341,1 F,0,56198,56200,1,0.2495341 F,0,56200,56203,0.2495341,1 F,0,56203,56207,1,0.2600548 F,0,56207,56210,0.2600548,1 F,0,56210,56212,1,0.3161644 F,0,56212,56213,0.3161644,1 F,0,56213,56218,1,0.4424109 F,0,56218,56222,0.4424109 F,0,56222,56226,0.4424109,0.6317809 F,0,56226,56228,0.6317809,0.7510136 F,0,56228,56230,0.7510136,0.6317809 F,0,56230,56232,0.6317809,0.7510136 F,0,56232,56235,0.7510136,0.5861915 F,0,56235,56238,0.5861915,0.8176438 F,0,56238,56241,0.8176438,0.5861915 F,0,56241,56242,0.5861915,1 F,0,56242,56245,1,0.4318904 F,0,56245,56247,0.4318904,1 F,0,56247,56249,1,0.4318904 F,0,56249,56253,0.4318904,1 F,0,56253,56256,1 F,0,56256,56258,1,0.3161643 F,0,56258,56261,0.3161643,1 F,0,56261,56262,1,0.2355067 F,0,56262,56266,0.2355067,0.1969313 F,0,56266,56268,0.1969313,1 F,0,56268,56271,1,0.1969313 F,0,56271,56273,0.1969313,1 F,0,56273,56277,1,0.1829039 F,0,56277,56278,0.1829039,1 F,0,56278,56281,1,0.1829039 F,0,56281,56283,0.1829039,1 F,0,56283,56284,1,0.1829039 F,0,56284,56288,0.1829039,1 F,0,56288,56289,1,0.1829039 F,0,56289,56292,0.1829039,1 F,0,56292,56293,1,0.1864107 F,0,56293,56298,0.1864107,1 F,0,56298,56299,1,0.2214793 F,0,56299,56302,0.2214793 F,0,56302,56304,0.2214793,1 F,0,56304,56308,1,0.2881094 F,0,56308,56309,0.2881094,1 F,0,56309,56312,1,0.2881094 F,0,56312,56314,0.2881094,1 F,0,56314,56316,1,0.4003287 F,0,56316,56319,0.4003287,1 F,0,56319,56320,1,0.4003287 F,0,56320,56323,0.4003287,1 F,0,56323,56324,1,0.5300821 F,0,56324,56328,0.5300821,1 F,0,56328,56333,1 F,0,56333,56338,1 F,0,56338,56342,1,0.81063 F,0,56342,56343,0.81063,1 F,0,56343,56346,1,0.9438902 F,0,56346,56349,0.9438902,1 F,0,56349,56350,1,0.9438902 F,0,56350,56353,0.9438902,1 F,0,56353,56357,1 F,0,56357,56361,1,0.9964932 F,0,56361,56364,0.9964932,1 F,0,56364,56368,1,0.7264658 F,0,56368,56369,0.7264658,1 F,0,56369,56372,1,0.7264658 F,0,56372,56374,0.7264658,1 F,0,56374,56376,1,0.4844931 F,0,56376,56379,0.4844931,1 F,0,56379,56381,1,0.4844931 F,0,56381,56382,0.4844931,1 F,0,56382,56387,1,0.2530412 F,0,56387,56389,0.2530412,1 F,0,56389,56392,1,0.1232875 F,0,56392,56394,0.1232875,1 F,0,56394,56398,1,0.1232875 F,0,56398,56402,0.1232875,0.9649313 F,0,56402,56403,0.9649313,0.1022464 F,0,56403,56406,0.1022464 F,0,56406,56407,0.1022464,0.9649313 F,0,56407,56411,0.9649313,0.1022464 F,0,56411,56412,0.1022464,0.8316711 F,0,56412,56416,0.8316711,0.1057535 F,0,56416,56420,0.1057535 F,0,56420,56424,0.1057535,0.1443286 F,0,56424,56429,0.1443286,0.5441095 F,0,56429,56430,0.5441095,0.2635617 F,0,56430,56433,0.2635617,0.4318904 F,0,56433,56434,0.4318904,0.2635617 F,0,56434,56438,0.2635617,0.4318904 F,0,56438,56439,0.4318904,0.4424109 F,0,56439,56443,0.4424109,0.3407123 F,0,56443,56444,0.3407123,0.4424109 F,0,56444,56446,0.4424109,0.3407123 F,0,56446,56449,0.3407123,0.6598356 F,0,56449,56450,0.6598356,0.2881094 F,0,56450,56453,0.2881094,0.8877809 F,0,56453,56454,0.8877809,0.2881094 F,0,56454,56458,0.2881094,0.8877809 F,0,56458,56462,0.8877809,0.2635615 F,0,56462,56463,0.2635615,1 F,0,56463,56466,1,0.2600546 F,0,56466,56468,0.2600546,1 F,0,56468,56471,1,0.2600546 F,0,56471,56472,0.2600546,1 F,0,56472,56477,1,0.2600546 F,0,56477,56480,0.2600546,1 F,0,56480,56481,1,0.2881094 F,0,56481,56484,0.2881094,1 F,0,56484,56489,1 F,0,56489,56490,1,0.3547395 F,0,56490,56493,0.3547395,1 F,0,56493,56494,1,0.3547395 F,0,56494,56498,0.3547395,0.4529315 F,0,56498,56499,0.4529315,1 F,0,56499,56503,1 F,0,56503,56504,1,0.5581369 F,0,56504,56508,0.5581369,1 F,0,56508,56512,1,0.6878902 F,0,56512,56514,0.6878902,1 F,0,56514,56515,1,0.6878902 F,0,56515,56519,0.6878902,1 F,0,56519,56520,1,0.8141368 F,0,56520,56523,0.8141368,1 F,0,56523,56524,1,0.8141368 F,0,56524,56528,0.8141368,0.9263561 F,0,56528,56529,0.9263561,1 F,0,56529,56532,1,0.9263561 F,0,56532,56533,0.9263561,1 F,0,56533,56538,1 F,0,56538,56539,1 F,0,56539,56542,1 F,0,56542,56545,1 F,0,56545,56547,1 F,0,56547,56551,1 F,0,56551,56552,1,0.9088219 F,0,56552,56555,0.9088219,1 F,0,56555,56557,1,0.9088219 F,0,56557,56559,0.9088219,1 F,0,56559,56563,1,0.7369862 F,0,56563,56564,0.7369862,1 F,0,56564,56570,1,0.5686575 F,0,56570,56573,0.5686575,1 F,0,56573,56575,1,0.5686575 F,0,56575,56578,0.5686575,1 F,0,56578,56580,1,0.4353972 F,0,56580,56582,0.4353972,1 F,0,56582,56586,1,0.4353972 F,0,56586,56587,0.4353972,1 F,0,56587,56591,1,0.3547397 F,0,56591,56595,0.3547397,0.8983012 F,0,56595,56596,0.8983012,0.3231781 F,0,56596,56600,0.3231781,0.744 F,0,56600,56602,0.744,0.3231781 F,0,56602,56605,0.3231781,0.744 F,0,56605,56607,0.744,0.3372055 F,0,56607,56609,0.3372055,0.579178 F,0,56609,56611,0.579178,0.3372055 F,0,56611,56612,0.3372055,0.579178 F,0,56612,56617,0.579178,0.3442192 F,0,56617,56618,0.3442192,0.4143559 F,0,56618,56622,0.4143559,0.3968219 F,0,56622,56625,0.3968219,0.2670683 F,0,56625,56627,0.2670683,0.3968219 F,0,56627,56630,0.3968219,0.1478355 F,0,56630,56632,0.1478355,0.5230684 F,0,56632,56635,0.5230684,0.1478355 F,0,56635,56639,0.1478355,0.7194521 F,0,56639,56643,0.7194521 F,0,56643,56648,0.7194521,0.8983014 F,0,56648,56653,0.8983014,1 F,0,56653,56659,1 F,0,56659,56662,1,0.1478355 F,0,56662,56663,0.1478355,1 F,0,56663,56668,1,0.1478355 F,0,56668,56669,0.1478355,1 F,0,56669,56672,1,0.1829039 F,0,56672,56674,0.1829039,1 F,0,56674,56676,1,0.1829039 F,0,56676,56679,0.1829039,1 F,0,56679,56680,1,0.2600546 F,0,56680,56683,0.2600546,1 F,0,56683,56684,1,0.3863013 F,0,56684,56689,0.3863013,1 F,0,56689,56692,1,0.5300821 F,0,56692,56693,0.5300821,1 F,0,56693,56698,1 F,0,56698,56703,1 F,0,56703,56704,1,0.6738629 F,0,56704,56708,0.6738629,1 F,0,56708,56712,1 F,0,56712,56714,1,0.8211505 F,0,56714,56717,0.8211505,1 F,0,56717,56719,1,0.8211505 F,0,56719,56722,0.8211505,1 F,0,56722,56725,1 F,0,56725,56729,1 F,0,56729,56730,1 F,0,56730,56734,1 F,0,56734,56737,1 F,0,56737,56740,1 F,0,56740,56741,1 F,0,56741,56746,1 F,0,56746,56749,1 F,0,56749,56750,1 F,0,56750,56753,1 F,0,56753,56758,1,0.9333699 F,0,56758,56759,0.9333699,1 F,0,56759,56763,1,0.9333699 F,0,56763,56767,0.9333699,1 F,0,56767,56769,1,0.7545206 F,0,56769,56771,0.7545206,1 F,0,56771,56773,1,0.5932056 F,0,56773,56778,0.5932056 F,0,56778,56782,0.5932056,0.9649313 F,0,56782,56783,0.9649313,0.4529315 F,0,56783,56786,0.4529315,0.9649313 F,0,56786,56789,0.9649313,0.4038356 F,0,56789,56792,0.4038356,0.8597258 F,0,56792,56793,0.8597258,0.4038356 F,0,56793,56797,0.4038356,0.7264658 F,0,56797,56798,0.7264658,0.393315 F,0,56798,56802,0.393315,0.7264658 F,0,56802,56803,0.7264658,0.393315 F,0,56803,56807,0.393315,0.6107396 F,0,56807,56808,0.6107396,0.3968219 F,0,56808,56812,0.3968219,0.5020273 F,0,56812,56813,0.5020273,0.4529315 F,0,56813,56817,0.4529315,0.5020273 F,0,56817,56819,0.5020273,0.4529315 F,0,56819,56821,0.4529315,0.4178629 F,0,56821,56823,0.4178629,0.603726 F,0,56823,56825,0.603726,0.4178629 F,0,56825,56827,0.4178629,0.7755617 F,0,56827,56830,0.7755617,0.3757806 F,0,56830,56832,0.3757806,0.7755617 F,0,56832,56835,0.7755617,0.3757806 F,0,56835,56839,0.3757806,0.3547395 F,0,56839,56842,0.3547395,1 F,0,56842,56844,1,0.3547395 F,0,56844,56846,0.3547395,1 F,0,56846,56848,1,0.3547395 F,0,56848,56851,0.3547395,1 F,0,56851,56852,1,0.3617534 F,0,56852,56855,0.3617534,1 F,0,56855,56860,1 F,0,56860,56864,1,0.4003287 F,0,56864,56865,0.4003287,1 F,0,56865,56868,1,0.4774792 F,0,56868,56870,0.4774792,1 F,0,56870,56874,1 F,0,56874,56878,1,0.5861915 F,0,56878,56879,0.5861915,1 F,0,56879,56882,1,0.5861915 F,0,56882,56884,0.5861915,1 F,0,56884,56885,1,0.7089314 F,0,56885,56889,0.7089314,1 F,0,56889,56890,1,0.8351781 F,0,56890,56893,0.8351781,1 F,0,56893,56894,1,0.8351781 F,0,56894,56898,0.8351781 F,0,56898,56900,0.8351781,1 F,0,56900,56902,1,0.9473972 F,0,56902,56904,0.9473972,1 F,0,56904,56908,1 F,0,56908,56909,1 F,0,56909,56912,1 F,0,56912,56914,1 F,0,56914,56917,1 F,0,56917,56919,1 F,0,56919,56921,1 F,0,56921,56926,1 F,0,56926,56928,1 F,0,56928,56932,1 F,0,56932,56935,1 F,0,56935,56938,1 F,0,56938,56940,1 F,0,56940,56942,1 F,0,56942,56944,1 F,0,56944,56948,1,0.8562192 F,0,56948,56949,0.8562192,1 F,0,56949,56952,1,0.6843837 F,0,56952,56957,0.6843837 F,0,56957,56958,0.6843837,1 F,0,56958,56962,1,0.5511234 F,0,56962,56968,0.5511234,0.4529315 F,0,56968,56972,0.4529315 F,0,56972,56973,0.4529315,0.971945 F,0,56973,56976,0.971945 F,0,56976,56979,0.971945,0.4143561 F,0,56979,56980,0.4143561,0.8562191 F,0,56980,56983,0.8562191 F,0,56983,56984,0.8562191,0.4003288 F,0,56984,56989,0.4003288 F,0,56989,56992,0.4003288,0.740493 F,0,56992,56993,0.740493,0.4038356 F,0,56993,56996,0.4038356,0.6142465 F,0,56996,56999,0.6142465,0.4038356 F,0,56999,57001,0.4038356,0.5195615 F,0,57001,57004,0.5195615,0.4248767 F,0,57004,57007,0.4248767,0.5195615 F,0,57007,57008,0.5195615,0.5055342 F,0,57008,57011,0.5055342,0.4424109 F,0,57011,57014,0.4424109,0.5055342 F,0,57014,57017,0.5055342,0.4424109 F,0,57017,57020,0.4424109,0.6423015 F,0,57020,57022,0.6423015,0.4038354 F,0,57022,57024,0.4038354,0.7895891 F,0,57024,57025,0.7895891,0.3898082 F,0,57025,57029,0.3898082,0.7895891 F,0,57029,57033,0.7895891,0.3898082 F,0,57033,57035,0.3898082,0.9824658 F,0,57035,57039,0.9824658,0.3898082 F,0,57039,57040,0.3898082,1 F,0,57040,57043,1,0.4108493 F,0,57043,57044,0.4108493,1 F,0,57044,57047,1,0.4108493 F,0,57047,57050,0.4108493,1 F,0,57050,57051,1,0.4809862 F,0,57051,57054,0.4809862,1 F,0,57054,57055,1,0.4809862 F,0,57055,57059,0.4809862,1 F,0,57059,57060,1,0.5826848 F,0,57060,57063,0.5826848 F,0,57063,57064,0.5826848,1 F,0,57064,57068,1,0.7229588 F,0,57068,57069,0.7229588,1 F,0,57069,57073,1 F,0,57073,57078,1,0.8421916 F,0,57078,57080,0.8421916,1 F,0,57080,57082,1,0.9789589 F,0,57082,57084,0.9789589,1 F,0,57084,57085,1,0.9789589 F,0,57085,57089,0.9789589,1 F,0,57089,57090,1 F,0,57090,57093,1 F,0,57093,57094,1 F,0,57094,57099,1 F,0,57099,57104,1 F,0,57104,57106,1 F,0,57106,57110,1,0.9368768 F,0,57110,57114,0.9368768 F,0,57114,57118,0.9368768,1 F,0,57118,57119,1,0.7510138 F,0,57119,57123,0.7510138,1 F,0,57123,57124,1,0.7510138 F,0,57124,57127,0.7510138,1 F,0,57127,57129,1,0.5581371 F,0,57129,57131,0.5581371,1 F,0,57131,57133,1,0.3687672 F,0,57133,57136,0.3687672,1 F,0,57136,57138,1,0.3687672 F,0,57138,57141,0.3687672,1 F,0,57141,57144,1,0.2074519 F,0,57144,57148,0.2074519,1 F,0,57148,57150,1,0.1022464 F,0,57150,57153,0.1022464,1 F,0,57153,57154,1,0.1022464 F,0,57154,57157,0.1022464,1 F,0,57157,57159,1,0.1022464 F,0,57159,57162,0.1022464,1 F,0,57162,57164,1,0.1022464 F,0,57164,57165,0.1022464,1 F,0,57165,57169,1,0.1022464 F,0,57169,57171,0.1022464,0.8597258 F,0,57171,57173,0.8597258,0.1022464 F,0,57173,57175,0.1022464,0.6984108 F,0,57175,57179,0.6984108 F,0,57179,57181,0.6984108,0.1022464 F,0,57181,57183,0.1022464,0.5265751 F,0,57183,57186,0.5265751,0.1022464 F,0,57186,57188,0.1022464,0.5265751 F,0,57188,57192,0.5265751,0.1022464 F,0,57192,57193,0.1022464,0.3933148 F,0,57193,57197,0.3933148 F,0,57197,57201,0.3933148,0.1092603 F,0,57201,57202,0.1092603,0.2951233 F,0,57202,57207,0.2951233,0.1092603 F,0,57207,57211,0.1092603,0.1408218 F,0,57211,57212,0.1408218,0.249534 F,0,57212,57215,0.249534,0.2355067 F,0,57215,57217,0.2355067,0.2074519 F,0,57217,57220,0.2074519,0.2355067 F,0,57220,57222,0.2355067,0.2074519 F,0,57222,57224,0.2074519,0.2355067 F,0,57224,57227,0.2355067,0.2951233 F,0,57227,57228,0.2951233,0.2355067 F,0,57228,57232,0.2355067,0.2951233 F,0,57232,57238,0.2951233,0.4003288 F,0,57238,57242,0.4003288,0.3126573 F,0,57242,57245,0.3126573,0.537096 F,0,57245,57246,0.537096,0.4143559 F,0,57246,57249,0.4143559,0.537096 F,0,57249,57251,0.537096,0.4143559 F,0,57251,57254,0.4143559,0.5476162 F,0,57254,57256,0.5476162,0.6633426 F,0,57256,57259,0.6633426,0.5476162 F,0,57259,57260,0.5476162,0.7825754 F,0,57260,57263,0.7825754,0.7054247 F,0,57263,57264,0.7054247,0.7825754 F,0,57264,57269,0.7825754,0.8702464 F,0,57269,57270,0.8702464,0.8702466 F,0,57270,57273,0.8702466,0.8702464 F,0,57273,57274,0.8702464,0.8702466 F,0,57274,57277,0.8702466,1 F,0,57277,57280,1,0.9158357 F,0,57280,57281,0.9158357,1 F,0,57281,57287,1,0.9333699 F,0,57287,57288,0.9333699,1 F,0,57288,57292,1,0.9333699 F,0,57292,57295,0.9333699,1 F,0,57295,57297,1,0.9333699 F,0,57297,57302,0.9333699,1 F,0,57302,57303,1,0.9228493 F,0,57303,57305,0.9228493,1 F,0,57305,57308,1,0.8877809 F,0,57308,57310,0.8877809,1 F,0,57310,57313,1,0.8877809 F,0,57313,57319,0.8877809,0.8246576 F,0,57319,57322,0.8246576,1 F,0,57322,57323,1,0.8246576 F,0,57323,57327,0.8246576,1 F,0,57327,57328,1,0.7440001 F,0,57328,57331,0.7440001,1 F,0,57331,57333,1,0.652822 F,0,57333,57335,0.652822,1 F,0,57335,57339,1,0.652822 F,0,57339,57342,0.652822,1 F,0,57342,57344,1,0.5511234 F,0,57344,57346,0.5511234,1 F,0,57346,57349,1,0.4739726 F,0,57349,57353,0.4739726,1 F,0,57353,57354,1,0.4739726 F,0,57354,57357,0.4739726,1 F,0,57357,57359,1,0.3792877 F,0,57359,57363,0.3792877,0.2881096 F,0,57363,57367,0.2881096,0.9649313 F,0,57367,57370,0.9649313,0.2881096 F,0,57370,57373,0.2881096,0.81063 F,0,57373,57374,0.81063,0.2249863 F,0,57374,57379,0.2249863,0.1864108 F,0,57379,57380,0.1864108,0.670356 F,0,57380,57385,0.670356,0.1864108 F,0,57385,57390,0.1864108,0.1653697 F,0,57390,57394,0.1653697 F,0,57394,57398,0.1653697,0.4424109 F,0,57398,57399,0.4424109,0.1583563 F,0,57399,57402,0.1583563,0.4424109 F,0,57402,57404,0.4424109,0.1583563 F,0,57404,57408,0.1583563,0.3933148 F,0,57408,57409,0.3933148,0.1583563 F,0,57409,57412,0.1583563,0.3687671 F,0,57412,57413,0.3687671,0.1758904 F,0,57413,57417,0.1758904,0.3687671 F,0,57417,57420,0.3687671,0.228493 F,0,57420,57421,0.228493,0.3687671 F,0,57421,57424,0.3687671,0.228493 F,0,57424,57426,0.228493,0.3687671 F,0,57426,57429,0.3687671,0.2986302 F,0,57429,57430,0.2986302,0.3687671 F,0,57430,57434,0.3687671 F,0,57434,57435,0.3687671,0.4038356 F,0,57435,57438,0.4038356,0.3933148 F,0,57438,57439,0.3933148,0.4038356 F,0,57439,57443,0.4038356,0.3933148 F,0,57443,57444,0.3933148,0.5195616 F,0,57444,57448,0.5195616,0.4599451 F,0,57448,57449,0.4599451,0.6107398 F,0,57449,57452,0.6107398,0.5616437 F,0,57452,57454,0.5616437,0.6107398 F,0,57454,57457,0.6107398,0.5616437 F,0,57457,57459,0.5616437,0.6843837 F,0,57459,57463,0.6843837,0.6773697 F,0,57463,57465,0.6773697,0.7299725 F,0,57465,57467,0.7299725,0.6773697 F,0,57467,57471,0.6773697,0.7299725 F,0,57471,57472,0.7299725,0.8246574 F,0,57472,57475,0.8246574,0.7510138 F,0,57475,57480,0.7510138 F,0,57480,57483,0.7510138,0.9579178 F,0,57483,57485,0.9579178,0.7545206 F,0,57485,57488,0.7545206,1 F,0,57488,57490,1,0.7545206 F,0,57490,57494,0.7545206 F,0,57494,57499,0.7545206,1 F,0,57499,57500,1,0.7369862 F,0,57500,57503,0.7369862,1 F,0,57503,57504,1,0.6808768 F,0,57504,57509,0.6808768 F,0,57509,57511,0.6808768,1 F,0,57511,57514,1 F,0,57514,57516,1,0.6002192 F,0,57516,57519,0.6002192,1 F,0,57519,57520,1,0.488 F,0,57520,57523,0.488,1 F,0,57523,57525,1,0.488 F,0,57525,57528,0.488,1 F,0,57528,57531,1,0.3898084 F,0,57531,57533,0.3898084,1 F,0,57533,57536,1 F,0,57536,57537,1,0.2951233 F,0,57537,57541,0.2951233 F,0,57541,57542,0.2951233,0.9859725 F,0,57542,57547,0.9859725,0.210959 F,0,57547,57552,0.210959,0.8316711 F,0,57552,57555,0.8316711,0.6773697 F,0,57555,57558,0.6773697,0.1408218 F,0,57558,57561,0.1408218,0.6773697 F,0,57561,57563,0.6773697,0.1022464 F,0,57563,57564,0.1022464,0.5406026 F,0,57564,57569,0.5406026,0.1022464 F,0,57569,57574,0.1022464,0.4248766 F,0,57574,57575,0.4248766,0.1022464 F,0,57575,57579,0.1022464,0.3512328 F,0,57579,57580,0.3512328,0.1022464 F,0,57580,57582,0.1022464,0.3512328 F,0,57582,57585,0.3512328,0.1022464 F,0,57585,57587,0.1022464,0.3091505 F,0,57587,57589,0.3091505,0.1022464 F,0,57589,57592,0.1022464,0.3091505 F,0,57592,57594,0.3091505,0.1197807 F,0,57594,57596,0.1197807,0.2916162 F,0,57596,57599,0.2916162,0.1618629 F,0,57599,57600,0.1618629,0.2916162 F,0,57600,57604,0.2916162,0.1618629 F,0,57604,57605,0.1618629,0.2916162 F,0,57605,57609,0.2916162,0.2320001 F,0,57609,57610,0.2320001,0.3021368 F,0,57610,57614,0.3021368 F,0,57614,57615,0.3021368,0.3231781 F,0,57615,57618,0.3231781,0.3547395 F,0,57618,57619,0.3547395,0.3231781 F,0,57619,57623,0.3231781,0.3547395 F,0,57623,57624,0.3547395,0.4073425 F,0,57624,57629,0.4073425 F,0,57629,57630,0.4073425,0.4318904 F,0,57630,57633,0.4318904,0.5370958 F,0,57633,57635,0.5370958,0.4844931 F,0,57635,57640,0.4844931,0.5300822 F,0,57640,57647,0.5300822,0.5616438 F,0,57647,57651,0.5616438,0.7860821 F,0,57651,57652,0.7860821,0.5616438 F,0,57652,57658,0.5616438,0.5721645 F,0,57658,57662,0.5721645,0.9123287 F,0,57662,57663,0.9123287,0.5721645 F,0,57663,57669,0.5721645 F,0,57669,57670,0.5721645,1 F,0,57670,57674,1,0.5721645 F,0,57674,57677,0.5721645,1 F,0,57677,57679,1,0.5651506 F,0,57679,57682,0.5651506,1 F,0,57682,57684,1,0.5651506 F,0,57684,57685,0.5651506,1 F,0,57685,57689,1,0.5300822 F,0,57689,57691,0.5300822,1 F,0,57691,57693,1,0.5300822 F,0,57693,57695,0.5300822,1 F,0,57695,57699,1,0.488 F,0,57699,57703,0.488,0.4353972 F,0,57703,57707,0.4353972,1 F,0,57707,57709,1,0.4353972 F,0,57709,57712,0.4353972,1 F,0,57712,57714,1,0.3792877 F,0,57714,57718,0.3792877,1 F,0,57718,57719,1,0.3196713 F,0,57719,57723,0.3196713 F,0,57723,57728,0.3196713,0.2460274 F,0,57728,57734,0.2460274,0.9158356 F,0,57734,57735,0.9158356,0.2004385 F,0,57735,57740,0.2004385 F,0,57740,57744,0.2004385,0.7545204 F,0,57744,57745,0.7545204,0.1653697 F,0,57745,57749,0.1653697,0.5967122 F,0,57749,57751,0.5967122,0.1548492 F,0,57751,57753,0.1548492,0.4424109 F,0,57753,57755,0.4424109,0.1548492 F,0,57755,57760,0.1548492 F,0,57760,57762,0.1548492,0.3231779 F,0,57762,57765,0.3231779,0.1618629 F,0,57765,57769,0.1618629 F,0,57769,57772,0.1618629,0.249534 F,0,57772,57774,0.249534,0.2144658 F,0,57774,57779,0.2144658,0.2249861 F,0,57779,57780,0.2249861,0.3442192 F,0,57780,57783,0.3442192,0.2249861 F,0,57783,57784,0.2249861,0.3442192 F,0,57784,57789,0.3442192,0.5160549 F,0,57789,57790,0.5160549,0.2214793 F,0,57790,57794,0.2214793,0.5160549 F,0,57794,57798,0.5160549,0.2249861 F,0,57798,57799,0.2249861,0.7089316 F,0,57799,57803,0.7089316,0.2670683 F,0,57803,57804,0.2670683,0.9018081 F,0,57804,57810,0.9018081,0.3442191 F,0,57810,57811,0.3442191,0.9018081 F,0,57811,57814,0.9018081,0.3442191 F,0,57814,57817,0.3442191,1 F,0,57817,57819,1,0.4494246 F,0,57819,57824,0.4494246,1 F,0,57824,57828,1,0.5756711 F,0,57828,57831,0.5756711,1 F,0,57831,57832,1,0.6913971 F,0,57832,57836,0.6913971,1 F,0,57836,57837,1,0.6913971 F,0,57837,57842,0.6913971,1 F,0,57842,57845,1,0.8071232 F,0,57845,57848,0.8071232,1 F,0,57848,57849,1,0.8912876 F,0,57849,57854,0.8912876,0.9368767 F,0,57854,57855,0.9368767,1 F,0,57855,57858,1,0.9368767 F,0,57858,57860,0.9368767,1 F,0,57860,57862,1,0.9614246 F,0,57862,57865,0.9614246,1 F,0,57865,57867,1,0.9614246 F,0,57867,57872,0.9614246,1 F,0,57872,57876,1,0.9614246 F,0,57876,57877,0.9614246,1 F,0,57877,57880,1,0.9614246 F,0,57880,57882,0.9614246,1 F,0,57882,57885,1,0.9228491 F,0,57885,57888,0.9228491,0.9228493 F,0,57888,57889,0.9228493,0.9228491 F,0,57889,57892,0.9228491,0.7720547 F,0,57892,57893,0.7720547,0.8456985 F,0,57893,57897,0.8456985 F,0,57897,57898,0.8456985,0.7720547 F,0,57898,57902,0.7720547,0.7299724 F,0,57902,57903,0.7299724,0.6177534 F,0,57903,57907,0.6177534,0.7299724 F,0,57907,57908,0.7299724,0.4704658 F,0,57908,57913,0.4704658,0.5861915 F,0,57913,57914,0.5861915,0.4704658 F,0,57914,57919,0.4704658,0.4529315 F,0,57919,57920,0.4529315,0.3231781 F,0,57920,57922,0.3231781,0.4529315 F,0,57922,57926,0.4529315,0.2320001 F,0,57926,57930,0.2320001,0.3021368 F,0,57930,57931,0.3021368,0.2320001 F,0,57931,57935,0.2320001,0.1688766 F,0,57935,57939,0.1688766,0.1723836 F,0,57939,57940,0.1723836,0.1688766 F,0,57940,57943,0.1688766,0.1478357 F,0,57943,57948,0.1478357 F,0,57948,57952,0.1478357,0.1443285 F,0,57952,57953,0.1443285,0.1478357 F,0,57953,57957,0.1478357,0.1443285 F,0,57957,57959,0.1443285,0.1478357 F,0,57959,57961,0.1478357,0.1443285 F,0,57961,57963,0.1443285,0.1478357 F,0,57963,57964,0.1478357,0.1443285 F,0,57964,57970,0.1443285,0.1618629 F,0,57970,57971,0.1618629,0.1443285 F,0,57971,57974,0.1443285,0.2214795 F,0,57974,57975,0.2214795,0.1478355 F,0,57975,57979,0.1478355,0.2214795 F,0,57979,57980,0.2214795,0.1478355 F,0,57980,57984,0.1478355,0.3196713 F,0,57984,57986,0.3196713,0.1934245 F,0,57986,57989,0.1934245,0.4564383 F,0,57989,57992,0.4564383,0.2916162 F,0,57992,57994,0.2916162,0.4564383 F,0,57994,57996,0.4564383,0.2916162 F,0,57996,57999,0.2916162,0.6072328 F,0,57999,58000,0.6072328,0.435397 F,0,58000,58006,0.435397,0.7510138 F,0,58006,58007,0.7510138,0.435397 F,0,58007,58011,0.435397,0.7510138 F,0,58011,58013,0.7510138,0.6072327 F,0,58013,58015,0.6072327,0.8947946 F,0,58015,58018,0.8947946,0.7790683 F,0,58018,58020,0.7790683,0.9824658 F,0,58020,58024,0.9824658,0.7790683 F,0,58024,58025,0.7790683,0.9824658 F,0,58025,58029,0.9824658,1 F,0,58029,58032,1,0.9579178 F,0,58032,58035,0.9579178,1 F,0,58035,58037,1 F,0,58037,58039,1 F,0,58039,58043,1 F,0,58043,58044,1 F,0,58044,58047,1 F,0,58047,58050,1 F,0,58050,58051,1 F,0,58051,58054,1 F,0,58054,58056,1 F,0,58056,58060,1 F,0,58060,58061,1 F,0,58061,58064,1 F,0,58064,58069,1 F,0,58069,58070,1,0.9859726 F,0,58070,58073,0.9859726,1 F,0,58073,58076,1,0.929863 F,0,58076,58080,0.929863 F,0,58080,58084,0.929863,1 F,0,58084,58085,1,0.8702466 F,0,58085,58088,0.8702466,1 F,0,58088,58090,1,0.8001096 F,0,58090,58095,0.8001096,1 F,0,58095,58097,1,0.8001096 F,0,58097,58100,0.8001096,1 F,0,58100,58103,1,0.7194521 F,0,58103,58105,0.7194521,1 F,0,58105,58108,1,0.6142465 F,0,58108,58110,0.6142465,0.9158356 F,0,58110,58113,0.9158356,0.6142465 F,0,58113,58114,0.6142465,0.7790683 F,0,58114,58119,0.7790683,0.5300822 F,0,58119,58123,0.5300822,0.4494247 F,0,58123,58124,0.4494247,0.6493149 F,0,58124,58128,0.6493149,0.4494247 F,0,58128,58132,0.4494247,0.5511232 F,0,58132,58134,0.5511232,0.4073425 F,0,58134,58137,0.4073425,0.5511232 F,0,58137,58139,0.5511232,0.3827945 F,0,58139,58143,0.3827945 F,0,58143,58147,0.3827945,0.4564382 F,0,58147,58149,0.4564382,0.3792877 F,0,58149,58151,0.3792877,0.4564382 F,0,58151,58154,0.4564382,0.3792877 F,0,58154,58155,0.3792877,0.4494246 F,0,58155,58159,0.4494246,0.3792877 F,0,58159,58160,0.3792877,0.4494246 F,0,58160,58164,0.4494246 F,0,58164,58165,0.4494246,0.3968219 F,0,58165,58169,0.3968219,0.4494246 F,0,58169,58171,0.4494246,0.4424109 F,0,58171,58173,0.4424109,0.463452 F,0,58173,58175,0.463452,0.4424109 F,0,58175,58178,0.4424109,0.5125479 F,0,58178,58179,0.5125479,0.5125481 F,0,58179,58182,0.5125481,0.5125479 F,0,58182,58186,0.5125479,0.6212604 F,0,58186,58187,0.6212604,0.5686574 F,0,58187,58191,0.5686574,0.6212604 F,0,58191,58192,0.6212604,0.5686574 F,0,58192,58195,0.5686574,0.7334794 F,0,58195,58197,0.7334794,0.6458081 F,0,58197,58201,0.6458081,0.8316713 F,0,58201,58205,0.8316713,0.7124382 F,0,58205,58206,0.7124382,0.8316713 F,0,58206,58210,0.8316713,0.7825752 F,0,58210,58211,0.7825752,0.9193425 F,0,58211,58214,0.9193425,0.7825752 F,0,58214,58217,0.7825752,0.9894794 F,0,58217,58218,0.9894794,0.8492053 F,0,58218,58222,0.8492053,0.9894794 F,0,58222,58223,0.9894794,0.8492053 F,0,58223,58227,0.8492053,1 F,0,58227,58228,1,0.901808 F,0,58228,58232,0.901808,1 F,0,58232,58236,1 F,0,58236,58237,1,0.9333698 F,0,58237,58242,0.9333698,1 F,0,58242,58243,1,0.9438902 F,0,58243,58248,0.9438902,1 F,0,58248,58251,1,0.9438902 F,0,58251,58252,0.9438902,1 F,0,58252,58256,1,0.9438902 F,0,58256,58258,0.9438902,1 F,0,58258,58260,1,0.9403834 F,0,58260,58262,0.9403834,1 F,0,58262,58264,1,0.9403834 F,0,58264,58268,0.9403834,1 F,0,58268,58275,1,0.9368768 F,0,58275,58279,0.9368768,0.8562191 F,0,58279,58280,0.8562191,0.8316713 F,0,58280,58283,0.8316713,0.7790683 F,0,58283,58285,0.7790683,0.8316713 F,0,58285,58289,0.8316713,0.7790683 F,0,58289,58290,0.7790683,0.7440001 F,0,58290,58292,0.7440001,0.7019177 F,0,58292,58295,0.7019177,0.6423015 F,0,58295,58296,0.6423015,0.7019177 F,0,58296,58300,0.7019177,0.6423015 F,0,58300,58304,0.6423015,0.5476164 F,0,58304,58307,0.5476164,0.5967122 F,0,58307,58309,0.5967122,0.5476164 F,0,58309,58310,0.5476164,0.5967122 F,0,58310,58314,0.5967122,0.5686574 F,0,58314,58315,0.5686574,0.488 F,0,58315,58318,0.488,0.5686574 F,0,58318,58320,0.5686574,0.4564383 F,0,58320,58323,0.4564383,0.5581369 F,0,58323,58324,0.5581369,0.4564383 F,0,58324,58328,0.4564383,0.5581369 F,0,58328,58330,0.5581369,0.4389041 F,0,58330,58331,0.4389041,0.5581369 F,0,58331,58335,0.5581369,0.4389041 F,0,58335,58340,0.4389041 F,0,58340,58341,0.4389041,0.5651504 F,0,58341,58345,0.5651504,0.6002191 F,0,58345,58347,0.6002191,0.4389041 F,0,58347,58349,0.4389041,0.6002191 F,0,58349,58351,0.6002191,0.4669589 F,0,58351,58354,0.4669589,0.6633424 F,0,58354,58355,0.6633424,0.4669589 F,0,58355,58359,0.4669589,0.6633424 F,0,58359,58361,0.6633424,0.537096 F,0,58361,58364,0.537096,0.7475069 F,0,58364,58368,0.7475069,0.6247671 F,0,58368,58372,0.6247671 F,0,58372,58373,0.6247671,0.8351781 F,0,58373,58378,0.8351781,0.7580273 F,0,58378,58379,0.7580273,0.9228491 F,0,58379,58382,0.9228491 F,0,58382,58384,0.9228491,0.884274 F,0,58384,58388,0.884274,0.9754519 F,0,58388,58389,0.9754519,0.884274 F,0,58389,58392,0.884274,1 F,0,58392,58393,1,0.9859726 F,0,58393,58395,0.9859726,1 F,0,58395,58399,1 F,0,58399,58400,1 F,0,58400,58404,1 F,0,58404,58405,1 F,0,58405,58408,1 F,0,58408,58409,1 F,0,58409,58413,1 F,0,58413,58415,1 F,0,58415,58418,1,0.9894794 F,0,58418,58420,0.9894794,1 F,0,58420,58423,1,0.9368767 F,0,58423,58425,0.9368767,1 F,0,58425,58427,1,0.9368767 F,0,58427,58430,0.9368767,1 F,0,58430,58431,1,0.8597258 F,0,58431,58434,0.8597258,1 F,0,58434,58438,1,0.8597258 F,0,58438,58439,0.8597258,1 F,0,58439,58442,1,0.744 F,0,58442,58444,0.744,1 F,0,58444,58445,1,0.744 F,0,58445,58449,0.744,1 F,0,58449,58450,1,0.624767 F,0,58450,58455,0.624767,1 F,0,58455,58458,1,0.5020273 F,0,58458,58462,0.5020273,0.9929863 F,0,58462,58465,0.9929863,0.3863013 F,0,58465,58467,0.3863013,0.9929863 F,0,58467,58471,0.9929863,0.3091505 F,0,58471,58473,0.3091505,0.8983014 F,0,58473,58477,0.8983014,0.3091505 F,0,58477,58481,0.3091505,0.7966028 F,0,58481,58485,0.7966028,0.2670683 F,0,58485,58486,0.2670683,0.7966028 F,0,58486,58490,0.7966028,0.2460272 F,0,58490,58493,0.2460272,0.6563287 F,0,58493,58494,0.6563287,0.2460272 F,0,58494,58498,0.2460272,0.533589 F,0,58498,58503,0.533589,0.2530411 F,0,58503,58505,0.2530411,0.533589 F,0,58505,58508,0.533589,0.2530411 F,0,58508,58510,0.2530411,0.4283836 F,0,58510,58513,0.4283836,0.2881094 F,0,58513,58515,0.2881094,0.3722739 F,0,58515,58519,0.3722739,0.3512328 F,0,58519,58521,0.3512328,0.3722739 F,0,58521,58522,0.3722739,0.3512328 F,0,58522,58526,0.3512328,0.3407123 F,0,58526,58528,0.3407123,0.4564382 F,0,58528,58531,0.4564382,0.3407123 F,0,58531,58532,0.3407123,0.4564382 F,0,58532,58537,0.4564382,0.3336986 F,0,58537,58538,0.3336986,0.579178 F,0,58538,58543,0.579178,0.3372055 F,0,58543,58547,0.3372055,0.7229588 F,0,58547,58548,0.7229588,0.3372055 F,0,58548,58552,0.3372055,0.8456985 F,0,58552,58553,0.8456985,0.3722739 F,0,58553,58555,0.3722739,0.8456985 F,0,58555,58559,0.8456985,0.463452 F,0,58559,58563,0.463452 F,0,58563,58569,0.463452,0.6177534 F,0,58569,58573,0.6177534,0.7966028 F,0,58573,58574,0.7966028,1 F,0,58574,58578,1 F,0,58578,58579,1,0.7966028 F,0,58579,58583,0.7966028,0.9719452 F,0,58583,58588,0.9719452,1 F,0,58588,58590,1 F,0,58590,58592,1 F,0,58592,58594,1 F,0,58594,58595,1 F,0,58595,58599,1 F,0,58599,58600,1 F,0,58600,58604,1 F,0,58604,58605,1 F,0,58605,58609,1 F,0,58609,58610,1 F,0,58610,58614,1 F,0,58614,58620,1 F,0,58620,58621,1 F,0,58621,58624,1 F,0,58624,58625,1 F,0,58625,58629,1 F,0,58629,58632,1,0.8737534 F,0,58632,58637,0.8737534,1 F,0,58637,58638,1,0.8737534 F,0,58638,58642,0.8737534,1 F,0,58642,58644,1,0.7089314 F,0,58644,58647,0.7089314,1 F,0,58647,58648,1,0.5370958 F,0,58648,58653,0.5370958,1 F,0,58653,58658,1 F,0,58658,58659,1,0.3863013 F,0,58659,58663,0.3863013,1 F,0,58663,58664,1,0.3863013 F,0,58664,58668,0.3863013,0.2670683 F,0,58668,58669,0.2670683,1 F,0,58669,58673,1 F,0,58673,58679,1,0.9964932 F,0,58679,58683,0.9964932,0.8947946 F,0,58683,58688,0.8947946,0.1864107 F,0,58688,58690,0.1864107,0.8947946 F,0,58690,58693,0.8947946,0.1864107 F,0,58693,58694,0.1864107,0.7825754 F,0,58694,58697,0.7825754,0.1864107 F,0,58697,58699,0.1864107,0.6843837 F,0,58699,58702,0.6843837,0.1864107 F,0,58702,58705,0.1864107,0.6843837 F,0,58705,58709,0.6843837,0.2179724 F,0,58709,58710,0.2179724,0.6072328 F,0,58710,58713,0.6072328,0.2179724 F,0,58713,58714,0.2179724,0.6072328 F,0,58714,58718,0.6072328,0.2881094 F,0,58718,58720,0.2881094,0.5581371 F,0,58720,58723,0.5581371,0.3933148 F,0,58723,58725,0.3933148,0.5265753 F,0,58725,58729,0.5265753,0.3933148 F,0,58729,58730,0.3933148,0.5195616 F,0,58730,58733,0.5195616,0.5020273 F,0,58733,58737,0.5020273,0.5195616 F,0,58737,58738,0.5195616,0.5020273 F,0,58738,58741,0.5020273,0.5195616 F,0,58741,58743,0.5195616,0.6142465 F,0,58743,58746,0.6142465,0.5265753 F,0,58746,58748,0.5265753,0.7334793 F,0,58748,58752,0.7334793,0.5265753 F,0,58752,58755,0.5265753,0.5616438 F,0,58755,58757,0.5616438,0.8316711 F,0,58757,58760,0.8316711,0.5616438 F,0,58760,58762,0.5616438,0.8316711 F,0,58762,58765,0.8316711,0.9088219 F,0,58765,58767,0.9088219,0.6247671 F,0,58767,58769,0.6247671,0.9088219 F,0,58769,58771,0.9088219,0.7159451 F,0,58771,58774,0.7159451,0.950904 F,0,58774,58778,0.950904,0.8351782 F,0,58778,58780,0.8351782,0.971945 F,0,58780,58783,0.971945,0.8351782 F,0,58783,58784,0.8351782,0.971945 F,0,58784,58788,0.971945,0.9579179 F,0,58788,58789,0.9579179,0.9754519 F,0,58789,58793,0.9754519,0.9579179 F,0,58793,58794,0.9579179,0.9754519 F,0,58794,58796,0.9754519,1 F,0,58796,58798,1,0.971945 F,0,58798,58802,0.971945,1 F,0,58802,58807,1 F,0,58807,58808,1,0.9368767 F,0,58808,58814,0.9368767,1 F,0,58814,58815,1,0.8702464 F,0,58815,58819,0.8702464,0.7720546 F,0,58819,58820,0.7720546,1 F,0,58820,58824,1 F,0,58824,58828,1,0.670356 F,0,58828,58829,0.670356,1 F,0,58829,58832,1,0.670356 F,0,58832,58834,0.670356,1 F,0,58834,58837,1,0.5721643 F,0,58837,58839,0.5721643,1 F,0,58839,58843,1,0.4774792 F,0,58843,58844,0.4774792,1 F,0,58844,58848,1,0.4774792 F,0,58848,58850,0.4774792,1 F,0,58850,58852,1,0.4003287 F,0,58852,58855,0.4003287,1 F,0,58855,58856,1,0.4003287 F,0,58856,58860,0.4003287,1 F,0,58860,58864,1,0.3582464 F,0,58864,58865,0.3582464,1 F,0,58865,58868,1,0.3266849 F,0,58868,58871,0.3266849,0.9684384 F,0,58871,58873,0.9684384,0.3266849 F,0,58873,58877,0.3266849,0.9684384 F,0,58877,58878,0.9684384,0.3196712 F,0,58878,58882,0.3196712 F,0,58882,58883,0.3196712,0.8351782 F,0,58883,58885,0.8351782,0.3196712 F,0,58885,58888,0.3196712,0.6878903 F,0,58888,58891,0.6878903,0.3266849 F,0,58891,58892,0.3266849,0.6878903 F,0,58892,58894,0.6878903,0.3266849 F,0,58894,58898,0.3266849,0.5406027 F,0,58898,58903,0.5406027,0.3617534 F,0,58903,58904,0.3617534,0.4248767 F,0,58904,58909,0.4248767,0.4073424 F,0,58909,58912,0.4073424,0.3056439 F,0,58912,58914,0.3056439,0.4704657 F,0,58914,58918,0.4704657,0.3056439 F,0,58918,58919,0.3056439,0.4704657 F,0,58919,58922,0.4704657,0.2179726 F,0,58922,58923,0.2179726,0.5406026 F,0,58923,58928,0.5406026,0.1618629 F,0,58928,58932,0.1618629,0.6072327 F,0,58932,58933,0.6072327,0.1618629 F,0,58933,58937,0.1618629,0.6072327 F,0,58937,58938,0.6072327,0.1408218 F,0,58938,58942,0.1408218,0.6738629 F,0,58942,58943,0.6738629,0.1408218 F,0,58943,58945,0.1408218,0.7264658 F,0,58945,58950,0.7264658,0.1338081 F,0,58950,58954,0.1338081,0.1373151 F,0,58954,58955,0.1373151,0.7685478 F,0,58955,58959,0.7685478,0.1373151 F,0,58959,58963,0.1373151,0.8071232 F,0,58963,58965,0.8071232,0.1548492 F,0,58965,58967,0.1548492,0.8071232 F,0,58967,58971,0.8071232,0.1899179 F,0,58971,58973,0.1899179,0.8386849 F,0,58973,58975,0.8386849,0.2530412 F,0,58975,58978,0.2530412,0.8492053 F,0,58978,58981,0.8492053,0.2530412 F,0,58981,58982,0.2530412,0.8492053 F,0,58982,58985,0.8492053,0.3301916 F,0,58985,58995,0.3301916,0.4143561 F,0,58995,58996,0.4143561,0.8527123 F,0,58996,59000,0.8527123,0.8386849 F,0,59000,59001,0.8386849,0.5055342 F,0,59001,59005,0.5055342,0.8386849 F,0,59005,59007,0.8386849,0.5546301 F,0,59007,59011,0.5546301,0.8036163 F,0,59011,59012,0.8036163,0.5546301 F,0,59012,59014,0.5546301,0.8036163 F,0,59014,59017,0.8036163,0.6072328 F,0,59017,59019,0.6072328,0.7510136 F,0,59019,59022,0.7510136,0.6387945 F,0,59022,59024,0.6387945,0.6913971 F,0,59024,59027,0.6913971,0.6387945 F,0,59027,59028,0.6387945,0.6913971 F,0,59028,59032,0.6913971,0.6177533 F,0,59032,59033,0.6177533,0.6563287 F,0,59033,59037,0.6563287,0.6177533 F,0,59037,59038,0.6177533,0.6598356 F,0,59038,59042,0.6598356,0.5546301 F,0,59042,59043,0.5546301,0.6598356 F,0,59043,59045,0.6598356,0.5546301 F,0,59045,59049,0.5546301,0.6598356 F,0,59049,59050,0.6598356,0.5055341 F,0,59050,59053,0.5055341,0.6563287 F,0,59053,59055,0.6563287,0.4669588 F,0,59055,59058,0.4669588,0.6563287 F,0,59058,59060,0.6563287,0.4669588 F,0,59060,59064,0.4669588,0.6387945 F,0,59064,59069,0.6387945,0.5967124 F,0,59069,59070,0.5967124,0.435397 F,0,59070,59074,0.435397,0.5967124 F,0,59074,59080,0.5967124,0.4318904 F,0,59080,59083,0.4318904,0.5546301 F,0,59083,59087,0.5546301,0.435397 F,0,59087,59088,0.435397,0.491507 F,0,59088,59091,0.491507,0.435397 F,0,59091,59093,0.435397,0.3968219 F,0,59093,59097,0.3968219,0.463452 F,0,59097,59101,0.463452,0.3968219 F,0,59101,59108,0.3968219,0.5160547 F,0,59108,59112,0.5160547,0.5861915 F,0,59112,59116,0.5861915 F,0,59116,59121,0.5861915,0.6423013 F,0,59121,59124,0.6423013 F,0,59124,59126,0.6423013,0.1618629 F,0,59126,59129,0.1618629,0.7124382 F,0,59129,59132,0.7124382 F,0,59132,59133,0.7124382,0.1092603 F,0,59133,59138,0.1092603,0.7685478 F,0,59138,59139,0.7685478,0.1022464 F,0,59139,59143,0.1022464,0.8071232 F,0,59143,59146,0.8071232,0.1022464 F,0,59146,59148,0.1022464,0.8071232 F,0,59148,59151,0.8071232,0.1022464 F,0,59151,59153,0.1022464,0.8316711 F,0,59153,59156,0.8316711 F,0,59156,59157,0.8316711,0.1022464 F,0,59157,59160,0.1022464,0.8421916 F,0,59160,59162,0.8421916,0.1197807 F,0,59162,59163,0.1197807,0.8421916 F,0,59163,59168,0.8421916,0.1197807 F,0,59168,59169,0.1197807,0.8456985 F,0,59169,59174,0.8456985 F,0,59174,59175,0.8456985,0.1758904 F,0,59175,59179,0.1758904,0.8456985 F,0,59179,59180,0.8456985,0.2530412 F,0,59180,59183,0.2530412,0.8351781 F,0,59183,59187,0.8351781,0.2530412 F,0,59187,59189,0.2530412,0.8001094 F,0,59189,59192,0.8001094,0.3512328 F,0,59192,59193,0.3512328,0.8001094 F,0,59193,59197,0.8001094,0.4564383 F,0,59197,59198,0.4564383,0.7685478 F,0,59198,59203,0.7685478,0.5441095 F,0,59203,59208,0.5441095,0.7264658 F,0,59208,59209,0.7264658,0.5441095 F,0,59209,59212,0.5441095,0.7264658 F,0,59212,59213,0.7264658,0.6177534 F,0,59213,59215,0.6177534,0.6808766 F,0,59215,59219,0.6808766,0.6598356 F,0,59219,59220,0.6598356,0.6423013 F,0,59220,59224,0.6423013,0.6598356 F,0,59224,59229,0.6598356,0.6949041 F,0,59229,59233,0.6949041,0.6107396 F,0,59233,59235,0.6107396,0.7089316 F,0,59235,59239,0.7089316 F,0,59239,59243,0.7089316,0.579178 F,0,59243,59244,0.579178,0.7089316 F,0,59244,59248,0.7089316,0.5581369 F,0,59248,59251,0.5581369,0.7089316 F,0,59251,59253,0.7089316,0.5476162 F,0,59253,59256,0.5476162,0.7089316 F,0,59256,59259,0.7089316,0.5476162 F,0,59259,59262,0.5476162,0.6878903 F,0,59262,59265,0.6878903,0.5441095 F,0,59265,59268,0.5441095,0.6352876 F,0,59268,59271,0.6352876,0.5441095 F,0,59271,59273,0.5441095,0.6352876 F,0,59273,59277,0.6352876,0.5441095 F,0,59277,59278,0.5441095,0.537096 F,0,59278,59282,0.537096,0.5511232 F,0,59282,59283,0.5511232,0.4389041 F,0,59283,59287,0.4389041,0.5511232 F,0,59287,59289,0.5511232,0.4389041 F,0,59289,59294,0.4389041,0.326685 F,0,59294,59298,0.326685,0.5826848 F,0,59298,59299,0.5826848,0.1969315 F,0,59299,59303,0.1969315,0.6352876 F,0,59303,59305,0.6352876,0.1969315 F,0,59305,59309,0.1969315,0.7089314 F,0,59309,59310,0.7089314,0.1022464 F,0,59310,59313,0.1022464,0.7089314 F,0,59313,59314,0.7089314,0.1022464 F,0,59314,59317,0.1022464,0.8001094 F,0,59317,59320,0.8001094,0.1022464 F,0,59320,59322,0.1022464,0.8001094 F,0,59322,59325,0.8001094,0.1022464 F,0,59325,59327,0.1022464,0.9088219 F,0,59327,59330,0.9088219,0.1022464 F,0,59330,59331,0.1022464,0.9088219 F,0,59331,59336,0.9088219,1 F,0,59336,59337,1,0.1022464 F,0,59337,59340,0.1022464,1 F,0,59340,59342,1,0.1022464 F,0,59342,59347,0.1022464 F,0,59347,59353,0.1022464,1 F,0,59353,59355,1,0.1162741 F,0,59355,59358,0.1162741,1 F,0,59358,59360,1,0.1162741 F,0,59360,59363,0.1162741,1 F,0,59363,59364,1,0.1688768 F,0,59364,59368,0.1688768,1 F,0,59368,59370,1,0.2320001 F,0,59370,59372,0.2320001,1 F,0,59372,59374,1,0.2320001 F,0,59374,59378,0.2320001,1 F,0,59378,59379,1,0.326685 F,0,59379,59383,0.326685,1 F,0,59383,59386,1 F,0,59386,59387,1,0.4248767 F,0,59387,59391,0.4248767,0.9263561 F,0,59391,59392,0.9263561,0.4248767 F,0,59392,59395,0.4248767,0.9263561 F,0,59395,59396,0.9263561,0.533589 F,0,59396,59399,0.533589,0.8316711 F,0,59399,59402,0.8316711,0.6107398 F,0,59402,59403,0.6107398,0.7194519 F,0,59403,59407,0.7194519,0.6107398 F,0,59407,59410,0.6107398,0.7194519 F,0,59410,59412,0.7194519,0.6668494 F,0,59412,59413,0.6668494,0.6072327 F,0,59413,59418,0.6072327,0.7019179 F,0,59418,59422,0.7019179,0.4985203 F,0,59422,59423,0.4985203,0.7019179 F,0,59423,59428,0.7019179,0.7194521 F,0,59428,59432,0.7194521,0.4108493 F,0,59432,59434,0.4108493,0.722959 F,0,59434,59435,0.722959,0.3617534 F,0,59435,59441,0.3617534,0.722959 F,0,59441,59445,0.722959 F,0,59445,59450,0.722959,0.3266849 F,0,59450,59451,0.3266849,0.7089316 F,0,59451,59453,0.7089316,0.3196712 F,0,59453,59455,0.3196712,0.7089316 F,0,59455,59459,0.7089316,0.3196712 F,0,59459,59460,0.3196712,0.6598356 F,0,59460,59463,0.6598356,0.3196712 F,0,59463,59465,0.3196712,0.5861917 F,0,59465,59467,0.5861917,0.3301916 F,0,59467,59470,0.3301916,0.5861917 F,0,59470,59471,0.5861917,0.3301916 F,0,59471,59475,0.3301916,0.4599452 F,0,59475,59477,0.4599452,0.3792876 F,0,59477,59481,0.3792876,0.3372055 F,0,59481,59482,0.3372055,0.3792876 F,0,59482,59486,0.3792876,0.3372055 F,0,59486,59491,0.3372055,0.2004385 F,0,59491,59494,0.2004385,0.5616437 F,0,59494,59495,0.5616437,0.1022464 F,0,59495,59499,0.1022464,0.6984108 F,0,59499,59501,0.6984108,0.1022464 F,0,59501,59503,0.1022464,0.6984108 F,0,59503,59505,0.6984108,0.1022464 F,0,59505,59509,0.1022464,0.8176438 F,0,59509,59510,0.8176438,0.1022464 F,0,59510,59512,0.1022464,0.8176438 F,0,59512,59517,0.8176438,0.1022464 F,0,59517,59521,0.1022464,0.9333698 F,0,59521,59522,0.9333698,0.1022464 F,0,59522,59526,0.1022464,1 F,0,59526,59527,1,0.1022464 F,0,59527,59531,0.1022464,1 F,0,59531,59535,1,0.1022464 F,0,59535,59540,0.1022464 F,0,59540,59541,0.1022464,1 F,0,59541,59544,1,0.112767 F,0,59544,59545,0.112767,1 F,0,59545,59549,1 F,0,59549,59550,1,0.1583563 F,0,59550,59553,0.1583563,1 F,0,59553,59554,1,0.1583563 F,0,59554,59558,0.1583563,1 F,0,59558,59560,1,0.228493 F,0,59560,59562,0.228493,1 F,0,59562,59565,1,0.228493 F,0,59565,59567,0.228493,1 F,0,59567,59570,1,0.3091507 F,0,59570,59573,0.3091507,1 F,0,59573,59575,1,0.417863 F,0,59575,59578,0.417863,1 F,0,59578,59581,1,0.491507 F,0,59581,59582,0.491507,1 F,0,59582,59585,1,0.9579178 F,0,59585,59586,0.9579178,0.491507 F,0,59586,59591,0.491507,0.5861917 F,0,59591,59594,0.5861917,0.8527123 F,0,59594,59597,0.8527123,0.5861917 F,0,59597,59598,0.5861917,0.8527123 F,0,59598,59602,0.8527123,0.652822 F,0,59602,59604,0.652822,0.7369862 F,0,59604,59608,0.7369862,0.7124383 F,0,59608,59609,0.7124383,0.6107396 F,0,59609,59613,0.6107396 F,0,59613,59614,0.6107396,0.7545206 F,0,59614,59619,0.7545206,0.4915068 F,0,59619,59620,0.4915068,0.7545206 F,0,59620,59624,0.7545206,0.3898082 F,0,59624,59625,0.3898082,0.7790685 F,0,59625,59628,0.7790685,0.3898082 F,0,59628,59631,0.3898082,0.7825754 F,0,59631,59632,0.7825754,0.3056438 F,0,59632,59635,0.3056438,0.7825754 F,0,59635,59638,0.7825754,0.3056438 F,0,59638,59640,0.3056438,0.7825754 F,0,59640,59642,0.7825754,0.2530411 F,0,59642,59647,0.2530411,0.768548 F,0,59647,59652,0.768548 F,0,59652,59657,0.768548,0.7054248 F,0,59657,59658,0.7054248,0.2355067 F,0,59658,59662,0.2355067 F,0,59662,59663,0.2355067,0.6282739 F,0,59663,59665,0.6282739,0.2355067 F,0,59665,59668,0.2355067,0.6282739 F,0,59668,59671,0.6282739,0.2355067 F,0,59671,59673,0.2355067,0.5230684 F,0,59673,59675,0.5230684,0.2635615 F,0,59675,59679,0.2635615,0.417863 F,0,59679,59683,0.417863,0.3266849 F,0,59683,59685,0.3266849,0.3336986 F,0,59685,59689,0.3336986,0.3898082 F,0,59689,59690,0.3898082,0.3336986 F,0,59690,59693,0.3336986,0.3898082 F,0,59693,59695,0.3898082,0.2810959 F,0,59695,59698,0.2810959,0.4704657 F,0,59698,59700,0.4704657,0.2810959 F,0,59700,59702,0.2810959,0.4704657 F,0,59702,59705,0.4704657,0.2495341 F,0,59705,59708,0.2495341,0.5476162 F,0,59708,59713,0.5476162,0.2320001 F,0,59713,59714,0.2320001,0.624767 F,0,59714,59718,0.624767,0.2320001 F,0,59718,59720,0.2320001,0.6843836 F,0,59720,59722,0.6843836,0.2320001 F,0,59722,59724,0.2320001,0.6843836 F,0,59724,59728,0.6843836,0.740493 F,0,59728,59729,0.740493,0.2320001 F,0,59729,59732,0.2320001,0.740493 F,0,59732,59733,0.740493,0.2390137 F,0,59733,59738,0.2390137,0.7755615 F,0,59738,59740,0.7755615,0.2390137 F,0,59740,59742,0.2390137,0.7755615 F,0,59742,59746,0.7755615,0.7860821 F,0,59746,59747,0.7860821,0.2670685 F,0,59747,59751,0.2670685,0.7895889 F,0,59751,59753,0.7895889,0.3056439 F,0,59753,59755,0.3056439,0.7895889 F,0,59755,59758,0.7895889,0.3056439 F,0,59758,59759,0.3056439,0.7895889 F,0,59759,59763,0.7895889 F,0,59763,59765,0.7895889,0.3477261 F,0,59765,59769,0.3477261,0.7650411 F,0,59769,59770,0.7650411,0.393315 F,0,59770,59774,0.393315,0.6984108 F,0,59774,59775,0.6984108,0.393315 F,0,59775,59778,0.393315,0.6984108 F,0,59778,59780,0.6984108,0.4424109 F,0,59780,59782,0.4424109,0.6212602 F,0,59782,59788,0.6212602,0.4774794 F,0,59788,59789,0.4774794,0.6212602 F,0,59789,59792,0.6212602,0.4774794 F,0,59792,59793,0.4774794,0.5160547 F,0,59793,59797,0.5160547,0.5160549 F,0,59797,59800,0.5160549,0.4108493 F,0,59800,59805,0.4108493,0.3196712 F,0,59805,59806,0.3196712,0.5441095 F,0,59806,59811,0.5441095,0.5616438 F,0,59811,59815,0.5616438,0.2390135 F,0,59815,59816,0.2390135,0.5616438 F,0,59816,59821,0.5616438,0.1969313 F,0,59821,59822,0.1969313,0.5721645 F,0,59822,59825,0.5721645,0.1969313 F,0,59825,59827,0.1969313,0.5721645 F,0,59827,59829,0.5721645,0.1758902 F,0,59829,59832,0.1758902,0.5721645 F,0,59832,59834,0.5721645,0.1758902 F,0,59834,59838,0.1758902,0.5686575 F,0,59838,59839,0.5686575,0.1723834 F,0,59839,59843,0.1723834,0.5686575 F,0,59843,59848,0.5686575,0.1723834 F,0,59848,59849,0.1723834,0.5406027 F,0,59849,59853,0.5406027,0.1934245 F,0,59853,59854,0.1934245,0.4739726 F,0,59854,59858,0.4739726,0.1934245 F,0,59858,59859,0.1934245,0.4739726 F,0,59859,59862,0.4739726,0.2425206 F,0,59862,59864,0.2425206,0.3863014 F,0,59864,59868,0.3863014,0.2425206 F,0,59868,59871,0.2425206,0.2600548 F,0,59871,59872,0.2600548,0.2986301 F,0,59872,59875,0.2986301,0.1443286 F,0,59875,59880,0.1443286 F,0,59880,59885,0.1443286,0.4213698 F,0,59885,59887,0.4213698,0.1022464 F,0,59887,59890,0.1022464,0.4213698 F,0,59890,59893,0.4213698,0.1022464 F,0,59893,59894,0.1022464,0.4704657 F,0,59894,59898,0.4704657,0.1022464 F,0,59898,59901,0.1022464,0.5020273 F,0,59901,59904,0.5020273,0.1022464 F,0,59904,59908,0.1022464,0.5020273 F,0,59908,59909,0.5020273,0.1022464 F,0,59909,59914,0.1022464 F,0,59914,59918,0.1022464,0.5160547 F,0,59918,59920,0.5160547,0.1022464 F,0,59920,59925,0.1022464,0.1092603 F,0,59925,59929,0.1092603,0.5265751 F,0,59929,59930,0.5265751,0.1443286 F,0,59930,59934,0.1443286,0.5265751 F,0,59934,59936,0.5265751,0.1443286 F,0,59936,59940,0.1443286,0.5265751 F,0,59940,59942,0.5265751,0.210959 F,0,59942,59946,0.210959,0.5265751 F,0,59946,59947,0.5265751,0.3091507 F,0,59947,59950,0.3091507,0.5265751 F,0,59950,59953,0.5265751,0.3091507 F,0,59953,59955,0.3091507,0.5230684 F,0,59955,59958,0.5230684,0.4143561 F,0,59958,59960,0.4143561,0.5230684 F,0,59960,59963,0.5230684,0.4143561 F,0,59963,59966,0.4143561,0.5125479 F,0,59966,59969,0.5125479,0.5125481 F,0,59969,59970,0.5125481,0.5125479 F,0,59970,59973,0.5125479,0.6107398 F,0,59973,59976,0.6107398,0.4915068 F,0,59976,59979,0.4915068,0.6107398 F,0,59979,59982,0.6107398,0.4669588 F,0,59982,59985,0.4669588,0.6878903 F,0,59985,59987,0.6878903,0.4669588 F,0,59987,59990,0.4669588,0.7440001 F,0,59990,59992,0.7440001,0.438904 F,0,59992,59995,0.438904,0.7825754 F,0,59995,59999,0.7825754,0.4143559 F,0,59999,60001,0.4143559,0.7825754 F,0,60001,60003,0.7825754,0.4143559 F,0,60003,60007,0.4143559,0.8106302 F,0,60007,60010,0.8106302,0.4038354 F,0,60010,60012,0.4038354,0.8176438 F,0,60012,60014,0.8176438,0.4003287 F,0,60014,60018,0.4003287,0.8176438 F,0,60018,60022,0.8176438,0.4003287 F,0,60022,60023,0.4003287,0.8176438 F,0,60023,60028,0.8176438,0.8071232 F,0,60028,60032,0.8071232,0.4003287 F,0,60032,60033,0.4003287,0.8071232 F,0,60033,60035,0.8071232,0.4003287 F,0,60035,60039,0.4003287,0.4248766 F,0,60039,60044,0.4248766,0.7089316 F,0,60044,60045,0.7089316,0.4564382 F,0,60045,60049,0.4564382 F,0,60049,60051,0.4564382,0.6107398 F,0,60051,60053,0.6107398,0.4915068 F,0,60053,60055,0.4915068,0.6107398 F,0,60055,60059,0.6107398,0.5265751 F,0,60059,60060,0.5265751,0.5055342 F,0,60060,60063,0.5055342,0.5265751 F,0,60063,60065,0.5265751,0.3792877 F,0,60065,60069,0.3792877,0.5546301 F,0,60069,60071,0.5546301,0.3792877 F,0,60071,60073,0.3792877,0.5546301 F,0,60073,60078,0.5546301,0.5686574 F,0,60078,60082,0.5686574 F,0,60082,60083,0.5686574,0.1864108 F,0,60083,60087,0.1864108,0.5721643 F,0,60087,60089,0.5721643,0.1267946 F,0,60089,60092,0.1267946,0.5721643 F,0,60092,60093,0.5721643,0.1267946 F,0,60093,60096,0.1267946,0.5721643 F,0,60096,60099,0.5721643,0.1022464 F,0,60099,60100,0.1022464,0.5721643 F,0,60100,60104,0.5721643,0.1022464 F,0,60104,60109,0.1022464 F,0,60109,60110,0.1022464,0.5721643 F,0,60110,60113,0.5721643,0.5511232 F,0,60113,60116,0.5511232,0.1022464 F,0,60116,60118,0.1022464,0.5511232 F,0,60118,60121,0.5511232,0.1303014 F,0,60121,60123,0.1303014,0.5230684 F,0,60123,60125,0.5230684,0.1303014 F,0,60125,60127,0.1303014,0.5230684 F,0,60127,60131,0.5230684,0.2144658 F,0,60131,60135,0.2144658,0.484493 F,0,60135,60137,0.484493,0.326685 F,0,60137,60141,0.326685,0.4424109 F,0,60141,60142,0.4424109,0.326685 F,0,60142,60145,0.326685,0.4003287 F,0,60145,60148,0.4003287,0.4809863 F,0,60148,60149,0.4809863,0.4003287 F,0,60149,60153,0.4003287,0.6247671 F,0,60153,60160,0.6247671,0.3652602 F,0,60160,60161,0.3652602,0.7510138 F,0,60161,60164,0.7510138,0.3161643 F,0,60164,60168,0.3161643,0.859726 F,0,60168,60173,0.859726,0.2740822 F,0,60173,60174,0.2740822,0.859726 F,0,60174,60178,0.859726,0.2390135 F,0,60178,60180,0.2390135,0.9473973 F,0,60180,60182,0.9473973,0.2390135 F,0,60182,60185,0.2390135,0.978959 F,0,60185,60187,0.978959,0.2179724 F,0,60187,60190,0.2179724,0.978959 F,0,60190,60192,0.978959,0.2179724 F,0,60192,60197,0.2179724,0.9894794 F,0,60197,60201,0.9894794,0.2074518 F,0,60201,60205,0.2074518,0.203945 F,0,60205,60207,0.203945,0.9894794 F,0,60207,60210,0.9894794,0.203945 F,0,60210,60214,0.203945 F,0,60214,60216,0.203945,0.9158357 F,0,60216,60219,0.9158357,0.203945 F,0,60219,60223,0.203945,0.8281643 F,0,60223,60228,0.8281643 F,0,60228,60234,0.8281643,0.6984109 F,0,60234,60243,0.6984109,0.5756713 F,0,60243,60250,0.5756713,0.2249861 F,0,60250,60251,0.2249861,0.4389041 F,0,60251,60255,0.4389041,0.3231781 F,0,60255,60260,0.3231781 F,0,60260,60264,0.3231781,0.2249861 F,0,60264,60266,0.2249861,0.2495341 F,0,60266,60268,0.2495341,0.2249861 F,0,60268,60271,0.2249861,0.1969315 F,0,60271,60274,0.1969315,0.2249861 F,0,60274,60278,0.2249861,0.1793973 F,0,60278,60279,0.1793973,0.2249861 F,0,60279,60282,0.2249861 F,0,60282,60285,0.2249861,0.1758904 F,0,60285,60288,0.1758904,0.2214793 F,0,60288,60290,0.2214793,0.1758904 F,0,60290,60292,0.1758904,0.2214793 F,0,60292,60297,0.2214793,0.1758904 F,0,60297,60301,0.1758904,0.203945 F,0,60301,60302,0.203945,0.1934247 F,0,60302,60308,0.1934247 F,0,60308,60312,0.1934247,0.1899178 F,0,60312,60315,0.1899178,0.2320001 F,0,60315,60316,0.2320001,0.1758902 F,0,60316,60322,0.1758902,0.1583562 F,0,60322,60326,0.1583562 F,0,60326,60330,0.1583562,0.1443285 F,0,60330,60333,0.1443285 F,0,60333,60341,0.1443285 F,0,60341,60344,0.1443285 F,0,60344,60349,0.1443285 F,0,60349,60354,0.1443285 F,0,60354,60358,0.1443285 F,0,60358,60362,0.1443285 F,0,60362,60367,0.1443285 F,0,60367,60372,0.1443285 F,0,60372,60377,0.1443285,0.1758902 F,0,60377,60381,0.1758902 F,0,60381,60386,0.1758902,0.2530411 F,0,60386,60390,0.2530411,0.4178629 F,0,60390,60394,0.4178629 F,0,60394,60398,0.4178629,0.6352876 F,0,60398,60403,0.6352876 F,0,60403,60408,0.6352876,0.9088219 F,0,60408,60412,0.9088219 F,0,60412,60417,0.9088219,1 F,0,60417,60422,1 F,0,60422,60434,1 F,0,60434,60439,1 F,0,60439,60443,1 F,0,60443,60447,1 F,0,60447,60453,1 F,0,60453,60458,1 F,0,60458,60462,1 F,0,60462,60466,1 F,0,60466,60471,1 F,0,60471,60476,1 F,0,60476,60480,1 F,0,60480,60485,1 F,0,60485,60489,1 F,0,60489,60493,1 F,0,60493,60498,1 F,0,60498,60503,1,0.670356 F,0,60503,60507,0.670356 F,0,60507,60513,0.670356,0.2881094 F,0,60513,60519,0.2881094,0.1443285 F,0,60519,60523,0.1443285 F,0,60523,60528,0.1443285 F,0,60528,60532,0.1443285 F,0,60532,60540,0.1443285 F,0,60540,60545,0.1443285 F,0,60545,60549,0.1443285 F,0,60549,60555,0.1443285 F,0,60555,60559,0.1443285 F,0,60559,60564,0.1443285 F,0,60564,60569,0.1443285 F,0,60569,60575,0.1443285 F,0,60575,60580,0.1443285,0.1513423 F,0,60580,60585,0.1513423 F,0,60585,60591,0.1513423,0.1653696 F,0,60591,60596,0.1653696,0.1793971 F,0,60596,60600,0.1793971 F,0,60600,60604,0.1793971,0.1899178 F,0,60604,60610,0.1899178 F,0,60610,60614,0.1899178,0.2004384 F,0,60614,60618,0.2004384 F,0,60618,60622,0.2004384,0.2074518 F,0,60622,60628,0.2074518,0.2109589 F,0,60628,60632,0.2109589 F,0,60632,60637,0.2109589,0.2214793 F,0,60637,60642,0.2214793 F,0,60642,60647,0.2214793,0.2355067 F,0,60647,60651,0.2355067 F,0,60651,60655,0.2355067,0.249534 F,0,60655,60660,0.249534,0.2705751 F,0,60660,60664,0.2705751 F,0,60664,60669,0.2705751,0.2810957 F,0,60669,60674,0.2810957 F,0,60674,60679,0.2810957,0.2916162 F,0,60679,60683,0.2916162,0.2951233 F,0,60683,60688,0.2951233 F,0,60688,60693,0.2951233,0.2986301 F,0,60693,60698,0.2986301 F,0,60698,60702,0.2986301 F,0,60702,60709,0.2986301 F,0,60709,60712,0.2986301 F,0,60712,60717,0.2986301 F,0,60717,60721,0.2986301 F,0,60721,60727,0.2986301,0.3021368 F,0,60727,60731,0.3021368 F,0,60731,60735,0.3021368,0.3056438 F,0,60735,60739,0.3056438,0.3126573 F,0,60739,60745,0.3126573 F,0,60745,60750,0.3126573,0.3161643 F,0,60750,60754,0.3161643 F,0,60754,60759,0.3161643,0.3196712 F,0,60759,60763,0.3196712,0.3231779 F,0,60763,60767,0.3231779 F,0,60767,60772,0.3231779,0.3301916 F,0,60772,60778,0.3301916 F,0,60778,60783,0.3301916 F,0,60783,60788,0.3301916 F,0,60788,60793,0.3301916 F,0,60793,60796,0.3301916 F,0,60796,60801,0.3301916 F,0,60801,60807,0.3301916 F,0,60807,60811,0.3301916 F,0,60811,60815,0.3301916 F,0,60815,60819,0.3301916,0.3266849 F,0,60819,60824,0.3266849 F,0,60824,60829,0.3266849,0.3196712 F,0,60829,60833,0.3196712 F,0,60833,60838,0.3196712,0.3056438 F,0,60838,60843,0.3056438,0.2951233 F,0,60843,60848,0.2951233 F,0,60848,60852,0.2951233,0.2810957 F,0,60852,60856,0.2810957 F,0,60856,60861,0.2810957,0.2600546 F,0,60861,60865,0.2600546,0.2460272 F,0,60865,60869,0.2460272 F,0,60869,60875,0.2460272,0.232 F,0,60875,60880,0.232 F,0,60880,60883,0.232,0.2214793 F,0,60883,60889,0.2214793,0.2144656 F,0,60889,60893,0.2144656 F,0,60893,60898,0.2144656,0.2109589 F,0,60898,60902,0.2109589 F,0,60902,60907,0.2109589 F,0,60907,60912,0.2109589 F,0,60912,60917,0.2109589 F,0,60917,60922,0.2109589 F,0,60922,60928,0.2109589 F,0,60928,60932,0.2109589 F,0,60932,60936,0.2109589 F,0,60936,60941,0.2109589 F,0,60941,60945,0.2109589 F,0,60945,60949,0.2109589 F,0,60949,60954,0.2109589 F,0,60954,60958,0.2109589 F,0,60958,60962,0.2109589 F,0,60962,60967,0.2109589 F,0,60967,60972,0.2109589 F,0,60972,60977,0.2109589 F,0,60977,60982,0.2109589 F,0,60982,60985,0.2109589,0.2144656 F,0,60985,60990,0.2144656 F,0,60990,60994,0.2144656,0.2460272 F,0,60994,60998,0.2460272 F,0,60998,61003,0.2460272,0.3021368 F,0,61003,61008,0.3021368,0.4108493 F,0,61008,61012,0.4108493 F,0,61012,61016,0.4108493,0.5686574 F,0,61016,61021,0.5686574 F,0,61021,61025,0.5686574,0.7615341 F,0,61025,61029,0.7615341 F,0,61029,61033,0.7615341,0.9754519 F,0,61033,61040,0.9754519,1 F,0,61040,61043,1 F,0,61043,61048,1 F,0,61048,61053,1 F,0,61053,61057,1 F,0,61057,61061,1 F,0,61061,61065,1 F,0,61065,61070,1 F,0,61070,61075,1 F,0,61075,61080,1 F,0,61080,61084,1 F,0,61084,61089,1 F,0,61089,61093,1 F,0,61093,61097,1 F,0,61097,61102,1 F,0,61102,61107,1 F,0,61107,61112,1 F,0,61112,61116,1 F,0,61116,61121,1,0.7685478 F,0,61121,61125,0.7685478,0.5441095 F,0,61125,61129,0.5441095 F,0,61129,61134,0.5441095,0.3687671 F,0,61134,61138,0.3687671 F,0,61138,61143,0.3687671,0.2284929 F,0,61143,61155,0.2284929,0.1443285 F,0,61155,61160,0.1443285 F,0,61160,61164,0.1443285 F,0,61164,61169,0.1443285 F,0,61169,61174,0.1443285 F,0,61174,61180,0.1443285 F,0,61180,61187,0.1443285 F,0,61187,61192,0.1443285 F,0,61192,61197,0.1443285 F,0,61197,61203,0.1443285 F,0,61203,61208,0.1443285,0.1548491 F,0,61208,61213,0.1548491 F,0,61213,61218,0.1548491,0.1618628 F,0,61218,61224,0.1618628 F,0,61224,61229,0.1618628,0.1723834 F,0,61229,61234,0.1723834 F,0,61234,61239,0.1723834,0.1864107 F,0,61239,61244,0.1864107,0.1969313 F,0,61244,61249,0.1969313 F,0,61249,61253,0.1969313,0.2109589 F,0,61253,61258,0.2109589 F,0,61258,61262,0.2109589,0.2249861 F,0,61262,61268,0.2249861,0.2355067 F,0,61268,61272,0.2355067 F,0,61272,61278,0.2355067,0.2390135 F,0,61278,61282,0.2390135 F,0,61282,61286,0.2390135,0.2425206 F,0,61286,61291,0.2425206 F,0,61291,61295,0.2425206 F,0,61295,61300,0.2425206 F,0,61300,61303,0.2425206 F,0,61303,61309,0.2425206,0.2460272 F,0,61309,61313,0.2460272 F,0,61313,61318,0.2460272 F,0,61318,61322,0.2460272 F,0,61322,61328,0.2460272 F,0,61328,61332,0.2460272 F,0,61332,61337,0.2460272 F,0,61337,61342,0.2460272 F,0,61342,61346,0.2460272 F,0,61346,61350,0.2460272 F,0,61350,61354,0.2460272 F,0,61354,61359,0.2460272 F,0,61359,61363,0.2460272 F,0,61363,61368,0.2460272 F,0,61368,61372,0.2460272 F,0,61372,61378,0.2460272 F,0,61378,61382,0.2460272 F,0,61382,61386,0.2460272 F,0,61386,61391,0.2460272 F,0,61391,61394,0.2460272 F,0,61394,61399,0.2460272 F,0,61399,61403,0.2460272 F,0,61403,61408,0.2460272 F,0,61408,61413,0.2460272 F,0,61413,61417,0.2460272 F,0,61417,61421,0.2460272 F,0,61421,61427,0.2460272 F,0,61427,61432,0.2460272 F,0,61432,61436,0.2460272 F,0,61436,61441,0.2460272 F,0,61441,61445,0.2460272 F,0,61445,61449,0.2460272 F,0,61449,61453,0.2460272,0.2425206 F,0,61453,61458,0.2425206 F,0,61458,61463,0.2425206 F,0,61463,61467,0.2425206,0.2390135 F,0,61467,61473,0.2390135 F,0,61473,61478,0.2390135,0.2355067 F,0,61478,61482,0.2355067 F,0,61482,61486,0.2355067 F,0,61486,61491,0.2355067,0.232 F,0,61491,61495,0.232 F,0,61495,61499,0.232 F,0,61499,61504,0.232 F,0,61504,61508,0.232 F,0,61508,61513,0.232 F,0,61513,61518,0.232 F,0,61518,61523,0.232 F,0,61523,61528,0.232 F,0,61528,61532,0.232 F,0,61532,61535,0.232 F,0,61535,61541,0.232 F,0,61541,61545,0.232 F,0,61545,61549,0.232 F,0,61549,61553,0.232 F,0,61553,61558,0.232 F,0,61558,61562,0.232 F,0,61562,61567,0.232 F,0,61567,61572,0.232 F,0,61572,61577,0.232 F,0,61577,61581,0.232 F,0,61581,61585,0.232 F,0,61585,61590,0.232 F,0,61590,61594,0.232 F,0,61594,61599,0.232 F,0,61599,61604,0.232 F,0,61604,61608,0.232 F,0,61608,61613,0.232 F,0,61613,61618,0.232 F,0,61618,61624,0.232 F,0,61624,61629,0.232 F,0,61629,61633,0.232 F,0,61633,61639,0.232 F,0,61639,61643,0.232 F,0,61643,61647,0.232 F,0,61647,61651,0.232 F,0,61651,61656,0.232 F,0,61656,61661,0.232 F,0,61661,61664,0.232 F,0,61664,61670,0.232 F,0,61670,61674,0.232 F,0,61674,61678,0.232 F,0,61678,61682,0.232 F,0,61682,61688,0.232,0.2390135 F,0,61688,61692,0.2390135 F,0,61692,61696,0.2390135,0.277589 F,0,61696,61701,0.277589,0.3582464 F,0,61701,61705,0.3582464 F,0,61705,61710,0.3582464,0.5125479 F,0,61710,61714,0.5125479 F,0,61714,61720,0.5125479,0.6913971 F,0,61720,61723,0.6913971 F,0,61723,61728,0.6913971,0.9228491 F,0,61728,61732,0.9228491,1 F,0,61732,61738,1 F,0,61738,61742,1 F,0,61742,61745,1 F,0,61745,61752,1 F,0,61752,61757,1 F,0,61757,61761,1 F,0,61761,61765,1 F,0,61765,61771,1 F,0,61771,61777,1 F,0,61777,61781,1 F,0,61781,61787,1 F,0,61787,61791,1 F,0,61791,61795,1 F,0,61795,61800,1 F,0,61800,61804,1 F,0,61804,61809,1 F,0,61809,61813,1 F,0,61813,61820,1 F,0,61820,61826,1 F,0,61826,61831,1,0.9228491 F,0,61831,61837,0.9228491 F,0,61837,61843,0.9228491,0.7194519 F,0,61843,61848,0.7194519 F,0,61848,61852,0.7194519,0.5511232 F,0,61852,61858,0.5511232,0.4178629 F,0,61858,61862,0.4178629 F,0,61862,61875,0.4178629,0.2565478 F,0,61875,61881,0.2565478 F,0,61881,61886,0.2565478,0.2249861 F,0,61886,61891,0.2249861,0.2004384 F,0,61891,61896,0.2004384 F,0,61896,61901,0.2004384,0.1899178 F,0,61901,61904,0.1899178 F,0,61904,61910,0.1899178,0.1864107 F,0,61910,61914,0.1864107 F,0,61914,61918,0.1864107 F,0,61918,61923,0.1864107 F,0,61923,61928,0.1864107 F,0,61928,61933,0.1864107 F,0,61933,61937,0.1864107 F,0,61937,61943,0.1864107,0.203945 F,0,61943,61948,0.203945,0.2284929 F,0,61948,61952,0.2284929 F,0,61952,61957,0.2284929,0.2565478 F,0,61957,61962,0.2565478 F,0,61962,61967,0.2565478,0.2846028 F,0,61967,61971,0.2846028 F,0,61971,61976,0.2846028,0.3126573 F,0,61976,61980,0.3126573,0.3336984 F,0,61980,61985,0.3336984 F,0,61985,61989,0.3336984,0.3407123 F,0,61989,61994,0.3407123 F,0,61994,61999,0.3407123,0.347726 F,0,61999,62003,0.347726,0.3512328 F,0,62003,62009,0.3512328 F,0,62009,62013,0.3512328,0.3582464 F,0,62013,62018,0.3582464 F,0,62018,62022,0.3582464 F,0,62022,62028,0.3582464 F,0,62028,62032,0.3582464 F,0,62032,62035,0.3582464,0.3652602 F,0,62035,62041,0.3652602 F,0,62041,62045,0.3652602,0.3722737 F,0,62045,62049,0.3722737 F,0,62049,62053,0.3722737,0.3863013 F,0,62053,62059,0.3863013,0.3968217 F,0,62059,62063,0.3968217 F,0,62063,62068,0.3968217,0.4108493 F,0,62068,62073,0.4108493 F,0,62073,62078,0.4108493,0.4283835 F,0,62078,62082,0.4283835,0.4459177 F,0,62082,62087,0.4459177 F,0,62087,62093,0.4459177,0.4739725 F,0,62093,62098,0.4739725 F,0,62098,62102,0.4739725,0.5020273 F,0,62102,62106,0.5020273,0.5406026 F,0,62106,62110,0.5406026 F,0,62110,62115,0.5406026,0.5861915 F,0,62115,62119,0.5861915 F,0,62119,62125,0.5861915,0.6528218 F,0,62125,62129,0.6528218,0.744 F,0,62129,62133,0.744 F,0,62133,62139,0.744,0.8527123 F,0,62139,62143,0.8527123 F,0,62143,62148,0.8527123,0.9824657 F,0,62148,62152,0.9824657 F,0,62152,62158,0.9824657,1 F,0,62158,62162,1 F,0,62162,62166,1 F,0,62166,62171,1 F,0,62171,62175,1 F,0,62175,62179,1 F,0,62179,62184,1 F,0,62184,62189,1 F,0,62189,62193,1 F,0,62193,62198,1 F,0,62198,62202,1 F,0,62202,62208,1 F,0,62208,62212,1 F,0,62212,62217,1 F,0,62217,62223,1 F,0,62223,62228,1,0.8983012 F,0,62228,62232,0.8983012 F,0,62232,62235,0.8983012,0.6528218 F,0,62235,62241,0.6528218,0.4038354 F,0,62241,62245,0.4038354 F,0,62245,62250,0.4038354,0.1969313 F,0,62250,62255,0.1969313,0.1443285 F,0,62255,62259,0.1443285 F,0,62259,62263,0.1443285 F,0,62263,62267,0.1443285 F,0,62267,62273,0.1443285 F,0,62273,62278,0.1443285 F,0,62278,62283,0.1443285 F,0,62283,62288,0.1443285 F,0,62288,62292,0.1443285 F,0,62292,62295,0.1443285 F,0,62295,62300,0.1443285 F,0,62300,62304,0.1443285 F,0,62304,62309,0.1443285 F,0,62309,62314,0.1443285 F,0,62314,62320,0.1443285 F,0,62320,62323,0.1443285 F,0,62323,62328,0.1443285 F,0,62328,62332,0.1443285 F,0,62332,62338,0.1443285,0.1478355 F,0,62338,62343,0.1478355,0.1618628 F,0,62343,62348,0.1618628 F,0,62348,62354,0.1618628,0.1723834 F,0,62354,62358,0.1723834,0.1969313 F,0,62358,62363,0.1969313 F,0,62363,62369,0.1969313,0.2179724 F,0,62369,62373,0.2179724 F,0,62373,62379,0.2179724,0.2530411 F,0,62379,62383,0.2530411,0.2881094 F,0,62383,62388,0.2881094 F,0,62388,62392,0.2881094,0.3266849 F,0,62392,62396,0.3266849 F,0,62396,62401,0.3266849,0.3687671 F,0,62401,62405,0.3687671,0.4178629 F,0,62405,62410,0.4178629 F,0,62410,62414,0.4178629,0.463452 F,0,62414,62420,0.463452,0.5265751 F,0,62420,62424,0.5265751 F,0,62424,62429,0.5265751,0.6002191 F,0,62429,62433,0.6002191 F,0,62433,62439,0.6002191,0.6984108 F,0,62439,62443,0.6984108,0.8036163 F,0,62443,62448,0.8036163 F,0,62448,62453,0.8036163,0.9473972 F,0,62453,62459,0.9473972 F,0,62459,62464,0.9473972,1 F,0,62464,62471,1 F,0,62471,62476,1 F,0,62476,62483,1 F,0,62483,62487,1 F,0,62487,62494,1 F,0,62494,62499,1 F,0,62499,62503,1 F,0,62503,62510,1 F,0,62510,62514,1 F,0,62514,62518,1 F,0,62518,62523,1 F,0,62523,62528,1 F,0,62528,62532,1 F,0,62532,62537,1 F,0,62537,62543,1 F,0,62543,62548,1 F,0,62548,62552,1 F,0,62552,62558,1,0.8281643 F,0,62558,62562,0.8281643 F,0,62562,62567,0.8281643,0.5055341 F,0,62567,62571,0.5055341 F,0,62571,62577,0.5055341,0.2004384 F,0,62577,62582,0.2004384,0.1443285 F,0,62582,62588,0.1443285 F,0,62588,62593,0.1443285 F,0,62593,62597,0.1443285 F,0,62597,62602,0.1443285 F,0,62602,62607,0.1443285 F,0,62607,62612,0.1443285 F,0,62612,62616,0.1443285 F,0,62616,62620,0.1443285 F,0,62620,62625,0.1443285 F,0,62625,62629,0.1443285,0.1723834 F,0,62629,62633,0.1723834 F,0,62633,62639,0.1723834,0.2565478 F,0,62639,62645,0.2565478,0.3827944 F,0,62645,62649,0.3827944 F,0,62649,62653,0.3827944,0.5546301 F,0,62653,62659,0.5546301 F,0,62659,62663,0.5546301,0.744 F,0,62663,62668,0.744,0.9438902 F,0,62668,62672,0.9438902 F,0,62672,62678,0.9438902,1 F,0,62678,62683,1 F,0,62683,62688,1 F,0,62688,62693,1 F,0,62693,62696,1 F,0,62696,62701,1 F,0,62701,62708,1 F,0,62708,62713,1 F,0,62713,62718,1 F,0,62718,62724,1 F,0,62724,62728,1 F,0,62728,62733,1 F,0,62733,62739,1 F,0,62739,62744,1 F,0,62744,62749,1 F,0,62749,62753,1 F,0,62753,62758,1 F,0,62758,62765,1,0.9544109 F,0,62765,62771,0.9544109,0.7510136 F,0,62771,62775,0.7510136 F,0,62775,62781,0.7510136,0.5581369 F,0,62781,62785,0.5581369,0.4283835 F,0,62785,62790,0.4283835 F,0,62790,62794,0.4283835,0.3652602 F,0,62794,62799,0.3652602 F,0,62799,62804,0.3652602,0.3547395 F,0,62804,62808,0.3547395 F,0,62808,62813,0.3547395 F,0,62813,62818,0.3547395,0.3792876 F,0,62818,62823,0.3792876 F,0,62823,62827,0.3792876,0.4599451 F,0,62827,62832,0.4599451 F,0,62832,62835,0.4599451,0.579178 F,0,62835,62841,0.579178,0.7089314 F,0,62841,62844,0.7089314 F,0,62844,62849,0.7089314,0.8456985 F,0,62849,62854,0.8456985 F,0,62854,62859,0.8456985,0.9579178 F,0,62859,62864,0.9579178,1 F,0,62864,62868,1 F,0,62868,62874,1 F,0,62874,62878,1 F,0,62878,62882,1 F,0,62882,62888,1 F,0,62888,62892,1 F,0,62892,62897,1 F,0,62897,62901,1 F,0,62901,62907,1 F,0,62907,62912,1 F,0,62912,62915,1 F,0,62915,62921,1,0.9368767 F,0,62921,62925,0.9368767 F,0,62925,62929,0.9368767,0.8036163 F,0,62929,62933,0.8036163 F,0,62933,62940,0.8036163,0.6598355 F,0,62940,62944,0.6598355,0.4985203 F,0,62944,62949,0.4985203 F,0,62949,62954,0.4985203,0.3547395 F,0,62954,62958,0.3547395,0.2284929 F,0,62958,62963,0.2284929 F,0,62963,62967,0.2284929,0.1478355 F,0,62967,62972,0.1478355 F,0,62972,62977,0.1478355,0.1443285 F,0,62977,62983,0.1443285 F,0,62983,62988,0.1443285 F,0,62988,62992,0.1443285 F,0,62992,62996,0.1443285 F,0,62996,63001,0.1443285,0.1618628 F,0,63001,63007,0.1618628,0.2390135 F,0,63007,63011,0.2390135 F,0,63011,63015,0.2390135,0.3722737 F,0,63015,63020,0.3722737 F,0,63020,63024,0.3722737,0.5265751 F,0,63024,63029,0.5265751,0.7019177 F,0,63029,63038,0.7019177,0.8842738 F,0,63038,63042,0.8842738 F,0,63042,63048,0.8842738,1 F,0,63048,63053,1 F,0,63053,63058,1 F,0,63058,63063,1 F,0,63063,63066,1 F,0,63066,63071,1 F,0,63071,63076,1 F,0,63076,63081,1 F,0,63081,63087,1 F,0,63087,63091,1 F,0,63091,63095,1 F,0,63095,63102,1 F,0,63102,63107,1 F,0,63107,63113,1,0.8983012 F,0,63113,63118,0.8983012 F,0,63118,63124,0.8983012,0.7194519 F,0,63124,63129,0.7194519,0.5300821 F,0,63129,63134,0.5300821 F,0,63134,63140,0.5300821,0.3582464 F,0,63140,63145,0.3582464 F,0,63145,63150,0.3582464,0.2249861 F,0,63150,63155,0.2249861,0.1443285 F,0,63155,63160,0.1443285 F,0,63160,63165,0.1443285 F,0,63165,63170,0.1443285 F,0,63170,63175,0.1443285 F,0,63175,63180,0.1443285 F,0,63180,63184,0.1443285 F,0,63184,63188,0.1443285,0.1478355 F,0,63188,63193,0.1478355 F,0,63193,63198,0.1478355,0.1829039 F,0,63198,63202,0.1829039 F,0,63202,63207,0.1829039,0.2390135 F,0,63207,63213,0.2390135,0.3056438 F,0,63213,63218,0.3056438 F,0,63218,63222,0.3056438,0.3827944 F,0,63222,63228,0.3827944 F,0,63228,63232,0.3827944,0.4494246 F,0,63232,63236,0.4494246,0.4950136 F,0,63236,63242,0.4950136 F,0,63242,63247,0.4950136,0.5265751 F,0,63247,63251,0.5265751 F,0,63251,63255,0.5265751,0.533589 F,0,63255,63260,0.533589 F,0,63260,63264,0.533589 F,0,63264,63269,0.533589 F,0,63269,63275,0.533589,0.5300821 F,0,63275,63279,0.5300821 F,0,63279,63283,0.5300821,0.5195615 F,0,63283,63288,0.5195615 F,0,63288,63293,0.5195615,0.509041 F,0,63296,,0 F,0,77308,,1 M,2,77308,77667,483,511,483,343 R,0,77308,77667,0,0.3647125 R,0,77667,80362,0.3647125,0.1813407 M,0,77667,86290,483,343 R,0,80362,80901,0.1813407,-7.154987 R,0,80901,83236,-7.154987,-7.47762 R,0,83236,83865,-7.47762,-11.93833 R,0,83865,86200,-11.93833,-12.49943 R,2,86200,86380,-12.49943,-6.285288 M,2,86290,86380,483,343,489,343 M,0,86380,86470,489,343,478,343 M,2,86470,87008,478,343 M,2,87008,87098,478,343,463,343 M,2,87098,87188,463,343,481,343 M,2,87188,87727,481,343,480,343 M,2,87727,87817,480,343,507,343 M,2,87817,87907,507,343,480,343 M,2,87907,88086,480,343 M,2,88086,88221,480,343,445,343 M,2,88221,88266,445,343,480,343 M,2,88266,88446,480,343 M,2,88446,88491,480,343,507,343 M,2,88491,88535,507,343,474,343 M,2,88535,88625,474,343,480,343 M,2,88625,88670,480,343,418,343 M,2,88670,88715,418,343,480,343 M,2,88715,88805,480,343,511,343 M,2,88805,88895,511,343,385,343 M,2,88895,88985,385,343,499,343 M,2,88985,89074,499,343,188,343 M,2,89074,89164,188,343,809,343 M,1,103176,103535,463,507,463,371 S,0,103491,,0.3126575 S,2,103535,103715,0.3687671,0.3126575 F,0,115032,,0 M,1,123476,123565,463,-33,463,188 F,0,123476,123835,0,1 M,2,123565,123655,463,188,463,387 M,1,123655,123745,463,387,463,258 M,2,123745,123835,463,258,463,369 F,0,123835,139464,1 M,0,135152,135332,463,510 M,1,135332,135691,463,510,463,186 M,1,135691,139823,463,186,463,163 F,0,139464,139823,1,0
Sprite,Foreground,Centre,"SB\Collab\DJN-Blur.png",320,240 F,0,1500,,1 S,0,1500,,0.3126573 M,1,1500,1859,-258,340,483,340 F,0,1859,,0 M,0,1859,14074,483,340 F,0,14074,,1 M,1,14074,14434,483,340,-238,340 M,0,14434,28446,-238,340 M,2,28446,28805,-238,340,482,340 F,0,28805,,0 M,0,28805,39943,482,340 F,0,39943,,1 M,1,39943,40302,482,340,-175,340
//Storyboard Sound Samples
//Background Colour Transformations
3,100,163,162,255

[TimingPoints]
1076,425.531914893617,4,2,0,40,1,0
1500,359.281437125748,4,2,0,40,1,0
1500,-66.6666666666667,4,2,0,40,0,0
1859,-100,4,2,0,40,0,0
1949,-80,4,2,0,40,0,0
2038,-66.6666666666667,4,2,0,40,0,0
2398,-100,4,2,0,40,0,0
2488,-80,4,2,0,40,0,0
2577,-66.6666666666667,4,2,0,40,0,0
2937,-100,4,2,0,40,0,0
3026,-80,4,2,0,40,0,0
3116,-66.6666666666667,4,2,0,40,0,0
3476,-100,4,2,0,40,0,0
3565,-80,4,2,0,40,0,0
3655,-66.6666666666667,4,2,0,40,0,0
3835,-100,4,2,0,40,0,0
3925,-80,4,2,0,40,0,0
4014,-66.6666666666667,4,2,0,40,0,0
4194,-100,4,2,0,40,0,0
4284,-80,4,2,0,40,0,0
4374,-66.6666666666667,4,2,0,40,0,0
4733,-100,4,2,0,40,0,0
4823,-80,4,2,0,40,0,0
4913,-66.6666666666667,4,2,0,40,0,0
5272,-100,4,2,0,40,0,0
5362,-80,4,2,0,40,0,0
5452,-66.6666666666667,4,2,0,40,0,0
5811,-100,4,2,0,40,0,0
5901,-80,4,2,0,40,0,0
5991,-66.6666666666667,4,2,0,40,0,0
6350,-100,4,2,0,40,0,0
6440,-80,4,2,0,40,0,0
6529,-66.6666666666667,4,2,0,40,0,0
6709,-100,4,2,0,40,0,0
6799,-80,4,2,0,40,0,0
6889,-66.6666666666667,4,2,0,40,0,0
7068,-66.6666666666667,4,2,0,40,0,0
7158,-80,4,2,0,40,0,0
7248,-100,4,2,0,40,0,0
11559,-50,4,2,0,40,0,0
11739,-66.6666666666667,4,2,0,40,0,0
11829,-133.333333333333,4,2,0,40,0,0
11919,-200,4,2,0,40,0,0
12008,-190.47619047619,4,2,0,40,0,0
12098,-181.818181818182,4,2,0,40,0,0
12188,-173.913043478261,4,2,0,40,0,0
12278,-166.666666666667,4,2,0,40,0,0
12368,-160,4,2,0,40,0,0
12458,-153.846153846154,4,2,0,40,0,0
12547,-148.148148148148,4,2,0,40,0,0
12637,-142.857142857143,4,2,0,40,0,0
12727,-137.931034482759,4,2,0,40,0,0
12817,-133.333333333333,4,2,0,40,0,0
12907,-129.032258064516,4,2,0,40,0,0
12997,-125,4,2,0,40,0,0
13086,-121.212121212121,4,2,0,40,0,0
13176,-117.647058823529,4,2,0,40,0,0
13266,-114.285714285714,4,2,0,40,0,0
13356,-111.111111111111,4,2,0,40,0,0
13446,-108.108108108108,4,2,0,40,0,0
13535,-105.263157894737,4,2,0,40,0,0
13625,-102.564102564103,4,2,0,40,0,0
13715,-100,4,2,0,40,0,0
13805,-97.5609756097561,4,2,0,40,0,0
13895,-95.2380952380952,4,2,0,40,0,0
13985,-93.0232558139535,4,2,0,40,0,0
14074,-90.9090909090909,4,2,0,40,0,0
14164,-88.8888888888889,4,2,0,40,0,0
14254,-86.9565217391304,4,2,0,40,0,0
14344,-85.1063829787234,4,2,0,40,0,0
14434,-100,4,2,0,40,0,0
31679,-66.6666666666667,4,2,0,40,0,0
31859,-100,4,2,0,40,0,0
31949,-66.6666666666667,4,2,0,40,0,0
32128,-100,4,2,0,40,0,0
32218,-66.6666666666667,4,2,0,40,0,0
32308,-100,4,2,0,40,0,0
32398,-66.6666666666667,4,2,0,40,0,0
32577,-100,4,2,0,40,0,0
32667,-66.6666666666667,4,2,0,40,0,0
32847,-100,4,2,0,40,0,0
32937,-66.6666666666667,4,2,0,40,0,0
33026,-100,4,2,0,40,0,0
33835,-66.6666666666667,4,2,0,40,0,0
34014,-100,4,2,0,40,0,0
34104,-133.333333333333,4,2,0,40,0,0
34194,-100,4,2,0,40,0,0
39583,-66.6666666666667,4,2,0,40,0,0
39673,-80,4,2,0,40,0,0
39718,-100,4,2,0,40,0,0
39763,-66.6666666666667,4,2,0,40,0,0
39853,-80,4,2,0,40,0,0
39898,-100,4,2,0,40,0,0
39943,-66.6666666666667,4,2,0,40,0,0
39988,-80,4,2,0,40,0,0
40010,-100,4,2,0,40,0,0
40032,-66.6666666666667,4,2,0,40,0,0
40077,-80,4,2,0,40,0,0
40100,-100,4,2,0,40,0,0
40122,-66.6666666666667,4,2,0,40,0,0
40167,-80,4,2,0,40,0,0
40190,-100,4,2,0,40,0,0
40212,-66.6666666666667,4,2,0,40,0,0
40257,-80,4,2,0,40,0,0
40279,-100,4,2,0,40,0,0
40302,-100,4,2,0,40,0,0
51799,-133.333333333333,4,2,0,40,0,0
60422,-50,4,2,0,40,0,0
60781,-100,4,2,0,40,0,0
61050,-133.333333333333,4,2,0,40,0,0
61140,-50,4,2,0,40,0,0
61499,-100,4,2,0,40,0,0
61769,-133.333333333333,4,2,0,40,0,0
61859,-50,4,2,0,40,0,0
62038,-100,4,2,0,40,0,0
62128,-133.333333333333,4,2,0,40,0,0
62218,-50,4,2,0,40,0,0
62308,-100,4,2,0,40,0,0
62488,-133.333333333333,4,2,0,40,0,0
62577,-50,4,2,0,40,0,0
62667,-100,4,2,0,40,0,0
62712,-133.333333333333,4,2,0,40,0,0
62757,-50,4,2,0,40,0,0
62847,-100,4,2,0,40,0,0
62892,-133.333333333333,4,2,0,40,0,0
62937,-50,4,2,0,40,0,0
62982,-100,4,2,0,40,0,0
63004,-133.333333333333,4,2,0,40,0,0
63026,-50,4,2,0,40,0,0
63071,-100,4,2,0,40,0,0
63094,-133.333333333333,4,2,0,40,0,0
63116,-50,4,2,0,40,0,0
63161,-100,4,2,0,40,0,0
63184,-133.333333333333,4,2,0,40,0,0
63206,-50,4,2,0,40,0,0
63251,-100,4,2,0,40,0,0
63273,-133.333333333333,4,2,0,40,0,0
63296,-100,4,2,0,40,0,0
77667,-133.333333333333,4,2,0,40,0,0
86290,-125,4,2,0,40,0,0
87727,-111.111111111111,4,2,0,40,0,0
89164,-100,4,2,0,40,0,0

[HitObjects]
36,192,1076,1,0,0:0:0:0:
182,192,1076,1,0,0:0:0:0:
109,192,1182,1,0,0:0:0:0:
256,192,1182,1,0,0:0:0:0:
182,192,1288,1,0,0:0:0:0:
329,192,1288,1,0,0:0:0:0:
256,192,1395,1,0,0:0:0:0:
402,192,1395,1,0,0:0:0:0:
329,192,1500,1,0,0:0:0:0:
182,192,1500,1,0,0:0:0:0:
36,192,1500,1,0,0:0:0:0:
475,192,1500,128,0,2038:0:0:0:0:
329,192,2038,1,0,0:0:0:0:
182,192,2038,1,0,0:0:0:0:
36,192,2038,128,0,2577:0:0:0:0:
402,192,2577,128,0,3116:0:0:0:0:
256,192,2577,1,0,0:0:0:0:
109,192,2577,1,0,0:0:0:0:
109,192,3116,128,0,3655:0:0:0:0:
256,192,3116,1,0,0:0:0:0:
329,192,3655,1,0,0:0:0:0:
182,192,3655,1,0,0:0:0:0:
36,192,3655,1,0,0:0:0:0:
475,192,3655,128,0,4014:0:0:0:0:
36,192,4014,128,0,4374:0:0:0:0:
329,192,4014,1,0,0:0:0:0:
182,192,4014,1,0,0:0:0:0:
182,192,4374,1,0,0:0:0:0:
329,192,4374,1,0,0:0:0:0:
402,192,4374,128,0,4913:0:0:0:0:
109,192,4913,128,0,5452:0:0:0:0:
36,192,4913,1,0,0:0:0:0:
475,192,4913,1,0,0:0:0:0:
475,192,5452,128,0,5991:0:0:0:0:
182,192,5452,1,0,0:0:0:0:
329,192,5452,1,0,0:0:0:0:
36,192,5991,128,0,6529:0:0:0:0:
109,192,5991,1,0,0:0:0:0:
402,192,5991,1,0,0:0:0:0:
329,192,6529,128,0,7248:0:0:0:0:
109,192,6529,1,0,0:0:0:0:
402,192,6529,1,0,0:0:0:0:
182,192,6529,128,0,7248:0:0:0:0:
109,192,6799,128,0,7068:0:0:0:0:
402,192,6799,128,0,7068:0:0:0:0:
36,192,7068,128,0,7248:0:0:0:0:
475,192,7068,128,0,7248:0:0:0:0:
109,192,7248,128,0,8505:0:0:0:0:
36,192,7607,1,0,0:0:0:0:
182,192,7697,1,0,0:0:0:0:
475,192,7787,1,0,0:0:0:0:
402,192,7877,1,0,0:0:0:0:
329,192,7967,1,0,0:0:0:0:
256,192,8056,1,0,0:0:0:0:
36,192,8146,1,0,0:0:0:0:
182,192,8236,1,0,0:0:0:0:
475,192,8326,1,0,0:0:0:0:
402,192,8416,1,0,0:0:0:0:
256,192,8505,128,0,8595:0:0:0:0:
36,192,8505,1,0,0:0:0:0:
329,192,8595,128,0,8685:0:0:0:0:
182,192,8595,1,0,0:0:0:0:
475,192,8685,128,0,9943:0:0:0:0:
36,192,8685,1,0,0:0:0:0:
109,192,8775,1,0,0:0:0:0:
182,192,8865,1,0,0:0:0:0:
256,192,8955,1,0,0:0:0:0:
402,192,9044,1,0,0:0:0:0:
329,192,9134,1,0,0:0:0:0:
256,192,9224,1,0,0:0:0:0:
182,192,9314,1,0,0:0:0:0:
36,192,9404,1,0,0:0:0:0:
109,192,9494,1,0,0:0:0:0:
182,192,9583,1,0,0:0:0:0:
256,192,9673,1,0,0:0:0:0:
402,192,9763,1,0,0:0:0:0:
329,192,9853,1,0,0:0:0:0:
109,192,9943,128,0,10032:0:0:0:0:
256,192,9943,128,0,10032:0:0:0:0:
182,192,10032,128,0,10122:0:0:0:0:
329,192,10032,128,0,10122:0:0:0:0:
36,192,10122,128,0,11559:0:0:0:0:
475,192,10122,128,0,11559:0:0:0:0:
109,192,10122,1,0,0:0:0:0:
402,192,10122,1,0,0:0:0:0:
182,192,10212,1,0,0:0:0:0:
256,192,10302,1,0,0:0:0:0:
329,192,10392,1,0,0:0:0:0:
402,192,10482,1,0,0:0:0:0:
109,192,10482,1,0,0:0:0:0:
329,192,10571,1,0,0:0:0:0:
256,192,10661,1,0,0:0:0:0:
182,192,10751,1,0,0:0:0:0:
109,192,10841,1,0,0:0:0:0:
402,192,10841,1,0,0:0:0:0:
182,192,10931,1,0,0:0:0:0:
256,192,11020,1,0,0:0:0:0:
329,192,11110,1,0,0:0:0:0:
402,192,11200,1,0,0:0:0:0:
109,192,11200,1,0,0:0:0:0:
329,192,11290,1,0,0:0:0:0:
256,192,11380,1,0,0:0:0:0:
182,192,11470,1,0,0:0:0:0:
109,192,11559,1,0,0:0:0:0:
402,192,11559,1,0,0:0:0:0:
329,192,11919,128,0,14434:0:0:0:0:
182,192,11919,128,0,14434:0:0:0:0:
402,192,11919,1,0,0:0:0:0:
475,192,12008,1,0,0:0:0:0:
402,192,12098,1,0,0:0:0:0:
256,192,12188,1,0,0:0:0:0:
109,192,12278,1,0,0:0:0:0:
256,192,12368,1,0,0:0:0:0:
109,192,12458,1,0,0:0:0:0:
36,192,12547,1,0,0:0:0:0:
475,192,12637,1,0,0:0:0:0:
402,192,12727,1,0,0:0:0:0:
256,192,12817,1,0,0:0:0:0:
402,192,12907,1,0,0:0:0:0:
256,192,12997,1,0,0:0:0:0:
109,192,13086,1,0,0:0:0:0:
36,192,13176,1,0,0:0:0:0:
475,192,13266,1,0,0:0:0:0:
402,192,13356,1,0,0:0:0:0:
256,192,13446,1,0,0:0:0:0:
109,192,13535,1,0,0:0:0:0:
36,192,13625,1,0,0:0:0:0:
475,192,13715,1,0,0:0:0:0:
402,192,13715,1,0,0:0:0:0:
256,192,13805,1,0,0:0:0:0:
109,192,13895,1,0,0:0:0:0:
36,192,13895,1,0,0:0:0:0:
402,192,13985,1,0,0:0:0:0:
256,192,14074,1,0,0:0:0:0:
475,192,14074,1,0,0:0:0:0:
402,192,14164,1,0,0:0:0:0:
109,192,14164,1,0,0:0:0:0:
36,192,14254,1,0,0:0:0:0:
256,192,14254,1,0,0:0:0:0:
402,192,14344,1,0,0:0:0:0:
109,192,14344,1,0,0:0:0:0:
36,192,14434,1,0,0:0:0:0:
256,192,14434,1,0,0:0:0:0:
475,192,14434,1,0,0:0:0:0:
475,192,14613,1,0,0:0:0:0:
36,192,14613,1,0,0:0:0:0:
109,192,14793,1,0,0:0:0:0:
402,192,14793,1,0,0:0:0:0:
36,192,14973,1,0,0:0:0:0:
256,192,14973,1,0,0:0:0:0:
475,192,14973,1,0,0:0:0:0:
329,192,15152,1,0,0:0:0:0:
182,192,15152,1,0,0:0:0:0:
402,192,15332,1,0,0:0:0:0:
109,192,15332,1,0,0:0:0:0:
256,192,15332,1,0,0:0:0:0:
256,192,15511,1,0,0:0:0:0:
36,192,15511,1,0,0:0:0:0:
475,192,15511,1,0,0:0:0:0:
109,192,15691,1,0,0:0:0:0:
402,192,15691,1,0,0:0:0:0:
256,192,15871,1,0,0:0:0:0:
475,192,15871,1,0,0:0:0:0:
36,192,15871,1,0,0:0:0:0:
329,192,16050,1,0,0:0:0:0:
109,192,16050,1,0,0:0:0:0:
256,192,16230,1,0,0:0:0:0:
475,192,16230,1,0,0:0:0:0:
36,192,16410,1,0,0:0:0:0:
182,192,16410,1,0,0:0:0:0:
329,192,16410,1,0,0:0:0:0:
475,192,16589,1,0,0:0:0:0:
256,192,16589,1,0,0:0:0:0:
475,192,16769,1,0,0:0:0:0:
182,192,16769,1,0,0:0:0:0:
109,192,16859,1,0,0:0:0:0:
402,192,16859,1,0,0:0:0:0:
329,192,16949,1,0,0:0:0:0:
36,192,16949,1,0,0:0:0:0:
182,192,16949,1,0,0:0:0:0:
256,192,17038,1,0,0:0:0:0:
329,192,17128,1,0,0:0:0:0:
109,192,17128,1,0,0:0:0:0:
402,192,17218,1,0,0:0:0:0:
475,192,17308,1,0,0:0:0:0:
36,192,17308,1,0,0:0:0:0:
182,192,17308,1,0,0:0:0:0:
256,192,17488,1,0,0:0:0:0:
402,192,17488,1,0,0:0:0:0:
182,192,17667,1,0,0:0:0:0:
36,192,17667,1,0,0:0:0:0:
256,192,17757,1,0,0:0:0:0:
329,192,17847,1,0,0:0:0:0:
109,192,17847,1,0,0:0:0:0:
402,192,17937,1,0,0:0:0:0:
475,192,18026,1,0,0:0:0:0:
36,192,18026,1,0,0:0:0:0:
109,192,18206,1,0,0:0:0:0:
402,192,18206,128,0,18386:0:0:0:0:
256,192,18206,1,0,0:0:0:0:
182,192,18386,1,0,0:0:0:0:
329,192,18565,128,0,18745:0:0:0:0:
109,192,18565,1,0,0:0:0:0:
475,192,18745,1,0,0:0:0:0:
36,192,18745,1,0,0:0:0:0:
182,192,18745,128,0,19643:0:0:0:0:
402,192,18925,1,0,0:0:0:0:
109,192,19014,128,0,19643:0:0:0:0:
329,192,19104,1,0,0:0:0:0:
36,192,19284,128,0,19643:0:0:0:0:
475,192,19284,1,0,0:0:0:0:
256,192,19284,1,0,0:0:0:0:
329,192,19464,1,0,0:0:0:0:
475,192,19643,1,0,0:0:0:0:
329,192,19733,1,0,0:0:0:0:
182,192,19823,1,0,0:0:0:0:
36,192,19823,1,0,0:0:0:0:
182,192,20002,1,0,0:0:0:0:
402,192,20002,1,0,0:0:0:0:
256,192,20092,1,0,0:0:0:0:
329,192,20182,128,0,20541:0:0:0:0:
36,192,20182,1,0,0:0:0:0:
475,192,20182,1,0,0:0:0:0:
109,192,20362,1,0,0:0:0:0:
182,192,20541,1,0,0:0:0:0:
109,192,20721,1,0,0:0:0:0:
475,192,20721,1,0,0:0:0:0:
256,192,20721,1,0,0:0:0:0:
402,192,20811,1,0,0:0:0:0:
36,192,20901,1,0,0:0:0:0:
329,192,20901,1,0,0:0:0:0:
329,192,21080,128,0,21260:0:0:0:0:
475,192,21260,1,0,0:0:0:0:
182,192,21260,1,0,0:0:0:0:
36,192,21260,1,0,0:0:0:0:
182,192,21440,128,0,21619:0:0:0:0:
475,192,21619,1,0,0:0:0:0:
402,192,21619,128,0,22338:0:0:0:0:
36,192,21619,1,0,0:0:0:0:
109,192,21799,1,0,0:0:0:0:
256,192,21979,1,0,0:0:0:0:
182,192,22158,1,0,0:0:0:0:
36,192,22158,1,0,0:0:0:0:
256,192,22248,1,0,0:0:0:0:
329,192,22338,1,0,0:0:0:0:
256,192,22428,1,0,0:0:0:0:
182,192,22517,1,0,0:0:0:0:
329,192,22607,1,0,0:0:0:0:
36,192,22607,1,0,0:0:0:0:
256,192,22697,1,0,0:0:0:0:
402,192,22697,1,0,0:0:0:0:
109,192,22697,1,0,0:0:0:0:
475,192,22787,1,0,0:0:0:0:
182,192,22877,1,0,0:0:0:0:
329,192,22877,1,0,0:0:0:0:
256,192,22967,1,0,0:0:0:0:
36,192,23056,1,0,0:0:0:0:
329,192,23056,1,0,0:0:0:0:
109,192,23056,1,0,0:0:0:0:
402,192,23326,5,0,0:0:0:0:
475,192,23326,1,0,0:0:0:0:
182,192,23326,1,0,0:0:0:0:
36,192,23595,1,0,0:0:0:0:
109,192,23595,1,0,0:0:0:0:
329,192,23595,1,0,0:0:0:0:
36,192,23955,1,0,0:0:0:0:
109,192,24134,1,0,0:0:0:0:
329,192,24134,1,0,0:0:0:0:
475,192,24134,1,0,0:0:0:0:
182,192,24314,1,0,0:0:0:0:
402,192,24314,1,0,0:0:0:0:
109,192,24494,1,0,0:0:0:0:
329,192,24494,1,0,0:0:0:0:
475,192,24494,1,0,0:0:0:0:
36,192,24673,1,0,0:0:0:0:
256,192,24673,1,0,0:0:0:0:
402,192,24763,1,0,0:0:0:0:
109,192,24853,1,0,0:0:0:0:
256,192,24853,1,0,0:0:0:0:
475,192,24853,1,0,0:0:0:0:
36,192,24943,1,0,0:0:0:0:
182,192,25032,1,0,0:0:0:0:
402,192,25032,1,0,0:0:0:0:
329,192,25032,1,0,0:0:0:0:
109,192,25122,1,0,0:0:0:0:
475,192,25212,1,0,0:0:0:0:
256,192,25212,1,0,0:0:0:0:
329,192,25302,1,0,0:0:0:0:
109,192,25392,1,0,0:0:0:0:
402,192,25482,1,0,0:0:0:0:
36,192,25571,1,0,0:0:0:0:
182,192,25571,1,0,0:0:0:0:
329,192,25661,1,0,0:0:0:0:
109,192,25751,1,0,0:0:0:0:
256,192,25841,1,0,0:0:0:0:
182,192,25931,1,0,0:0:0:0:
402,192,25931,128,0,26290:0:0:0:0:
109,192,26110,1,0,0:0:0:0:
36,192,26290,1,0,0:0:0:0:
182,192,26290,1,0,0:0:0:0:
256,192,26470,1,0,0:0:0:0:
109,192,26470,1,0,0:0:0:0:
475,192,26470,128,0,27098:0:0:0:0:
256,192,26649,1,0,0:0:0:0:
402,192,26649,128,0,27098:0:0:0:0:
109,192,26829,1,0,0:0:0:0:
256,192,26919,128,0,27278:0:0:0:0:
109,192,26919,1,0,0:0:0:0:
36,192,26919,1,0,0:0:0:0:
402,192,27188,1,0,0:0:0:0:
475,192,27188,1,0,0:0:0:0:
256,192,27368,1,0,0:0:0:0:
402,192,27368,128,0,27637:0:0:0:0:
109,192,27368,128,0,27637:0:0:0:0:
182,192,27458,1,0,0:0:0:0:
329,192,27547,1,0,0:0:0:0:
256,192,27637,5,0,0:0:0:0:
182,192,27727,5,0,0:0:0:0:
36,192,27727,128,0,28446:0:0:0:0:
329,192,27727,1,0,0:0:0:0:
475,192,27727,128,0,28446:0:0:0:0:
109,192,27817,1,0,0:0:0:0:
256,192,27907,1,0,0:0:0:0:
329,192,27997,1,0,0:0:0:0:
182,192,28086,1,0,0:0:0:0:
256,192,28176,1,0,0:0:0:0:
402,192,28266,1,0,0:0:0:0:
329,192,28356,1,0,0:0:0:0:
109,192,28446,1,0,0:0:0:0:
182,192,28535,1,0,0:0:0:0:
329,192,28625,1,0,0:0:0:0:
256,192,28715,1,0,0:0:0:0:
402,192,28805,128,0,29164:0:0:0:0:
36,192,28805,1,0,0:0:0:0:
475,192,28805,1,0,0:0:0:0:
182,192,28805,1,0,0:0:0:0:
109,192,28985,1,0,0:0:0:0:
256,192,28985,1,0,0:0:0:0:
182,192,29074,1,0,0:0:0:0:
329,192,29164,1,0,0:0:0:0:
109,192,29254,128,0,29344:0:0:0:0:
256,192,29344,128,0,29434:0:0:0:0:
402,192,29344,1,0,0:0:0:0:
329,192,29434,128,0,29523:0:0:0:0:
182,192,29434,1,0,0:0:0:0:
402,192,29523,128,0,29703:0:0:0:0:
36,192,29523,1,0,0:0:0:0:
109,192,29523,1,0,0:0:0:0:
329,192,29703,128,0,29883:0:0:0:0:
109,192,29703,1,0,0:0:0:0:
36,192,29793,1,0,0:0:0:0:
256,192,29883,128,0,30062:0:0:0:0:
182,192,29883,1,0,0:0:0:0:
475,192,29883,1,0,0:0:0:0:
402,192,30062,128,0,30242:0:0:0:0:
36,192,30062,1,0,0:0:0:0:
109,192,30152,1,0,0:0:0:0:
329,192,30242,128,0,30511:0:0:0:0:
182,192,30242,1,0,0:0:0:0:
475,192,30242,1,0,0:0:0:0:
475,192,30422,1,0,0:0:0:0:
182,192,30511,128,0,30781:0:0:0:0:
402,192,30511,1,0,0:0:0:0:
109,192,30601,1,0,0:0:0:0:
475,192,30601,1,0,0:0:0:0:
36,192,30781,128,0,31320:0:0:0:0:
329,192,30781,1,0,0:0:0:0:
256,192,30871,1,0,0:0:0:0:
109,192,30961,1,0,0:0:0:0:
402,192,30961,1,0,0:0:0:0:
256,192,31140,1,0,0:0:0:0:
329,192,31230,1,0,0:0:0:0:
182,192,31320,128,0,31499:0:0:0:0:
402,192,31320,1,0,0:0:0:0:
475,192,31320,1,0,0:0:0:0:
256,192,31499,128,0,31679:0:0:0:0:
402,192,31499,1,0,0:0:0:0:
475,192,31589,1,0,0:0:0:0:
329,192,31679,128,0,31949:0:0:0:0:
109,192,31679,1,0,0:0:0:0:
36,192,31679,1,0,0:0:0:0:
402,192,31949,128,0,32218:0:0:0:0:
329,192,32218,128,0,32398:0:0:0:0:
256,192,32398,128,0,32667:0:0:0:0:
109,192,32398,1,0,0:0:0:0:
402,192,32398,1,0,0:0:0:0:
475,192,32398,1,0,0:0:0:0:
182,192,32667,128,0,32937:0:0:0:0:
109,192,32937,128,0,33116:0:0:0:0:
256,192,33116,128,0,33835:0:0:0:0:
182,192,33116,1,0,0:0:0:0:
36,192,33116,1,0,0:0:0:0:
402,192,33116,1,0,0:0:0:0:
182,192,33835,1,0,0:0:0:0:
36,192,33835,1,0,0:0:0:0:
329,192,33835,1,0,0:0:0:0:
475,192,33835,1,0,0:0:0:0:
36,192,34194,1,0,0:0:0:0:
109,192,34194,1,0,0:0:0:0:
256,192,34194,128,0,34553:0:0:0:0:
475,192,34284,1,0,0:0:0:0:
402,192,34284,1,0,0:0:0:0:
109,192,34374,1,0,0:0:0:0:
182,192,34374,1,0,0:0:0:0:
329,192,34464,1,0,0:0:0:0:
402,192,34464,1,0,0:0:0:0:
182,192,34553,128,0,34913:0:0:0:0:
475,192,34553,1,0,0:0:0:0:
109,192,34553,1,0,0:0:0:0:
36,192,34553,1,0,0:0:0:0:
256,192,34733,1,0,0:0:0:0:
329,192,34823,1,0,0:0:0:0:
402,192,34913,1,0,0:0:0:0:
475,192,34913,1,0,0:0:0:0:
109,192,35092,128,0,35272:0:0:0:0:
329,192,35092,1,0,0:0:0:0:
256,192,35182,1,0,0:0:0:0:
182,192,35272,128,0,35452:0:0:0:0:
402,192,35272,1,0,0:0:0:0:
475,192,35272,1,0,0:0:0:0:
109,192,35452,128,0,35631:0:0:0:0:
256,192,35452,1,0,0:0:0:0:
329,192,35541,1,0,0:0:0:0:
36,192,35631,128,0,35811:0:0:0:0:
402,192,35631,1,0,0:0:0:0:
475,192,35631,1,0,0:0:0:0:
109,192,35811,128,0,35991:0:0:0:0:
329,192,35811,1,0,0:0:0:0:
402,192,35901,1,0,0:0:0:0:
256,192,35991,128,0,36260:0:0:0:0:
329,192,35991,1,0,0:0:0:0:
36,192,35991,1,0,0:0:0:0:
109,192,36170,1,0,0:0:0:0:
182,192,36260,128,0,36529:0:0:0:0:
36,192,36260,1,0,0:0:0:0:
329,192,36350,1,0,0:0:0:0:
402,192,36350,1,0,0:0:0:0:
36,192,36529,128,0,37068:0:0:0:0:
329,192,36529,1,0,0:0:0:0:
402,192,36619,1,0,0:0:0:0:
475,192,36709,1,0,0:0:0:0:
256,192,36709,1,0,0:0:0:0:
329,192,36889,1,0,0:0:0:0:
256,192,36979,1,0,0:0:0:0:
182,192,37068,1,0,0:0:0:0:
402,192,37068,1,0,0:0:0:0:
109,192,37248,128,0,37338:0:0:0:0:
256,192,37248,1,0,0:0:0:0:
36,192,37338,128,0,37428:0:0:0:0:
329,192,37338,1,0,0:0:0:0:
182,192,37428,128,0,37697:0:0:0:0:
402,192,37428,1,0,0:0:0:0:
475,192,37428,1,0,0:0:0:0:
402,192,37607,1,0,0:0:0:0:
256,192,37697,128,0,37967:0:0:0:0:
329,192,37697,1,0,0:0:0:0:
475,192,37697,1,0,0:0:0:0:
109,192,37787,1,0,0:0:0:0:
36,192,37787,1,0,0:0:0:0:
475,192,37967,128,0,38146:0:0:0:0:
109,192,37967,1,0,0:0:0:0:
182,192,38056,1,0,0:0:0:0:
402,192,38146,128,0,38416:0:0:0:0:
109,192,38146,1,0,0:0:0:0:
36,192,38146,1,0,0:0:0:0:
182,192,38326,1,0,0:0:0:0:
329,192,38416,128,0,38685:0:0:0:0:
109,192,38416,1,0,0:0:0:0:
256,192,38505,1,0,0:0:0:0:
475,192,38505,1,0,0:0:0:0:
182,192,38685,128,0,38865:0:0:0:0:
109,192,38685,1,0,0:0:0:0:
36,192,38685,1,0,0:0:0:0:
256,192,38775,1,0,0:0:0:0:
402,192,38865,128,0,39224:0:0:0:0:
475,192,38865,1,0,0:0:0:0:
329,192,38865,1,0,0:0:0:0:
109,192,38865,1,0,0:0:0:0:
36,192,38865,1,0,0:0:0:0:
36,192,39044,1,0,0:0:0:0:
182,192,39044,1,0,0:0:0:0:
329,192,39044,1,0,0:0:0:0:
475,192,39044,1,0,0:0:0:0:
475,192,39224,1,0,0:0:0:0:
329,192,39224,1,0,0:0:0:0:
182,192,39224,1,0,0:0:0:0:
109,192,39224,128,0,39943:0:0:0:0:
329,192,39404,1,0,0:0:0:0:
182,192,39404,1,0,0:0:0:0:
36,192,39404,1,0,0:0:0:0:
36,192,39583,1,0,0:0:0:0:
182,192,39583,1,0,0:0:0:0:
329,192,39763,1,0,0:0:0:0:
475,192,39763,1,0,0:0:0:0:
36,192,39943,1,0,0:0:0:0:
182,192,39943,1,0,0:0:0:0:
329,192,40032,1,0,0:0:0:0:
475,192,40032,1,0,0:0:0:0:
36,192,40122,1,0,0:0:0:0:
182,192,40122,1,0,0:0:0:0:
329,192,40212,1,0,0:0:0:0:
475,192,40212,1,0,0:0:0:0:
109,192,40302,1,0,0:0:0:0:
402,192,40302,1,0,0:0:0:0:
256,192,40302,128,0,40571:0:0:0:0:
109,192,40482,1,0,0:0:0:0:
182,192,40571,1,0,0:0:0:0:
329,192,40661,128,0,40931:0:0:0:0:
109,192,40661,1,0,0:0:0:0:
36,192,40751,1,0,0:0:0:0:
109,192,40841,1,0,0:0:0:0:
182,192,40930,1,0,0:0:0:0:
256,192,41020,1,0,0:0:0:0:
475,192,41020,128,0,41290:0:0:0:0:
256,192,41200,1,0,0:0:0:0:
182,192,41290,1,0,0:0:0:0:
329,192,41380,1,0,0:0:0:0:
109,192,41380,1,0,0:0:0:0:
402,192,41470,1,0,0:0:0:0:
256,192,41559,1,0,0:0:0:0:
475,192,41559,1,0,0:0:0:0:
329,192,41649,1,0,0:0:0:0:
182,192,41739,128,0,42008:0:0:0:0:
402,192,41739,1,0,0:0:0:0:
475,192,41919,1,0,0:0:0:0:
329,192,42008,1,0,0:0:0:0:
256,192,42098,128,0,42368:0:0:0:0:
402,192,42098,1,0,0:0:0:0:
109,192,42188,1,0,0:0:0:0:
182,192,42278,1,0,0:0:0:0:
36,192,42368,1,0,0:0:0:0:
402,192,42458,128,0,42727:0:0:0:0:
475,192,42458,1,0,0:0:0:0:
182,192,42637,1,0,0:0:0:0:
109,192,42727,1,0,0:0:0:0:
256,192,42817,1,0,0:0:0:0:
36,192,42817,1,0,0:0:0:0:
329,192,42907,1,0,0:0:0:0:
182,192,42997,1,0,0:0:0:0:
402,192,42997,1,0,0:0:0:0:
256,192,43086,1,0,0:0:0:0:
109,192,43176,128,0,43446:0:0:0:0:
329,192,43176,1,0,0:0:0:0:
475,192,43176,1,0,0:0:0:0:
256,192,43356,1,0,0:0:0:0:
329,192,43446,1,0,0:0:0:0:
182,192,43535,1,0,0:0:0:0:
256,192,43625,1,0,0:0:0:0:
182,192,43715,1,0,0:0:0:0:
329,192,43805,1,0,0:0:0:0:
256,192,43895,1,0,0:0:0:0:
36,192,43895,1,0,0:0:0:0:
329,192,44074,1,0,0:0:0:0:
182,192,44074,1,0,0:0:0:0:
36,192,44254,1,0,0:0:0:0:
402,192,44254,1,0,0:0:0:0:
329,192,44434,1,0,0:0:0:0:
109,192,44434,1,0,0:0:0:0:
256,192,44613,1,0,0:0:0:0:
36,192,44613,1,0,0:0:0:0:
475,192,44613,1,0,0:0:0:0:
109,192,44883,1,0,0:0:0:0:
256,192,44883,1,0,0:0:0:0:
36,192,44973,1,0,0:0:0:0:
182,192,44973,1,0,0:0:0:0:
329,192,44973,1,0,0:0:0:0:
256,192,45152,128,0,45691:0:0:0:0:
402,192,45152,128,0,45691:0:0:0:0:
475,192,45332,1,0,0:0:0:0:
329,192,45332,1,0,0:0:0:0:
182,192,45332,1,0,0:0:0:0:
36,192,45691,1,0,0:0:0:0:
182,192,45691,1,0,0:0:0:0:
329,192,45691,1,0,0:0:0:0:
256,192,45871,1,0,0:0:0:0:
329,192,45961,1,0,0:0:0:0:
402,192,46050,128,0,46140:0:0:0:0:
256,192,46050,1,0,0:0:0:0:
475,192,46140,128,0,46230:0:0:0:0:
329,192,46230,128,0,46320:0:0:0:0:
256,192,46320,128,0,46410:0:0:0:0:
182,192,46410,128,0,46499:0:0:0:0:
36,192,46410,1,0,0:0:0:0:
329,192,46499,128,0,46589:0:0:0:0:
109,192,46589,128,0,46679:0:0:0:0:
36,192,46679,128,0,46769:0:0:0:0:
402,192,46769,128,0,46859:0:0:0:0:
475,192,46769,1,0,0:0:0:0:
256,192,46859,128,0,46949:0:0:0:0:
182,192,46949,128,0,47038:0:0:0:0:
109,192,47038,128,0,47128:0:0:0:0:
329,192,47128,128,0,47218:0:0:0:0:
402,192,47128,1,0,0:0:0:0:
36,192,47218,128,0,47308:0:0:0:0:
182,192,47308,128,0,47398:0:0:0:0:
256,192,47398,128,0,47488:0:0:0:0:
402,192,47488,128,0,47577:0:0:0:0:
475,192,47488,1,0,0:0:0:0:
329,192,47577,128,0,47667:0:0:0:0:
182,192,47667,128,0,47757:0:0:0:0:
109,192,47757,128,0,47847:0:0:0:0:
329,192,47847,128,0,47937:0:0:0:0:
36,192,47847,1,0,0:0:0:0:
256,192,47937,128,0,48026:0:0:0:0:
402,192,48026,128,0,48116:0:0:0:0:
475,192,48116,128,0,48206:0:0:0:0:
36,192,48206,1,0,0:0:0:0:
329,192,48206,1,0,0:0:0:0:
109,192,48251,1,0,0:0:0:0:
182,192,48296,1,0,0:0:0:0:
256,192,48341,1,0,0:0:0:0:
329,192,48386,1,0,0:0:0:0:
182,192,48386,1,0,0:0:0:0:
256,192,48431,1,0,0:0:0:0:
329,192,48476,1,0,0:0:0:0:
402,192,48520,1,0,0:0:0:0:
475,192,48565,1,0,0:0:0:0:
182,192,48565,1,0,0:0:0:0:
329,192,48925,128,0,49014:0:0:0:0:
256,192,48925,1,0,0:0:0:0:
475,192,49014,128,0,49104:0:0:0:0:
182,192,49104,128,0,49194:0:0:0:0:
329,192,49194,128,0,49284:0:0:0:0:
36,192,49284,128,0,49374:0:0:0:0:
256,192,49284,1,0,0:0:0:0:
182,192,49374,128,0,49464:0:0:0:0:
109,192,49464,128,0,49553:0:0:0:0:
402,192,49553,128,0,49643:0:0:0:0:
329,192,49643,128,0,49733:0:0:0:0:
256,192,49643,1,0,0:0:0:0:
475,192,49733,128,0,49823:0:0:0:0:
36,192,49823,128,0,49913:0:0:0:0:
109,192,49913,128,0,50002:0:0:0:0:
182,192,50002,128,0,50092:0:0:0:0:
256,192,50002,1,0,0:0:0:0:
329,192,50092,128,0,50182:0:0:0:0:
402,192,50182,128,0,50272:0:0:0:0:
475,192,50272,128,0,50362:0:0:0:0:
36,192,50362,1,0,0:0:0:0:
329,192,50362,1,0,0:0:0:0:
36,192,50541,1,0,0:0:0:0:
329,192,50541,1,0,0:0:0:0:
475,192,50721,5,0,0:0:0:0:
182,192,50721,1,0,0:0:0:0:
182,192,50901,1,0,0:0:0:0:
475,192,50901,1,0,0:0:0:0:
256,192,50991,1,0,0:0:0:0:
329,192,51080,1,0,0:0:0:0:
36,192,51080,1,0,0:0:0:0:
36,192,51260,1,0,0:0:0:0:
329,192,51260,1,0,0:0:0:0:
182,192,51440,1,0,0:0:0:0:
475,192,51440,1,0,0:0:0:0:
329,192,51529,1,0,0:0:0:0:
36,192,51529,1,0,0:0:0:0:
182,192,51619,1,0,0:0:0:0:
475,192,51619,1,0,0:0:0:0:
329,192,51709,1,0,0:0:0:0:
109,192,51709,1,0,0:0:0:0:
402,192,51799,128,0,54673:0:0:0:0:
36,192,51799,1,0,0:0:0:0:
109,192,51889,1,0,0:0:0:0:
182,192,51979,1,0,0:0:0:0:
256,192,52068,1,0,0:0:0:0:
36,192,52158,1,0,0:0:0:0:
109,192,52248,1,0,0:0:0:0:
182,192,52338,1,0,0:0:0:0:
256,192,52428,1,0,0:0:0:0:
109,192,52517,1,0,0:0:0:0:
182,192,52607,1,0,0:0:0:0:
256,192,52697,1,0,0:0:0:0:
329,192,52787,1,0,0:0:0:0:
109,192,52877,1,0,0:0:0:0:
182,192,52967,1,0,0:0:0:0:
256,192,53056,1,0,0:0:0:0:
329,192,53146,1,0,0:0:0:0:
475,192,53236,1,0,0:0:0:0:
329,192,53326,1,0,0:0:0:0:
256,192,53416,1,0,0:0:0:0:
182,192,53505,1,0,0:0:0:0:
475,192,53595,1,0,0:0:0:0:
329,192,53685,1,0,0:0:0:0:
256,192,53775,1,0,0:0:0:0:
182,192,53865,1,0,0:0:0:0:
329,192,53955,1,0,0:0:0:0:
256,192,54044,1,0,0:0:0:0:
182,192,54134,1,0,0:0:0:0:
109,192,54224,1,0,0:0:0:0:
329,192,54314,1,0,0:0:0:0:
256,192,54404,1,0,0:0:0:0:
182,192,54494,1,0,0:0:0:0:
109,192,54583,1,0,0:0:0:0:
329,192,54673,128,0,56829:0:0:0:0:
36,192,54673,1,0,0:0:0:0:
256,192,54673,1,0,0:0:0:0:
109,192,54763,1,0,0:0:0:0:
182,192,54853,1,0,0:0:0:0:
256,192,54943,1,0,0:0:0:0:
109,192,55032,1,0,0:0:0:0:
182,192,55122,1,0,0:0:0:0:
256,192,55212,1,0,0:0:0:0:
402,192,55302,1,0,0:0:0:0:
36,192,55392,1,0,0:0:0:0:
182,192,55482,1,0,0:0:0:0:
109,192,55571,1,0,0:0:0:0:
256,192,55661,1,0,0:0:0:0:
109,192,55751,1,0,0:0:0:0:
256,192,55841,1,0,0:0:0:0:
182,192,55931,1,0,0:0:0:0:
402,192,56020,1,0,0:0:0:0:
475,192,56110,1,0,0:0:0:0:
256,192,56200,1,0,0:0:0:0:
182,192,56290,1,0,0:0:0:0:
402,192,56380,1,0,0:0:0:0:
475,192,56470,1,0,0:0:0:0:
402,192,56559,1,0,0:0:0:0:
256,192,56649,1,0,0:0:0:0:
182,192,56739,1,0,0:0:0:0:
402,192,56829,128,0,57547:0:0:0:0:
256,192,56829,128,0,57547:0:0:0:0:
475,192,56829,1,0,0:0:0:0:
182,192,56919,1,0,0:0:0:0:
329,192,57008,1,0,0:0:0:0:
109,192,57098,1,0,0:0:0:0:
475,192,57188,1,0,0:0:0:0:
329,192,57278,1,0,0:0:0:0:
182,192,57368,1,0,0:0:0:0:
109,192,57458,1,0,0:0:0:0:
329,192,57547,128,0,58985:0:0:0:0:
182,192,57547,128,0,58985:0:0:0:0:
36,192,57547,1,0,0:0:0:0:
109,192,57637,1,0,0:0:0:0:
256,192,57727,1,0,0:0:0:0:
402,192,57817,1,0,0:0:0:0:
36,192,57907,1,0,0:0:0:0:
109,192,57997,1,0,0:0:0:0:
256,192,58086,1,0,0:0:0:0:
402,192,58176,1,0,0:0:0:0:
109,192,58266,1,0,0:0:0:0:
256,192,58356,1,0,0:0:0:0:
402,192,58446,1,0,0:0:0:0:
475,192,58535,1,0,0:0:0:0:
109,192,58625,1,0,0:0:0:0:
256,192,58715,1,0,0:0:0:0:
402,192,58805,1,0,0:0:0:0:
475,192,58895,1,0,0:0:0:0:
109,192,58985,128,0,60422:0:0:0:0:
256,192,58985,128,0,60422:0:0:0:0:
402,192,58985,1,0,0:0:0:0:
36,192,59074,1,0,0:0:0:0:
329,192,59164,1,0,0:0:0:0:
182,192,59254,1,0,0:0:0:0:
402,192,59344,1,0,0:0:0:0:
329,192,59434,1,0,0:0:0:0:
182,192,59523,1,0,0:0:0:0:
36,192,59613,1,0,0:0:0:0:
182,192,59703,1,0,0:0:0:0:
329,192,59793,1,0,0:0:0:0:
475,192,59883,1,0,0:0:0:0:
402,192,59973,1,0,0:0:0:0:
329,192,60062,1,0,0:0:0:0:
402,192,60152,1,0,0:0:0:0:
182,192,60242,1,0,0:0:0:0:
329,192,60332,1,0,0:0:0:0:
475,192,60422,1,0,0:0:0:0:
36,192,60422,128,0,61140:0:0:0:0:
182,192,60422,128,0,61140:0:0:0:0:
329,192,60422,1,0,0:0:0:0:
256,192,61140,128,0,61859:0:0:0:0:
109,192,61140,128,0,61859:0:0:0:0:
329,192,61140,1,0,0:0:0:0:
475,192,61140,1,0,0:0:0:0:
182,192,61859,128,0,62577:0:0:0:0:
329,192,61859,128,0,62577:0:0:0:0:
402,192,61859,1,0,0:0:0:0:
475,192,61859,1,0,0:0:0:0:
402,192,62218,1,0,0:0:0:0:
475,192,62218,1,0,0:0:0:0:
256,192,62577,128,0,63296:0:0:0:0:
402,192,62577,128,0,63296:0:0:0:0:
109,192,62577,1,0,0:0:0:0:
36,192,62577,1,0,0:0:0:0:
182,192,62757,1,0,0:0:0:0:
329,192,62757,1,0,0:0:0:0:
36,192,62937,1,0,0:0:0:0:
109,192,62937,1,0,0:0:0:0:
329,192,63026,1,0,0:0:0:0:
182,192,63026,1,0,0:0:0:0:
36,192,63116,1,0,0:0:0:0:
109,192,63116,1,0,0:0:0:0:
182,192,63206,1,0,0:0:0:0:
329,192,63206,1,0,0:0:0:0:
36,192,63296,128,0,63416:0:0:0:0:
109,192,63296,1,0,0:0:0:0:
475,192,63296,1,0,0:0:0:0:
182,192,63416,128,0,63535:0:0:0:0:
329,192,63535,128,0,63655:0:0:0:0:
475,192,63655,128,0,63775:0:0:0:0:
402,192,63655,1,0,0:0:0:0:
256,192,63775,128,0,63895:0:0:0:0:
109,192,63895,128,0,64014:0:0:0:0:
402,192,64014,128,0,64134:0:0:0:0:
36,192,64014,1,0,0:0:0:0:
329,192,64134,128,0,64254:0:0:0:0:
182,192,64254,128,0,64374:0:0:0:0:
256,192,64374,128,0,64494:0:0:0:0:
329,192,64374,1,0,0:0:0:0:
109,192,64494,128,0,64613:0:0:0:0:
36,192,64613,128,0,64733:0:0:0:0:
329,192,64733,128,0,64853:0:0:0:0:
256,192,64733,1,0,0:0:0:0:
182,192,64853,128,0,64973:0:0:0:0:
36,192,64973,128,0,65092:0:0:0:0:
402,192,65092,128,0,65212:0:0:0:0:
329,192,65092,1,0,0:0:0:0:
256,192,65212,128,0,65332:0:0:0:0:
109,192,65332,128,0,65452:0:0:0:0:
475,192,65452,128,0,65571:0:0:0:0:
402,192,65452,1,0,0:0:0:0:
329,192,65571,128,0,65691:0:0:0:0:
182,192,65691,128,0,65811:0:0:0:0:
475,192,65811,128,0,65931:0:0:0:0:
109,192,65811,1,0,0:0:0:0:
402,192,65931,128,0,66050:0:0:0:0:
256,192,66050,128,0,66170:0:0:0:0:
182,192,66170,1,0,0:0:0:0:
36,192,66170,1,0,0:0:0:0:
109,192,66260,1,0,0:0:0:0:
329,192,66350,1,0,0:0:0:0:
402,192,66440,1,0,0:0:0:0:
109,192,66529,1,0,0:0:0:0:
256,192,66529,1,0,0:0:0:0:
182,192,66619,1,0,0:0:0:0:
402,192,66709,1,0,0:0:0:0:
475,192,66799,1,0,0:0:0:0:
256,192,66889,1,0,0:0:0:0:
329,192,66889,1,0,0:0:0:0:
182,192,66979,1,0,0:0:0:0:
109,192,67068,1,0,0:0:0:0:
36,192,67158,1,0,0:0:0:0:
329,192,67248,1,0,0:0:0:0:
402,192,67248,1,0,0:0:0:0:
256,192,67338,1,0,0:0:0:0:
182,192,67428,1,0,0:0:0:0:
109,192,67517,1,0,0:0:0:0:
256,192,67607,128,0,67727:0:0:0:0:
402,192,67607,1,0,0:0:0:0:
36,192,67727,128,0,67847:0:0:0:0:
182,192,67847,128,0,67967:0:0:0:0:
329,192,67967,128,0,68086:0:0:0:0:
475,192,67967,1,0,0:0:0:0:
182,192,68086,128,0,68206:0:0:0:0:
36,192,68206,128,0,68326:0:0:0:0:
109,192,68326,128,0,68446:0:0:0:0:
402,192,68326,1,0,0:0:0:0:
256,192,68446,128,0,68565:0:0:0:0:
329,192,68565,128,0,68685:0:0:0:0:
182,192,68685,128,0,68805:0:0:0:0:
475,192,68685,1,0,0:0:0:0:
109,192,68805,128,0,68925:0:0:0:0:
36,192,68925,128,0,69044:0:0:0:0:
182,192,69044,1,0,0:0:0:0:
329,192,69044,1,0,0:0:0:0:
36,192,69224,1,0,0:0:0:0:
109,192,69404,1,0,0:0:0:0:
182,192,69494,1,0,0:0:0:0:
256,192,69583,1,0,0:0:0:0:
402,192,69583,1,0,0:0:0:0:
36,192,69583,1,0,0:0:0:0:
182,192,69763,1,0,0:0:0:0:
109,192,69943,1,0,0:0:0:0:
182,192,70032,1,0,0:0:0:0:
256,192,70122,1,0,0:0:0:0:
182,192,70212,5,0,0:0:0:0:
329,192,70302,1,0,0:0:0:0:
475,192,70302,1,0,0:0:0:0:
109,192,70302,1,0,0:0:0:0:
256,192,70482,1,0,0:0:0:0:
329,192,70661,1,0,0:0:0:0:
475,192,70661,1,0,0:0:0:0:
109,192,70661,1,0,0:0:0:0:
256,192,70751,1,0,0:0:0:0:
402,192,70841,1,0,0:0:0:0:
36,192,70841,1,0,0:0:0:0:
182,192,70841,1,0,0:0:0:0:
329,192,70931,1,0,0:0:0:0:
475,192,71020,1,0,0:0:0:0:
109,192,71020,1,0,0:0:0:0:
256,192,71020,128,0,71559:0:0:0:0:
402,192,71200,1,0,0:0:0:0:
329,192,71380,1,0,0:0:0:0:
109,192,71380,128,0,71739:0:0:0:0:
402,192,71559,1,0,0:0:0:0:
256,192,71739,128,0,72098:0:0:0:0:
402,192,71739,128,0,72098:0:0:0:0:
36,192,71739,1,0,0:0:0:0:
109,192,71919,1,0,0:0:0:0:
36,192,72098,1,0,0:0:0:0:
182,192,72098,1,0,0:0:0:0:
256,192,72278,1,0,0:0:0:0:
109,192,72278,1,0,0:0:0:0:
256,192,72458,128,0,72817:0:0:0:0:
109,192,72458,128,0,72817:0:0:0:0:
329,192,72637,1,0,0:0:0:0:
475,192,72637,1,0,0:0:0:0:
329,192,72817,1,0,0:0:0:0:
475,192,72817,1,0,0:0:0:0:
402,192,72997,1,0,0:0:0:0:
182,192,72997,1,0,0:0:0:0:
182,192,73176,128,0,73535:0:0:0:0:
402,192,73176,128,0,73535:0:0:0:0:
36,192,73535,1,0,0:0:0:0:
256,192,73535,1,0,0:0:0:0:
256,192,73715,1,0,0:0:0:0:
36,192,73715,1,0,0:0:0:0:
256,192,73895,128,0,74254:0:0:0:0:
36,192,73895,128,0,74254:0:0:0:0:
402,192,74254,128,0,74434:0:0:0:0:
182,192,74254,128,0,74434:0:0:0:0:
329,192,74434,1,0,0:0:0:0:
109,192,74434,1,0,0:0:0:0:
475,192,74613,128,0,75152:0:0:0:0:
36,192,74613,128,0,75152:0:0:0:0:
256,192,74613,1,0,0:0:0:0:
329,192,74793,1,0,0:0:0:0:
182,192,74793,1,0,0:0:0:0:
109,192,75152,1,0,0:0:0:0:
402,192,75152,1,0,0:0:0:0:
329,192,75242,1,0,0:0:0:0:
256,192,75332,1,0,0:0:0:0:
182,192,75422,1,0,0:0:0:0:
402,192,75511,1,0,0:0:0:0:
109,192,75511,1,0,0:0:0:0:
329,192,75601,1,0,0:0:0:0:
36,192,75601,1,0,0:0:0:0:
256,192,75691,1,0,0:0:0:0:
475,192,75691,1,0,0:0:0:0:
182,192,75781,1,0,0:0:0:0:
402,192,75781,1,0,0:0:0:0:
109,192,75871,1,0,0:0:0:0:
329,192,75871,1,0,0:0:0:0:
36,192,75961,1,0,0:0:0:0:
256,192,75961,1,0,0:0:0:0:
182,192,76050,1,0,0:0:0:0:
402,192,76050,1,0,0:0:0:0:
109,192,76140,1,0,0:0:0:0:
329,192,76140,1,0,0:0:0:0:
36,192,76230,1,0,0:0:0:0:
256,192,76230,1,0,0:0:0:0:
329,192,76320,1,0,0:0:0:0:
109,192,76320,1,0,0:0:0:0:
402,192,76410,1,0,0:0:0:0:
182,192,76410,1,0,0:0:0:0:
475,192,76499,1,0,0:0:0:0:
256,192,76499,1,0,0:0:0:0:
329,192,76589,1,0,0:0:0:0:
36,192,76589,1,0,0:0:0:0:
402,192,76679,1,0,0:0:0:0:
109,192,76679,1,0,0:0:0:0:
475,192,76769,1,0,0:0:0:0:
182,192,76769,1,0,0:0:0:0:
329,192,76859,1,0,0:0:0:0:
36,192,76859,1,0,0:0:0:0:
109,192,76949,1,0,0:0:0:0:
402,192,76949,1,0,0:0:0:0:
182,192,77038,1,0,0:0:0:0:
475,192,77038,1,0,0:0:0:0:
256,192,77128,1,0,0:0:0:0:
36,192,77128,1,0,0:0:0:0:
329,192,77218,1,0,0:0:0:0:
109,192,77218,1,0,0:0:0:0:
402,192,77308,1,0,0:0:0:0:
182,192,77308,1,0,0:0:0:0:
256,192,77398,1,0,0:0:0:0:
329,192,77488,1,0,0:0:0:0:
402,192,77577,1,0,0:0:0:0:
182,192,77667,128,0,77847:0:0:0:0:
36,192,77667,128,0,77847:0:0:0:0:
475,192,77667,1,0,0:0:0:0:
182,192,77937,128,0,78116:0:0:0:0:
36,192,77937,128,0,78116:0:0:0:0:
329,192,78206,128,0,78386:0:0:0:0:
475,192,78206,128,0,78386:0:0:0:0:
475,192,78565,128,0,78745:0:0:0:0:
256,192,78565,128,0,78745:0:0:0:0:
402,192,78745,128,0,78925:0:0:0:0:
182,192,78745,128,0,78925:0:0:0:0:
329,192,78925,128,0,79104:0:0:0:0:
109,192,78925,128,0,79104:0:0:0:0:
475,192,79104,128,0,79284:0:0:0:0:
182,192,79104,128,0,79284:0:0:0:0:
402,192,79284,128,0,79464:0:0:0:0:
109,192,79284,128,0,79464:0:0:0:0:
329,192,79464,128,0,79643:0:0:0:0:
36,192,79464,128,0,79643:0:0:0:0:
402,192,79643,128,0,79733:0:0:0:0:
109,192,79643,128,0,79733:0:0:0:0:
182,192,79823,128,0,79913:0:0:0:0:
329,192,79823,128,0,79913:0:0:0:0:
402,192,79913,128,0,80002:0:0:0:0:
475,192,79913,128,0,80002:0:0:0:0:
329,192,80092,128,0,80272:0:0:0:0:
182,192,80092,128,0,80272:0:0:0:0:
256,192,80362,128,0,80541:0:0:0:0:
109,192,80362,128,0,80541:0:0:0:0:
182,192,80541,128,0,80721:0:0:0:0:
36,192,80541,128,0,80721:0:0:0:0:
36,192,80811,128,0,80991:0:0:0:0:
182,192,80811,128,0,80991:0:0:0:0:
256,192,81080,128,0,81260:0:0:0:0:
329,192,81080,128,0,81260:0:0:0:0:
329,192,81440,128,0,81619:0:0:0:0:
182,192,81440,128,0,81619:0:0:0:0:
256,192,81619,128,0,81799:0:0:0:0:
109,192,81619,128,0,81799:0:0:0:0:
329,192,81799,128,0,81979:0:0:0:0:
182,192,81799,128,0,81979:0:0:0:0:
402,192,81979,128,0,82158:0:0:0:0:
475,192,81979,128,0,82158:0:0:0:0:
256,192,82158,128,0,82338:0:0:0:0:
182,192,82158,128,0,82338:0:0:0:0:
109,192,82338,128,0,82517:0:0:0:0:
36,192,82338,128,0,82517:0:0:0:0:
256,192,82517,128,0,82697:0:0:0:0:
329,192,82517,128,0,82697:0:0:0:0:
402,192,82697,128,0,82787:0:0:0:0:
109,192,82697,128,0,82787:0:0:0:0:
475,192,82787,128,0,82877:0:0:0:0:
182,192,82787,128,0,82877:0:0:0:0:
402,192,82967,128,0,83146:0:0:0:0:
109,192,82967,128,0,83146:0:0:0:0:
36,192,83236,128,0,83326:0:0:0:0:
329,192,83236,128,0,83326:0:0:0:0:
36,192,83416,128,0,83595:0:0:0:0:
182,192,83416,128,0,83595:0:0:0:0:
329,192,83416,128,0,83595:0:0:0:0:
36,192,83685,128,0,83865:0:0:0:0:
182,192,83685,128,0,83865:0:0:0:0:
329,192,83685,128,0,83865:0:0:0:0:
475,192,83955,128,0,84134:0:0:0:0:
329,192,83955,128,0,84134:0:0:0:0:
182,192,83955,128,0,84134:0:0:0:0:
475,192,84314,128,0,84494:0:0:0:0:
329,192,84314,128,0,84494:0:0:0:0:
182,192,84314,128,0,84494:0:0:0:0:
402,192,84494,128,0,84673:0:0:0:0:
256,192,84494,128,0,84673:0:0:0:0:
109,192,84494,128,0,84673:0:0:0:0:
329,192,84673,128,0,84763:0:0:0:0:
182,192,84673,128,0,84763:0:0:0:0:
36,192,84673,128,0,84763:0:0:0:0:
475,192,84853,128,0,85032:0:0:0:0:
329,192,84853,128,0,85032:0:0:0:0:
182,192,84853,128,0,85032:0:0:0:0:
402,192,85032,128,0,85212:0:0:0:0:
256,192,85032,128,0,85212:0:0:0:0:
109,192,85032,128,0,85212:0:0:0:0:
36,192,85212,128,0,85392:0:0:0:0:
182,192,85212,128,0,85392:0:0:0:0:
329,192,85212,128,0,85392:0:0:0:0:
109,192,85392,128,0,85482:0:0:0:0:
256,192,85392,128,0,85482:0:0:0:0:
402,192,85392,128,0,85482:0:0:0:0:
109,192,85571,128,0,85661:0:0:0:0:
256,192,85571,128,0,85661:0:0:0:0:
402,192,85571,128,0,85661:0:0:0:0:
475,192,85661,128,0,85751:0:0:0:0:
329,192,85661,128,0,85751:0:0:0:0:
182,192,85661,128,0,85751:0:0:0:0:
402,192,85841,128,0,86020:0:0:0:0:
109,192,85841,128,0,86020:0:0:0:0:
256,192,85841,128,0,86020:0:0:0:0:
329,192,86110,128,0,86290:0:0:0:0:
182,192,86110,128,0,86290:0:0:0:0:
36,192,86110,128,0,86290:0:0:0:0:
256,192,86290,128,0,87547:0:0:0:0:
475,192,86290,1,0,0:0:0:0:
475,192,87008,1,0,0:0:0:0:
182,192,87547,128,0,87637:0:0:0:0:
256,192,87637,128,0,87727:0:0:0:0:
402,192,87727,128,0,88446:0:0:0:0:
36,192,87727,1,0,0:0:0:0:
109,192,87727,1,0,0:0:0:0:
36,192,88086,1,0,0:0:0:0:
109,192,88086,1,0,0:0:0:0:
475,192,88446,128,0,89164:0:0:0:0:
36,192,88446,1,0,0:0:0:0:
182,192,88446,1,0,0:0:0:0:
109,192,88625,1,0,0:0:0:0:
256,192,88625,1,0,0:0:0:0:
36,192,88805,1,0,0:0:0:0:
182,192,88805,1,0,0:0:0:0:
109,192,88895,1,0,0:0:0:0:
256,192,88895,1,0,0:0:0:0:
182,192,88985,1,0,0:0:0:0:
329,192,88985,1,0,0:0:0:0:
256,192,89074,1,0,0:0:0:0:
402,192,89074,1,0,0:0:0:0:
36,192,89164,128,0,89344:0:0:0:0:
182,192,89164,128,0,89344:0:0:0:0:
329,192,89164,1,0,0:0:0:0:
36,192,89434,128,0,89613:0:0:0:0:
256,192,89434,128,0,89613:0:0:0:0:
109,192,89703,128,0,89973:0:0:0:0:
402,192,89703,128,0,89973:0:0:0:0:
329,192,90062,128,0,90242:0:0:0:0:
256,192,90062,128,0,90242:0:0:0:0:
182,192,90242,128,0,90422:0:0:0:0:
109,192,90242,128,0,90422:0:0:0:0:
329,192,90422,128,0,90601:0:0:0:0:
402,192,90422,128,0,90601:0:0:0:0:
182,192,90601,128,0,90781:0:0:0:0:
256,192,90601,128,0,90781:0:0:0:0:
36,192,90781,128,0,90961:0:0:0:0:
329,192,90781,128,0,90961:0:0:0:0:
109,192,90961,128,0,91140:0:0:0:0:
402,192,90961,128,0,91140:0:0:0:0:
256,192,91140,128,0,91320:0:0:0:0:
182,192,91140,128,0,91320:0:0:0:0:
329,192,91320,1,0,0:0:0:0:
109,192,91320,1,0,0:0:0:0:
402,192,91410,128,0,91589:0:0:0:0:
36,192,91410,128,0,91589:0:0:0:0:
182,192,91589,128,0,91769:0:0:0:0:
256,192,91589,128,0,91769:0:0:0:0:
182,192,91859,128,0,92038:0:0:0:0:
402,192,91859,128,0,92038:0:0:0:0:
329,192,92038,128,0,92218:0:0:0:0:
475,192,92038,128,0,92218:0:0:0:0:
475,192,92308,128,0,92487:0:0:0:0:
256,192,92308,128,0,92487:0:0:0:0:
109,192,92577,128,0,92847:0:0:0:0:
402,192,92577,128,0,92847:0:0:0:0:
182,192,92936,128,0,93116:0:0:0:0:
256,192,92936,128,0,93116:0:0:0:0:
402,192,93116,128,0,93296:0:0:0:0:
329,192,93116,128,0,93296:0:0:0:0:
109,192,93296,128,0,93475:0:0:0:0:
182,192,93296,128,0,93475:0:0:0:0:
329,192,93475,128,0,93655:0:0:0:0:
256,192,93475,128,0,93655:0:0:0:0:
475,192,93655,128,0,93835:0:0:0:0:
182,192,93655,128,0,93835:0:0:0:0:
109,192,93835,128,0,94014:0:0:0:0:
402,192,93835,128,0,94014:0:0:0:0:
256,192,94014,128,0,94194:0:0:0:0:
329,192,94014,128,0,94194:0:0:0:0:
402,192,94194,1,0,0:0:0:0:
182,192,94194,1,0,0:0:0:0:
475,192,94284,128,0,94463:0:0:0:0:
109,192,94284,128,0,94463:0:0:0:0:
256,192,94463,128,0,94643:0:0:0:0:
329,192,94463,128,0,94643:0:0:0:0:
329,192,94733,128,0,94912:0:0:0:0:
109,192,94733,128,0,94912:0:0:0:0:
475,192,94913,128,0,96350:0:0:0:0:
36,192,94913,1,0,0:0:0:0:
402,192,94913,1,0,0:0:0:0:
109,192,95002,1,0,0:0:0:0:
182,192,95092,1,0,0:0:0:0:
109,192,95182,1,0,0:0:0:0:
36,192,95272,1,0,0:0:0:0:
402,192,95272,1,0,0:0:0:0:
109,192,95362,1,0,0:0:0:0:
182,192,95452,1,0,0:0:0:0:
109,192,95541,1,0,0:0:0:0:
36,192,95631,1,0,0:0:0:0:
329,192,95631,1,0,0:0:0:0:
256,192,95631,1,0,0:0:0:0:
109,192,95721,1,0,0:0:0:0:
182,192,95811,1,0,0:0:0:0:
109,192,95901,1,0,0:0:0:0:
329,192,95901,1,0,0:0:0:0:
36,192,95991,1,0,0:0:0:0:
402,192,95991,1,0,0:0:0:0:
109,192,96080,1,0,0:0:0:0:
182,192,96170,1,0,0:0:0:0:
329,192,96170,1,0,0:0:0:0:
109,192,96260,1,0,0:0:0:0:
36,192,96350,1,0,0:0:0:0:
402,192,96350,1,0,0:0:0:0:
256,192,96350,128,0,97607:0:0:0:0:
109,192,96440,1,0,0:0:0:0:
475,192,96529,1,0,0:0:0:0:
36,192,96619,1,0,0:0:0:0:
402,192,96709,1,0,0:0:0:0:
109,192,96799,1,0,0:0:0:0:
475,192,96889,1,0,0:0:0:0:
36,192,96979,1,0,0:0:0:0:
402,192,97068,1,0,0:0:0:0:
329,192,97068,1,0,0:0:0:0:
109,192,97158,1,0,0:0:0:0:
182,192,97158,1,0,0:0:0:0:
475,192,97248,1,0,0:0:0:0:
36,192,97338,1,0,0:0:0:0:
329,192,97338,1,0,0:0:0:0:
402,192,97428,1,0,0:0:0:0:
182,192,97428,1,0,0:0:0:0:
109,192,97517,1,0,0:0:0:0:
475,192,97607,1,0,0:0:0:0:
36,192,97607,128,0,98146:0:0:0:0:
329,192,97607,1,0,0:0:0:0:
475,192,97967,1,0,0:0:0:0:
402,192,98056,1,0,0:0:0:0:
475,192,98146,128,0,98505:0:0:0:0:
256,192,98146,1,0,0:0:0:0:
329,192,98326,1,0,0:0:0:0:
256,192,98416,1,0,0:0:0:0:
329,192,98505,128,0,98865:0:0:0:0:
109,192,98505,1,0,0:0:0:0:
36,192,98685,1,0,0:0:0:0:
109,192,98775,1,0,0:0:0:0:
36,192,98865,128,0,99224:0:0:0:0:
256,192,98865,1,0,0:0:0:0:
182,192,99044,1,0,0:0:0:0:
256,192,99134,1,0,0:0:0:0:
182,192,99224,128,0,99583:0:0:0:0:
402,192,99224,1,0,0:0:0:0:
329,192,99404,1,0,0:0:0:0:
402,192,99494,1,0,0:0:0:0:
329,192,99583,128,0,99943:0:0:0:0:
475,192,99583,1,0,0:0:0:0:
182,192,99763,1,0,0:0:0:0:
109,192,99853,1,0,0:0:0:0:
182,192,99943,128,0,100302:0:0:0:0:
36,192,99943,1,0,0:0:0:0:
329,192,100122,1,0,0:0:0:0:
475,192,100212,1,0,0:0:0:0:
329,192,100302,128,0,100661:0:0:0:0:
256,192,100302,1,0,0:0:0:0:
182,192,100482,1,0,0:0:0:0:
36,192,100571,1,0,0:0:0:0:
182,192,100661,128,0,102098:0:0:0:0:
475,192,100661,128,0,102098:0:0:0:0:
256,192,100661,1,0,0:0:0:0:
475,192,102458,5,0,0:0:0:0:
329,192,102458,128,0,102727:0:0:0:0:
402,192,102458,1,0,0:0:0:0:
182,192,102817,128,0,103086:0:0:0:0:
109,192,102817,1,0,0:0:0:0:
36,192,102817,1,0,0:0:0:0:
329,192,103176,128,0,103446:0:0:0:0:
402,192,103176,1,0,0:0:0:0:
475,192,103176,1,0,0:0:0:0:
182,192,103535,128,0,104973:0:0:0:0:
475,192,103535,1,0,0:0:0:0:
109,192,103535,1,0,0:0:0:0:
36,192,103535,1,0,0:0:0:0:
402,192,103625,1,0,0:0:0:0:
329,192,103715,1,0,0:0:0:0:
256,192,103805,1,0,0:0:0:0:
329,192,103895,1,0,0:0:0:0:
475,192,103895,1,0,0:0:0:0:
109,192,103895,1,0,0:0:0:0:
402,192,103985,1,0,0:0:0:0:
256,192,103985,1,0,0:0:0:0:
329,192,104074,1,0,0:0:0:0:
109,192,104074,1,0,0:0:0:0:
256,192,104164,1,0,0:0:0:0:
36,192,104164,1,0,0:0:0:0:
475,192,104254,1,0,0:0:0:0:
109,192,104254,1,0,0:0:0:0:
402,192,104344,1,0,0:0:0:0:
329,192,104434,1,0,0:0:0:0:
256,192,104523,1,0,0:0:0:0:
36,192,104613,1,0,0:0:0:0:
109,192,104613,1,0,0:0:0:0:
402,192,104613,1,0,0:0:0:0:
475,192,104613,1,0,0:0:0:0:
256,192,104703,1,0,0:0:0:0:
329,192,104703,1,0,0:0:0:0:
109,192,104793,1,0,0:0:0:0:
402,192,104793,1,0,0:0:0:0:
329,192,104883,1,0,0:0:0:0:
475,192,104883,1,0,0:0:0:0:
256,192,104973,128,0,106410:0:0:0:0:
402,192,104973,1,0,0:0:0:0:
109,192,104973,1,0,0:0:0:0:
36,192,104973,1,0,0:0:0:0:
182,192,105332,1,0,0:0:0:0:
402,192,105332,1,0,0:0:0:0:
475,192,105332,1,0,0:0:0:0:
36,192,105422,1,0,0:0:0:0:
329,192,105511,1,0,0:0:0:0:
109,192,105601,1,0,0:0:0:0:
402,192,105691,1,0,0:0:0:0:
36,192,105691,1,0,0:0:0:0:
182,192,105781,1,0,0:0:0:0:
475,192,105871,1,0,0:0:0:0:
329,192,105961,1,0,0:0:0:0:
182,192,106050,1,0,0:0:0:0:
402,192,106050,1,0,0:0:0:0:
475,192,106050,1,0,0:0:0:0:
36,192,106140,1,0,0:0:0:0:
329,192,106230,1,0,0:0:0:0:
402,192,106320,1,0,0:0:0:0:
329,192,106410,128,0,107847:0:0:0:0:
475,192,106410,1,0,0:0:0:0:
182,192,106410,1,0,0:0:0:0:
36,192,106410,1,0,0:0:0:0:
109,192,106499,1,0,0:0:0:0:
36,192,106589,1,0,0:0:0:0:
109,192,106679,1,0,0:0:0:0:
182,192,106769,1,0,0:0:0:0:
402,192,106769,1,0,0:0:0:0:
475,192,106769,1,0,0:0:0:0:
109,192,106859,1,0,0:0:0:0:
36,192,106949,1,0,0:0:0:0:
109,192,107038,1,0,0:0:0:0:
256,192,107038,1,0,0:0:0:0:
475,192,107128,1,0,0:0:0:0:
402,192,107128,1,0,0:0:0:0:
36,192,107128,1,0,0:0:0:0:
256,192,107218,1,0,0:0:0:0:
182,192,107218,1,0,0:0:0:0:
402,192,107308,1,0,0:0:0:0:
109,192,107308,1,0,0:0:0:0:
182,192,107398,1,0,0:0:0:0:
36,192,107398,1,0,0:0:0:0:
109,192,107488,1,0,0:0:0:0:
402,192,107488,1,0,0:0:0:0:
475,192,107488,1,0,0:0:0:0:
182,192,107547,1,0,0:0:0:0:
256,192,107607,1,0,0:0:0:0:
36,192,107667,1,0,0:0:0:0:
109,192,107727,1,0,0:0:0:0:
182,192,107787,1,0,0:0:0:0:
256,192,107847,128,0,109284:0:0:0:0:
402,192,107847,1,0,0:0:0:0:
475,192,107847,1,0,0:0:0:0:
109,192,107847,1,0,0:0:0:0:
329,192,108116,1,0,0:0:0:0:
475,192,108116,1,0,0:0:0:0:
182,192,108116,1,0,0:0:0:0:
109,192,108206,1,0,0:0:0:0:
36,192,108206,1,0,0:0:0:0:
329,192,108386,1,0,0:0:0:0:
182,192,108386,1,0,0:0:0:0:
109,192,108386,1,0,0:0:0:0:
329,192,108565,1,0,0:0:0:0:
475,192,108565,1,0,0:0:0:0:
182,192,108565,1,0,0:0:0:0:
36,192,108655,1,0,0:0:0:0:
182,192,108745,1,0,0:0:0:0:
402,192,108745,1,0,0:0:0:0:
36,192,108835,1,0,0:0:0:0:
109,192,108925,1,0,0:0:0:0:
329,192,108925,1,0,0:0:0:0:
402,192,108925,1,0,0:0:0:0:
475,192,108925,1,0,0:0:0:0:
36,192,109014,1,0,0:0:0:0:
182,192,109104,1,0,0:0:0:0:
402,192,109104,1,0,0:0:0:0:
109,192,109194,1,0,0:0:0:0:
36,192,109284,128,0,110721:0:0:0:0:
182,192,109284,128,0,110721:0:0:0:0:
475,192,109284,1,0,0:0:0:0:
329,192,109374,1,0,0:0:0:0:
402,192,109464,1,0,0:0:0:0:
256,192,109553,1,0,0:0:0:0:
329,192,109643,1,0,0:0:0:0:
475,192,109643,1,0,0:0:0:0:
402,192,109643,1,0,0:0:0:0:
109,192,109733,1,0,0:0:0:0:
256,192,109823,1,0,0:0:0:0:
329,192,109913,1,0,0:0:0:0:
475,192,110002,1,0,0:0:0:0:
256,192,110002,1,0,0:0:0:0:
402,192,110002,1,0,0:0:0:0:
109,192,110182,1,0,0:0:0:0:
402,192,110182,1,0,0:0:0:0:
256,192,110362,1,0,0:0:0:0:
475,192,110362,1,0,0:0:0:0:
329,192,110362,1,0,0:0:0:0:
109,192,110362,1,0,0:0:0:0:
329,192,110541,1,0,0:0:0:0:
475,192,110541,1,0,0:0:0:0:
402,192,110721,128,0,111440:0:0:0:0:
256,192,110721,128,0,111440:0:0:0:0:
475,192,110721,1,0,0:0:0:0:
109,192,110901,1,0,0:0:0:0:
36,192,110991,1,0,0:0:0:0:
329,192,110991,1,0,0:0:0:0:
475,192,110991,1,0,0:0:0:0:
109,192,111080,1,0,0:0:0:0:
182,192,111170,1,0,0:0:0:0:
329,192,111260,1,0,0:0:0:0:
475,192,111350,1,0,0:0:0:0:
329,192,111440,128,0,112158:0:0:0:0:
182,192,111440,128,0,112158:0:0:0:0:
109,192,111440,1,0,0:0:0:0:
36,192,111440,1,0,0:0:0:0:
402,192,111619,1,0,0:0:0:0:
475,192,111619,1,0,0:0:0:0:
36,192,111709,1,0,0:0:0:0:
109,192,111799,1,0,0:0:0:0:
256,192,111799,1,0,0:0:0:0:
256,192,111979,1,0,0:0:0:0:
402,192,111979,1,0,0:0:0:0:
109,192,112158,128,0,112697:0:0:0:0:
36,192,112158,128,0,112877:0:0:0:0:
402,192,112158,1,0,0:0:0:0:
475,192,112158,1,0,0:0:0:0:
182,192,112338,1,0,0:0:0:0:
256,192,112383,1,0,0:0:0:0:
329,192,112428,1,0,0:0:0:0:
402,192,112473,1,0,0:0:0:0:
475,192,112517,1,0,0:0:0:0:
402,192,112562,1,0,0:0:0:0:
329,192,112607,1,0,0:0:0:0:
256,192,112652,1,0,0:0:0:0:
182,192,112697,1,0,0:0:0:0:
256,192,112742,1,0,0:0:0:0:
329,192,112787,1,0,0:0:0:0:
402,192,112832,1,0,0:0:0:0:
109,192,112877,128,0,113595:0:0:0:0:
182,192,112877,128,0,113595:0:0:0:0:
256,192,112877,1,0,0:0:0:0:
475,192,112877,1,0,0:0:0:0:
36,192,113056,1,0,0:0:0:0:
256,192,113101,1,0,0:0:0:0:
329,192,113146,1,0,0:0:0:0:
402,192,113191,1,0,0:0:0:0:
475,192,113236,1,0,0:0:0:0:
36,192,113236,1,0,0:0:0:0:
402,192,113281,1,0,0:0:0:0:
329,192,113326,1,0,0:0:0:0:
256,192,113371,1,0,0:0:0:0:
36,192,113416,1,0,0:0:0:0:
256,192,113461,1,0,0:0:0:0:
475,192,113505,1,0,0:0:0:0:
256,192,113550,1,0,0:0:0:0:
329,192,113595,128,0,114314:0:0:0:0:
402,192,113595,128,0,114134:0:0:0:0:
36,192,113595,1,0,0:0:0:0:
36,192,113775,1,0,0:0:0:0:
109,192,113820,1,0,0:0:0:0:
182,192,113865,1,0,0:0:0:0:
256,192,113910,1,0,0:0:0:0:
475,192,113955,1,0,0:0:0:0:
36,192,113955,1,0,0:0:0:0:
256,192,113999,1,0,0:0:0:0:
182,192,114044,1,0,0:0:0:0:
109,192,114089,1,0,0:0:0:0:
36,192,114134,1,0,0:0:0:0:
109,192,114179,1,0,0:0:0:0:
182,192,114224,1,0,0:0:0:0:
256,192,114269,1,0,0:0:0:0:
475,192,114314,128,0,115032:0:0:0:0:
402,192,114314,128,0,115032:0:0:0:0:
36,192,114314,1,0,0:0:0:0:
109,192,114314,1,0,0:0:0:0:
256,192,114404,1,0,0:0:0:0:
182,192,114404,1,0,0:0:0:0:
36,192,114494,1,0,0:0:0:0:
109,192,114494,1,0,0:0:0:0:
329,192,114583,1,0,0:0:0:0:
256,192,114583,1,0,0:0:0:0:
36,192,114673,1,0,0:0:0:0:
182,192,114673,1,0,0:0:0:0:
109,192,114763,1,0,0:0:0:0:
329,192,114763,1,0,0:0:0:0:
36,192,114853,1,0,0:0:0:0:
256,192,114853,1,0,0:0:0:0:
329,192,114943,1,0,0:0:0:0:
182,192,114943,1,0,0:0:0:0:
109,192,115032,128,0,116470:0:0:0:0:
256,192,115032,1,0,0:0:0:0:
329,192,115122,1,0,0:0:0:0:
182,192,115122,1,0,0:0:0:0:
402,192,115212,1,0,0:0:0:0:
256,192,115212,1,0,0:0:0:0:
475,192,115302,1,0,0:0:0:0:
329,192,115302,1,0,0:0:0:0:
402,192,115392,1,0,0:0:0:0:
256,192,115392,1,0,0:0:0:0:
182,192,115482,1,0,0:0:0:0:
475,192,115482,1,0,0:0:0:0:
329,192,115571,1,0,0:0:0:0:
256,192,115571,1,0,0:0:0:0:
402,192,115661,1,0,0:0:0:0:
182,192,115661,1,0,0:0:0:0:
329,192,115751,1,0,0:0:0:0:
475,192,115751,1,0,0:0:0:0:
256,192,115841,1,0,0:0:0:0:
402,192,115841,1,0,0:0:0:0:
182,192,115931,1,0,0:0:0:0:
329,192,115931,1,0,0:0:0:0:
402,192,116020,1,0,0:0:0:0:
182,192,116110,1,0,0:0:0:0:
329,192,116110,1,0,0:0:0:0:
256,192,116200,1,0,0:0:0:0:
402,192,116200,1,0,0:0:0:0:
475,192,116290,1,0,0:0:0:0:
329,192,116290,1,0,0:0:0:0:
256,192,116380,1,0,0:0:0:0:
36,192,116470,128,0,117907:0:0:0:0:
329,192,116470,1,0,0:0:0:0:
182,192,116470,1,0,0:0:0:0:
475,192,116470,1,0,0:0:0:0:
182,192,116649,1,0,0:0:0:0:
256,192,116709,1,0,0:0:0:0:
182,192,116769,1,0,0:0:0:0:
109,192,116829,1,0,0:0:0:0:
256,192,117008,1,0,0:0:0:0:
329,192,117068,1,0,0:0:0:0:
256,192,117128,1,0,0:0:0:0:
182,192,117188,1,0,0:0:0:0:
329,192,117368,1,0,0:0:0:0:
402,192,117428,1,0,0:0:0:0:
329,192,117488,1,0,0:0:0:0:
256,192,117547,1,0,0:0:0:0:
402,192,117727,5,0,0:0:0:0:
475,192,117787,1,0,0:0:0:0:
402,192,117847,1,0,0:0:0:0:
256,192,117907,128,0,118625:0:0:0:0:
329,192,117907,1,0,0:0:0:0:
182,192,117907,1,0,0:0:0:0:
109,192,117997,1,0,0:0:0:0:
36,192,118086,1,0,0:0:0:0:
182,192,118176,1,0,0:0:0:0:
109,192,118266,1,0,0:0:0:0:
36,192,118356,1,0,0:0:0:0:
109,192,118446,1,0,0:0:0:0:
182,192,118535,1,0,0:0:0:0:
329,192,118625,128,0,119344:0:0:0:0:
109,192,118625,1,0,0:0:0:0:
402,192,118625,1,0,0:0:0:0:
182,192,118715,1,0,0:0:0:0:
36,192,118715,1,0,0:0:0:0:
109,192,118805,1,0,0:0:0:0:
256,192,118805,1,0,0:0:0:0:
402,192,118895,1,0,0:0:0:0:
182,192,118895,1,0,0:0:0:0:
256,192,118985,1,0,0:0:0:0:
36,192,118985,1,0,0:0:0:0:
402,192,119074,1,0,0:0:0:0:
182,192,119074,1,0,0:0:0:0:
256,192,119164,1,0,0:0:0:0:
109,192,119164,1,0,0:0:0:0:
182,192,119254,1,0,0:0:0:0:
36,192,119254,1,0,0:0:0:0:
402,192,119344,128,0,120062:0:0:0:0:
256,192,119344,1,0,0:0:0:0:
109,192,119344,1,0,0:0:0:0:
256,192,119523,1,0,0:0:0:0:
329,192,119583,1,0,0:0:0:0:
256,192,119643,1,0,0:0:0:0:
182,192,119703,1,0,0:0:0:0:
109,192,119763,1,0,0:0:0:0:
36,192,119823,1,0,0:0:0:0:
109,192,119883,1,0,0:0:0:0:
256,192,119883,1,0,0:0:0:0:
182,192,119973,1,0,0:0:0:0:
329,192,119973,1,0,0:0:0:0:
475,192,120062,128,0,120781:0:0:0:0:
109,192,120062,1,0,0:0:0:0:
256,192,120062,1,0,0:0:0:0:
182,192,120152,1,0,0:0:0:0:
36,192,120152,1,0,0:0:0:0:
109,192,120242,1,0,0:0:0:0:
256,192,120242,1,0,0:0:0:0:
329,192,120332,1,0,0:0:0:0:
182,192,120332,1,0,0:0:0:0:
402,192,120422,1,0,0:0:0:0:
256,192,120422,1,0,0:0:0:0:
329,192,120511,1,0,0:0:0:0:
182,192,120511,1,0,0:0:0:0:
256,192,120601,1,0,0:0:0:0:
109,192,120601,1,0,0:0:0:0:
182,192,120661,1,0,0:0:0:0:
256,192,120721,1,0,0:0:0:0:
36,192,120781,128,0,122218:0:0:0:0:
109,192,120781,1,0,0:0:0:0:
182,192,120841,1,0,0:0:0:0:
256,192,120901,1,0,0:0:0:0:
329,192,120961,1,0,0:0:0:0:
402,192,121020,1,0,0:0:0:0:
475,192,121080,1,0,0:0:0:0:
256,192,121140,1,0,0:0:0:0:
182,192,121200,1,0,0:0:0:0:
109,192,121260,1,0,0:0:0:0:
475,192,121320,1,0,0:0:0:0:
402,192,121380,1,0,0:0:0:0:
329,192,121440,1,0,0:0:0:0:
256,192,121499,1,0,0:0:0:0:
109,192,121589,1,0,0:0:0:0:
329,192,121589,1,0,0:0:0:0:
182,192,121679,1,0,0:0:0:0:
402,192,121679,1,0,0:0:0:0:
256,192,121769,1,0,0:0:0:0:
475,192,121769,1,0,0:0:0:0:
402,192,121859,1,0,0:0:0:0:
182,192,121859,1,0,0:0:0:0:
109,192,121949,1,0,0:0:0:0:
329,192,121949,1,0,0:0:0:0:
475,192,122038,1,0,0:0:0:0:
256,192,122038,1,0,0:0:0:0:
402,192,122128,1,0,0:0:0:0:
182,192,122128,1,0,0:0:0:0:
475,192,122218,128,0,123655:0:0:0:0:
329,192,122218,1,0,0:0:0:0:
109,192,122218,1,0,0:0:0:0:
256,192,122278,1,0,0:0:0:0:
182,192,122338,1,0,0:0:0:0:
329,192,122398,1,0,0:0:0:0:
256,192,122458,1,0,0:0:0:0:
109,192,122517,1,0,0:0:0:0:
402,192,122577,1,0,0:0:0:0:
329,192,122637,1,0,0:0:0:0:
182,192,122697,1,0,0:0:0:0:
402,192,122757,1,0,0:0:0:0:
256,192,122817,1,0,0:0:0:0:
182,192,122877,1,0,0:0:0:0:
36,192,122937,1,0,0:0:0:0:
109,192,123026,1,0,0:0:0:0:
182,192,123116,1,0,0:0:0:0:
256,192,123206,1,0,0:0:0:0:
402,192,123296,1,0,0:0:0:0:
329,192,123386,1,0,0:0:0:0:
256,192,123476,1,0,0:0:0:0:
182,192,123565,1,0,0:0:0:0:
256,192,123655,128,0,124194:0:0:0:0:
402,192,123655,128,0,124194:0:0:0:0:
36,192,123655,1,0,0:0:0:0:
109,192,123655,1,0,0:0:0:0:
182,192,123745,1,0,0:0:0:0:
329,192,123835,1,0,0:0:0:0:
36,192,124014,1,0,0:0:0:0:
182,192,124014,1,0,0:0:0:0:
109,192,124104,1,0,0:0:0:0:
329,192,124194,128,0,125092:0:0:0:0:
475,192,124194,128,0,125092:0:0:0:0:
182,192,124194,1,0,0:0:0:0:
36,192,124374,1,0,0:0:0:0:
109,192,124374,1,0,0:0:0:0:
182,192,124464,1,0,0:0:0:0:
256,192,124553,1,0,0:0:0:0:
36,192,124733,1,0,0:0:0:0:
182,192,124733,1,0,0:0:0:0:
109,192,124823,1,0,0:0:0:0:
182,192,124913,1,0,0:0:0:0:
256,192,125092,128,0,125631:0:0:0:0:
109,192,125092,128,0,125631:0:0:0:0:
36,192,125092,1,0,0:0:0:0:
182,192,125092,1,0,0:0:0:0:
402,192,125182,1,0,0:0:0:0:
475,192,125272,1,0,0:0:0:0:
36,192,125452,1,0,0:0:0:0:
182,192,125452,1,0,0:0:0:0:
402,192,125541,1,0,0:0:0:0:
329,192,125631,128,0,126529:0:0:0:0:
475,192,125631,128,0,126529:0:0:0:0:
182,192,125631,1,0,0:0:0:0:
256,192,125811,1,0,0:0:0:0:
402,192,125811,1,0,0:0:0:0:
182,192,125901,1,0,0:0:0:0:
109,192,125991,1,0,0:0:0:0:
36,192,126170,1,0,0:0:0:0:
182,192,126170,1,0,0:0:0:0:
109,192,126260,1,0,0:0:0:0:
182,192,126350,1,0,0:0:0:0:
256,192,126529,128,0,127068:0:0:0:0:
402,192,126529,128,0,127068:0:0:0:0:
36,192,126529,1,0,0:0:0:0:
109,192,126529,1,0,0:0:0:0:
182,192,126619,1,0,0:0:0:0:
329,192,126709,1,0,0:0:0:0:
36,192,126889,1,0,0:0:0:0:
182,192,126889,1,0,0:0:0:0:
109,192,126979,1,0,0:0:0:0:
329,192,127068,128,0,127967:0:0:0:0:
475,192,127068,128,0,127967:0:0:0:0:
182,192,127068,1,0,0:0:0:0:
182,192,127248,1,0,0:0:0:0:
402,192,127248,1,0,0:0:0:0:
109,192,127338,1,0,0:0:0:0:
256,192,127428,1,0,0:0:0:0:
36,192,127607,1,0,0:0:0:0:
182,192,127607,1,0,0:0:0:0:
256,192,127697,1,0,0:0:0:0:
402,192,127787,1,0,0:0:0:0:
256,192,127967,128,0,128326:0:0:0:0:
109,192,127967,128,0,128326:0:0:0:0:
182,192,127967,1,0,0:0:0:0:
36,192,127967,1,0,0:0:0:0:
402,192,128056,1,0,0:0:0:0:
182,192,128146,1,0,0:0:0:0:
475,192,128326,1,0,0:0:0:0:
109,192,128535,1,0,0:0:0:0:
475,192,128685,1,0,0:0:0:0:
36,192,128745,1,0,0:0:0:0:
402,192,128797,1,0,0:0:0:0:
329,192,128977,1,0,0:0:0:0:
475,192,129044,1,0,0:0:0:0:
36,192,129104,1,0,0:0:0:0:
256,192,129194,1,0,0:0:0:0:
402,192,129224,128,0,129404:0:0:0:0:
109,192,129254,1,0,0:0:0:0:
182,192,129344,1,0,0:0:0:0:
475,192,129404,128,0,130482:0:0:0:0:
36,192,129434,1,0,0:0:0:0:
402,192,129516,1,0,0:0:0:0:
256,192,129561,1,0,0:0:0:0:
329,192,129673,1,0,0:0:0:0:
109,192,129785,1,0,0:0:0:0:
256,192,129808,1,0,0:0:0:0:
36,192,129875,1,0,0:0:0:0:
182,192,129898,1,0,0:0:0:0:
109,192,129943,1,0,0:0:0:0:
402,192,130032,1,0,0:0:0:0:
329,192,130100,1,0,0:0:0:0:
109,192,130145,1,0,0:0:0:0:
256,192,130190,1,0,0:0:0:0:
182,192,130235,1,0,0:0:0:0:
109,192,130369,1,0,0:0:0:0:
256,192,130459,1,0,0:0:0:0:
402,192,130482,128,0,130571:0:0:0:0:
36,192,130549,1,0,0:0:0:0:
329,192,130571,128,0,130661:0:0:0:0:
182,192,130594,1,0,0:0:0:0:
109,192,130639,1,0,0:0:0:0:
256,192,130661,128,0,130751:0:0:0:0:
475,192,130706,1,0,0:0:0:0:
182,192,130751,128,0,130841:0:0:0:0:
36,192,130773,1,0,0:0:0:0:
402,192,130818,1,0,0:0:0:0:
109,192,130841,128,0,131919:0:0:0:0:
256,192,130863,1,0,0:0:0:0:
402,192,130931,1,0,0:0:0:0:
36,192,131043,1,0,0:0:0:0:
402,192,131110,1,0,0:0:0:0:
182,192,131200,1,0,0:0:0:0:
329,192,131245,1,0,0:0:0:0:
475,192,131357,1,0,0:0:0:0:
329,192,131402,1,0,0:0:0:0:
256,192,131470,1,0,0:0:0:0:
182,192,131559,1,0,0:0:0:0:
36,192,131672,1,0,0:0:0:0:
475,192,131717,1,0,0:0:0:0:
402,192,131784,1,0,0:0:0:0:
329,192,131851,1,0,0:0:0:0:
256,192,131919,1,0,0:0:0:0:
36,192,131919,1,0,0:0:0:0:
182,192,131986,1,0,0:0:0:0:
109,192,132053,1,0,0:0:0:0:
36,192,132098,1,0,0:0:0:0:
256,192,132098,128,0,132278:0:0:0:0:
475,192,132121,1,0,0:0:0:0:
402,192,132143,1,0,0:0:0:0:
329,192,132166,1,0,0:0:0:0:
182,192,132188,1,0,0:0:0:0:
109,192,132211,1,0,0:0:0:0:
36,192,132233,1,0,0:0:0:0:
475,192,132278,1,0,0:0:0:0:
182,192,132368,1,0,0:0:0:0:
402,192,132368,1,0,0:0:0:0:
109,192,132458,1,0,0:0:0:0:
475,192,132458,1,0,0:0:0:0:
182,192,132547,1,0,0:0:0:0:
402,192,132547,1,0,0:0:0:0:
36,192,132637,1,0,0:0:0:0:
475,192,132637,1,0,0:0:0:0:
109,192,132727,1,0,0:0:0:0:
402,192,132727,1,0,0:0:0:0:
182,192,132817,1,0,0:0:0:0:
475,192,132817,1,0,0:0:0:0:
402,192,132907,1,0,0:0:0:0:
256,192,132907,1,0,0:0:0:0:
109,192,132997,1,0,0:0:0:0:
475,192,132997,1,0,0:0:0:0:
256,192,133086,1,0,0:0:0:0:
402,192,133086,1,0,0:0:0:0:
182,192,133176,1,0,0:0:0:0:
475,192,133176,1,0,0:0:0:0:
329,192,133266,1,0,0:0:0:0:
402,192,133266,1,0,0:0:0:0:
182,192,133356,1,0,0:0:0:0:
475,192,133356,1,0,0:0:0:0:
256,192,133446,1,0,0:0:0:0:
402,192,133446,1,0,0:0:0:0:
109,192,133535,1,0,0:0:0:0:
475,192,133535,1,0,0:0:0:0:
256,192,133625,1,0,0:0:0:0:
402,192,133625,1,0,0:0:0:0:
182,192,133715,1,0,0:0:0:0:
109,192,133715,1,0,0:0:0:0:
402,192,133805,1,0,0:0:0:0:
36,192,133805,1,0,0:0:0:0:
329,192,133895,1,0,0:0:0:0:
109,192,133895,1,0,0:0:0:0:
256,192,133985,1,0,0:0:0:0:
36,192,133985,1,0,0:0:0:0:
329,192,134074,1,0,0:0:0:0:
109,192,134074,1,0,0:0:0:0:
182,192,134164,1,0,0:0:0:0:
36,192,134164,1,0,0:0:0:0:
402,192,134254,1,0,0:0:0:0:
109,192,134254,1,0,0:0:0:0:
256,192,134344,1,0,0:0:0:0:
36,192,134344,1,0,0:0:0:0:
329,192,134434,1,0,0:0:0:0:
109,192,134434,1,0,0:0:0:0:
475,192,134523,1,0,0:0:0:0:
36,192,134523,1,0,0:0:0:0:
256,192,134613,1,0,0:0:0:0:
109,192,134613,1,0,0:0:0:0:
402,192,134703,1,0,0:0:0:0:
36,192,134703,1,0,0:0:0:0:
329,192,134793,1,0,0:0:0:0:
109,192,134793,1,0,0:0:0:0:
402,192,134883,1,0,0:0:0:0:
36,192,134883,1,0,0:0:0:0:
256,192,134973,1,0,0:0:0:0:
109,192,134973,1,0,0:0:0:0:
475,192,135062,1,0,0:0:0:0:
36,192,135062,1,0,0:0:0:0:
475,192,135511,128,0,139104:0:0:0:0:
329,192,135511,128,0,139104:0:0:0:0:
256,192,135511,128,0,139104:0:0:0:0:
109,192,135511,128,0,139104:0:0:0:0:
36,192,135511,128,0,139104:0:0:0:0:
