osu file format v14

[General]
AudioFilename: yuasahina - haelequin.mp3
AudioLeadIn: 0
PreviewTime: 102651
Countdown: 0
SampleSet: Normal
StackLeniency: 0.7
Mode: 1
LetterboxInBreaks: 0
WidescreenStoryboard: 0

[Editor]
DistanceSpacing: 1.1
BeatDivisor: 2
GridSize: 16
TimelineZoom: 1

[Metadata]
Title:HAELEQUIN
TitleUnicode:HAELEQUIN
Artist:orangentle
ArtistUnicode:orangentle
Creator:[I]MMoRTal[S]
Version:Kantan
Source:BMS
Tags:Yu_Asahina アサヒナユウ orgt papyrus ユーアサヒナ
BeatmapID:547397
BeatmapSetID:236302

[Difficulty]
HPDrainRate:2
CircleSize:2
OverallDifficulty:2
ApproachRate:2
SliderMultiplier:1.2
SliderTickRate:1

[Events]
//Background and Video events
0,0,"BG.jpg",0,90
//Break Periods
//Storyboard Layer 0 (Background)
//Storyboard Layer 1 (Fail)
//Storyboard Layer 2 (Pass)
//Storyboard Layer 3 (Foreground)
//Storyboard Sound Samples

[TimingPoints]
616,359.281437125748,4,1,0,100,1,0
616,-100,4,1,0,100,0,1
13550,-100,4,1,0,100,0,0
102651,-100,4,1,0,100,0,1
138220,-100,4,1,0,100,0,0

[HitObjects]
256,192,616,5,4,0:0:0:0:
256,192,1693,1,0,0:0:0:0:
256,192,2771,1,0,0:0:0:0:
256,192,3130,1,0,0:0:0:0:
256,192,3490,1,4,0:0:0:0:
256,192,4568,1,0,0:0:0:0:
256,192,5645,1,0,0:0:0:0:
256,192,6364,1,12,0:0:0:0:
256,192,7801,1,8,0:0:0:0:
256,192,9238,1,8,0:0:0:0:
256,192,10675,1,8,0:0:0:0:
256,192,11035,1,0,0:0:0:0:
256,192,12113,1,8,0:0:0:0:
256,192,13550,1,4,0:0:0:0:
256,192,14089,1,0,0:0:0:0:
256,192,14987,1,0,0:0:0:0:
256,192,15526,1,0,0:0:0:0:
256,192,16424,1,12,0:0:0:0:
256,192,16963,1,8,0:0:0:0:
256,192,17861,1,8,0:0:0:0:
256,192,18400,1,8,0:0:0:0:
256,192,19298,1,0,0:0:0:0:
256,192,19837,1,0,0:0:0:0:
256,192,20376,1,0,0:0:0:0:
256,192,20735,1,0,0:0:0:0:
256,192,22172,1,12,0:0:0:0:
256,192,23610,1,0,0:0:0:0:
256,192,25047,1,12,0:0:0:0:
256,192,26484,1,12,0:0:0:0:
256,192,26843,1,12,0:0:0:0:
256,192,27921,1,4,0:0:0:0:
256,192,29358,1,8,0:0:0:0:
256,192,30795,1,4,0:0:0:0:
256,192,31514,1,4,0:0:0:0:
256,192,32232,1,4,0:0:0:0:
256,192,32951,1,4,0:0:0:0:
256,192,33310,1,0,0:0:0:0:
256,192,33669,1,8,0:0:0:0:
256,192,35107,1,8,0:0:0:0:
256,192,36544,1,12,0:0:0:0:
256,192,37262,1,12,0:0:0:0:
256,192,37981,1,12,0:0:0:0:
256,192,38340,1,0,0:0:0:0:
256,192,39418,1,4,0:0:0:0:
256,192,40136,1,0,0:0:0:0:
256,192,40855,1,8,0:0:0:0:
256,192,41574,1,0,0:0:0:0:
256,192,42292,1,4,0:0:0:0:
256,192,43011,1,0,0:0:0:0:
256,192,43729,1,8,0:0:0:0:
256,192,44089,1,8,0:0:0:0:
256,192,44448,1,8,0:0:0:0:
256,192,44807,1,8,0:0:0:0:
256,192,45166,1,0,0:0:0:0:
256,192,46604,1,8,0:0:0:0:
256,192,47322,1,0,0:0:0:0:
256,192,47681,1,8,0:0:0:0:
256,192,48041,1,0,0:0:0:0:
256,192,49478,1,8,0:0:0:0:
256,192,50196,1,8,0:0:0:0:
256,192,50915,1,4,0:0:0:0:
256,192,52352,1,8,0:0:0:0:
256,192,53789,1,0,0:0:0:0:
256,192,55226,1,8,0:0:0:0:
256,192,56663,1,0,0:0:0:0:
256,192,58101,1,8,0:0:0:0:
256,192,59538,1,4,0:0:0:0:
256,192,60256,1,0,0:0:0:0:
256,192,60975,1,8,0:0:0:0:
256,192,61693,1,8,0:0:0:0:
256,192,62412,1,4,0:0:0:0:
256,192,63849,1,8,0:0:0:0:
256,192,65286,1,0,0:0:0:0:
256,192,66005,1,0,0:0:0:0:
256,192,66723,1,8,0:0:0:0:
256,192,67442,1,8,0:0:0:0:
256,192,68160,1,0,0:0:0:0:
256,192,69418,1,12,0:0:0:0:
256,192,70855,1,12,0:0:0:0:
256,192,72292,1,12,0:0:0:0:
256,192,73909,1,12,0:0:0:0:
256,192,75346,1,4,0:0:0:0:
256,192,76783,1,8,0:0:0:0:
256,192,79657,1,8,0:0:0:0:
256,192,81095,1,0,0:0:0:0:
256,192,82532,1,0,0:0:0:0:
256,192,85406,1,4,0:0:0:0:
256,192,86124,1,0,0:0:0:0:
256,192,86843,1,0,0:0:0:0:
256,192,87202,1,0,0:0:0:0:
256,192,87562,1,0,0:0:0:0:
256,192,87921,1,0,0:0:0:0:
256,192,88280,1,4,0:0:0:0:
256,192,89717,1,8,0:0:0:0:
256,192,91154,1,0,0:0:0:0:
256,192,92592,1,8,0:0:0:0:
256,192,94029,1,0,0:0:0:0:
256,192,95466,1,8,0:0:0:0:
256,192,96723,1,0,0:0:0:0:
256,192,97262,1,0,0:0:0:0:
256,192,97981,1,0,0:0:0:0:
256,192,98699,1,0,0:0:0:0:
256,192,99418,1,0,0:0:0:0:
256,192,99777,1,4,0:0:0:0:
256,192,101574,1,8,0:0:0:0:
256,192,101933,1,8,0:0:0:0:
256,192,102292,1,8,0:0:0:0:
256,192,102651,1,0,0:0:0:0:
256,192,104089,1,0,0:0:0:0:
256,192,105526,1,8,0:0:0:0:
256,192,106963,1,8,0:0:0:0:
256,192,108400,1,8,0:0:0:0:
256,192,109837,1,0,0:0:0:0:
256,192,111274,1,0,0:0:0:0:
256,192,111633,1,8,0:0:0:0:
256,192,111993,1,0,0:0:0:0:
256,192,112711,1,0,0:0:0:0:
256,192,113071,1,8,0:0:0:0:
256,192,113430,1,0,0:0:0:0:
256,192,114148,1,12,0:0:0:0:
256,192,115586,1,8,0:0:0:0:
256,192,117023,1,8,0:0:0:0:
256,192,117741,1,8,0:0:0:0:
256,192,118460,1,8,0:0:0:0:
256,192,119897,1,4,0:0:0:0:
256,192,121154,1,8,0:0:0:0:
256,192,121334,1,0,0:0:0:0:
256,192,122771,1,4,0:0:0:0:
256,192,124208,1,0,0:0:0:0:
256,192,125645,1,8,0:0:0:0:
256,192,127083,1,0,0:0:0:0:
256,192,128520,1,8,0:0:0:0:
256,192,129957,1,0,0:0:0:0:
256,192,131035,1,0,0:0:0:0:
256,192,131214,1,8,0:0:0:0:
256,192,133909,1,0,0:0:0:0:
256,192,134627,12,0,138220,0:0:0:0:
