osu file format v13

[General]
AudioFilename: haelequin.mp3
AudioLeadIn: 0
PreviewTime: 268844
Countdown: 0
SampleSet: Normal
StackLeniency: 0.7
Mode: 3
LetterboxInBreaks: 0
SpecialStyle: 0
WidescreenStoryboard: 1

[Editor]
Bookmarks: 42686
DistanceSpacing: 1.3
BeatDivisor: 4
GridSize: 4
TimelineZoom: 1.700001

[Metadata]
Title:HAELEQUIN
TitleUnicode:HAELEQUIN
Artist:orangentle / Yu_Asahina
ArtistUnicode:orangentle / Yu_Asahina
Creator:Chocoliti
Version:NOV
Source:SOUND VOLTEX II -infinite infection-
Tags:dissociative identity disordered ethereal_v deadblue238 BOF2012 Bemani sdvx konami
BeatmapID:450105
BeatmapSetID:174550

[Difficulty]
HPDrainRate:7
CircleSize:4
OverallDifficulty:7
ApproachRate:5
SliderMultiplier:1.4
SliderTickRate:1

[Events]
//Background and Video events
0,0,"bg2.jpg",0,0
//Break Periods
//Storyboard Layer 0 (Background)
//Storyboard Layer 1 (Fail)
//Storyboard Layer 2 (Pass)
//Storyboard Layer 3 (Foreground)
//Storyboard Sound Samples
//Background Colour Transformations
3,100,163,162,255

[TimingPoints]
-367,348.837209302326,4,1,1,20,1,0
62423,-100,4,1,1,20,0,1
68004,-100,4,1,1,20,0,0
76377,-100,4,1,1,20,0,1
95911,-100,4,1,1,20,0,0

[HitObjects]
448,192,330,5,0,0:0:0:13:
64,192,330,1,0,0:0:0:13:
192,192,679,1,0,0:0:0:26:
64,192,766,1,0,0:0:0:26:
192,192,853,1,0,0:0:0:26:
320,192,941,1,0,0:0:0:26:
448,192,1028,1,4,0:0:0:26:
64,192,1551,1,4,0:0:0:26:
320,192,2074,1,4,0:0:0:26:
64,192,2598,1,4,0:0:0:26:
448,192,3121,1,4,0:0:0:26:
192,192,3208,1,0,0:0:0:26:
448,192,3295,1,0,0:0:0:26:
192,192,3383,1,0,0:0:0:26:
448,192,3470,1,4,0:0:0:26:
320,192,3819,1,4,0:0:0:26:
192,192,4342,1,4,0:0:0:26:
64,192,4865,1,4,0:0:0:26:
320,192,5388,1,4,0:0:0:26:
64,192,5912,1,4,0:0:0:26:
320,192,5999,1,0,0:0:0:26:
64,192,6086,1,0,0:0:0:26:
320,192,6173,1,0,0:0:0:26:
64,192,6260,1,4,0:0:0:26:
192,192,6435,1,0,0:0:0:26:
320,192,6522,1,0,0:0:0:26:
448,192,6609,1,2,0:0:0:26:
64,192,6958,1,2,0:0:0:26:
448,192,7307,1,2,0:0:0:26:
320,192,7656,1,2,0:0:0:26:
64,192,7830,1,0,0:0:0:26:
192,192,7917,1,0,0:0:0:26:
320,192,8005,1,2,0:0:0:26:
64,192,8353,1,2,0:0:0:26:
192,192,8702,1,2,0:0:0:26:
320,192,9051,1,2,0:0:0:26:
192,192,9226,1,0,0:0:0:26:
320,192,9313,1,0,0:0:0:26:
448,192,9400,1,2,0:0:0:26:
320,192,9749,1,2,0:0:0:26:
192,192,10098,1,2,0:0:0:26:
64,192,10446,1,2,0:0:0:26:
448,192,10621,1,0,0:0:0:26:
320,192,10795,1,0,0:0:0:13:
192,192,10795,1,2,0:0:0:13:
64,192,11144,128,4,12888:0:0:0:13:
448,192,11144,128,0,12191:0:0:0:13:
192,192,12191,128,0,12888:0:0:0:26:
320,192,12888,128,0,13586:0:0:0:26:
64,192,13586,1,0,0:0:0:13:
448,192,13586,1,0,0:0:0:13:
448,192,14109,1,0,0:0:0:26:
448,192,14633,1,0,0:0:0:26:
448,192,14981,1,0,0:0:0:26:
448,192,15505,1,0,0:0:0:26:
64,192,16028,1,0,0:0:0:26:
192,192,16115,1,0,0:0:0:26:
320,192,16202,1,0,0:0:0:26:
448,192,16289,1,0,0:0:0:26:
64,192,16377,1,4,0:0:0:26:
192,192,16813,1,0,0:0:0:26:
320,192,16900,1,0,0:0:0:26:
448,192,16987,1,0,0:0:0:26:
320,192,17074,1,0,0:0:0:26:
192,192,17249,1,0,0:0:0:26:
64,192,17423,1,0,0:0:0:26:
320,192,17598,1,0,0:0:0:26:
192,192,17772,1,0,0:0:0:26:
64,192,18034,1,0,0:0:0:26:
448,192,18295,1,0,0:0:0:26:
192,192,18470,1,0,0:0:0:26:
448,192,18644,1,0,0:0:0:26:
192,192,18819,1,0,0:0:0:26:
64,192,18993,1,0,0:0:0:26:
192,192,19080,1,0,0:0:0:26:
320,192,19167,1,0,0:0:0:26:
64,192,19691,1,0,0:0:0:26:
192,192,19778,1,0,0:0:0:26:
448,192,19865,1,0,0:0:0:26:
320,192,20039,1,0,0:0:0:26:
192,192,20214,1,0,0:0:0:26:
64,192,20388,1,0,0:0:0:26:
448,192,20563,128,0,21086:0:0:0:26:
64,192,21086,1,0,0:0:0:26:
192,192,21435,1,0,0:0:0:26:
320,192,21609,1,0,0:0:0:26:
448,192,21784,1,0,0:0:0:26:
64,192,21958,1,4,0:0:0:26:
320,192,22220,1,4,0:0:0:26:
64,192,22481,1,4,0:0:0:26:
192,192,23005,1,0,0:0:0:26:
320,192,23092,1,0,0:0:0:0:
192,192,23179,1,0,0:0:0:0:
320,192,23266,1,0,0:0:0:0:
64,192,23353,1,4,0:0:0:0:
448,192,23528,1,4,0:0:0:0:
192,192,23702,1,4,0:0:0:0:
448,192,23877,1,4,0:0:0:0:
320,192,24400,1,0,0:0:0:26:
192,192,24487,1,0,0:0:0:26:
320,192,24574,1,0,0:0:0:26:
192,192,24662,1,0,0:0:0:26:
448,192,24749,1,0,0:0:0:26:
64,192,25272,1,0,0:0:0:26:
320,192,25446,1,0,0:0:0:26:
448,192,25708,1,0,0:0:0:26:
320,192,25970,1,0,0:0:0:26:
320,192,26144,1,0,0:0:0:26:
192,192,26493,1,0,0:0:0:26:
64,192,27278,1,0,0:0:0:26:
192,192,27365,1,0,0:0:0:26:
320,192,27452,1,0,0:0:0:26:
448,192,27539,1,0,0:0:0:26:
64,192,27976,1,0,0:0:0:26:
192,192,28063,1,0,0:0:0:26:
320,192,28150,1,0,0:0:0:26:
448,192,28237,1,0,0:0:0:26:
320,192,28412,1,0,0:0:0:26:
192,192,28586,1,0,0:0:0:26:
448,192,28760,1,0,0:0:0:26:
320,192,28935,1,0,0:0:0:26:
192,192,29196,1,0,0:0:0:26:
64,192,29458,1,0,0:0:0:26:
192,192,29981,1,0,0:0:0:26:
320,192,30156,1,0,0:0:0:26:
448,192,30330,1,0,0:0:0:26:
64,192,30592,1,0,0:0:0:26:
448,192,30853,1,0,0:0:0:26:
320,192,31028,1,0,0:0:0:26:
192,192,31289,1,0,0:0:0:26:
64,192,31551,1,0,0:0:0:26:
448,192,31726,1,0,0:0:0:0:
192,192,31813,1,0,0:0:0:0:
448,192,31900,1,0,0:0:0:0:
192,192,31987,1,0,0:0:0:0:
448,192,32074,1,0,0:0:0:0:
64,192,32423,1,0,0:0:0:0:
320,192,32510,1,0,0:0:0:0:
64,192,32598,1,0,0:0:0:0:
320,192,32685,1,0,0:0:0:0:
64,192,32772,1,2,0:0:0:0:
448,192,32859,1,2,0:0:0:0:
64,192,32946,1,2,0:0:0:0:
448,192,33034,1,2,0:0:0:0:
64,192,33121,1,4,0:0:0:0:
192,192,33644,1,0,0:0:0:26:
320,192,33819,1,0,0:0:0:26:
192,192,33993,1,0,0:0:0:26:
64,192,34167,1,0,0:0:0:26:
320,192,34342,1,0,0:0:0:26:
448,192,34516,1,0,0:0:0:26:
320,192,34778,1,0,0:0:0:26:
64,192,35039,128,0,35737:0:0:0:26:
192,192,35737,1,0,0:0:0:26:
320,192,35824,1,0,0:0:0:26:
448,192,35912,1,0,0:0:0:26:
192,192,36086,1,4,0:0:0:26:
448,192,36260,1,4,0:0:0:26:
320,192,36609,1,0,0:0:0:26:
64,192,36784,1,4,0:0:0:26:
320,192,36958,1,4,0:0:0:26:
448,192,37307,1,0,0:0:0:26:
64,192,37656,128,0,38353:0:0:0:26:
448,192,38353,128,0,38702:0:0:0:26:
192,192,38702,1,4,0:0:0:26:
64,192,38877,1,0,0:0:0:26:
192,192,39051,1,0,0:0:0:26:
320,192,39226,1,0,0:0:0:26:
448,192,39400,1,0,0:0:0:26:
320,192,39574,1,0,0:0:0:26:
192,192,39749,1,0,0:0:0:26:
64,192,39923,1,0,0:0:0:26:
320,192,40098,1,4,0:0:0:26:
64,192,40272,1,0,0:0:0:26:
192,192,40446,1,0,0:0:0:26:
320,192,40621,1,0,0:0:0:26:
448,192,40795,1,0,0:0:0:26:
320,192,40970,1,0,0:0:0:26:
192,192,41144,1,0,0:0:0:26:
64,192,41319,1,0,0:0:0:26:
448,192,41493,1,0,0:0:0:26:
64,192,41667,1,0,0:0:0:26:
192,192,41842,1,0,0:0:0:26:
320,192,42016,1,0,0:0:0:26:
448,192,42191,1,0,0:0:0:26:
320,192,42365,1,0,0:0:0:26:
192,192,42539,1,0,0:0:0:26:
64,192,42714,1,0,0:0:0:26:
320,192,42888,1,4,0:0:0:26:
192,192,43237,1,4,0:0:0:26:
320,192,43586,1,4,0:0:0:26:
448,192,43935,1,4,0:0:0:26:
64,192,44284,1,2,0:0:0:26:
320,192,44458,1,0,0:0:0:26:
192,192,44633,1,2,0:0:0:26:
64,192,44807,1,0,0:0:0:26:
448,192,44981,1,2,0:0:0:26:
320,192,45156,1,0,0:0:0:26:
192,192,45330,1,2,0:0:0:26:
64,192,45505,1,0,0:0:0:26:
320,192,45679,1,2,0:0:0:26:
448,192,45853,1,0,0:0:0:26:
320,192,46028,1,2,0:0:0:26:
192,192,46202,1,0,0:0:0:26:
64,192,46377,1,0,0:0:0:26:
192,192,46464,1,0,0:0:0:26:
320,192,46551,1,0,0:0:0:26:
448,192,46638,1,0,0:0:0:26:
64,192,46726,128,0,47074:0:0:0:26:
448,192,47074,1,2,0:0:0:26:
320,192,47249,1,0,0:0:0:26:
192,192,47423,1,0,0:0:0:26:
64,192,47598,1,0,0:0:0:26:
320,192,47772,1,0,0:0:0:26:
192,192,47946,1,0,0:0:0:26:
64,192,48121,1,0,0:0:0:26:
192,192,48295,1,0,0:0:0:26:
448,192,48470,128,2,48993:0:0:0:26:
320,192,48993,1,0,0:0:0:26:
192,192,49080,1,0,0:0:0:26:
64,192,49167,128,0,49691:0:0:0:26:
192,192,49691,1,0,0:0:0:26:
320,192,49778,1,0,0:0:0:26:
448,192,49865,128,0,50563:0:0:0:26:
64,192,50563,128,0,50737:0:0:0:26:
448,192,50737,128,0,50999:0:0:0:26:
320,192,50999,128,0,51260:0:0:0:26:
64,192,51260,1,4,0:0:0:26:
64,192,51522,1,0,0:0:0:26:
448,192,51784,1,0,0:0:0:26:
448,192,52133,1,0,0:0:0:26:
320,192,52307,1,0,0:0:0:26:
64,192,52481,1,0,0:0:0:26:
320,192,52656,1,0,0:0:0:26:
64,192,52830,1,0,0:0:0:26:
192,192,53005,1,0,0:0:0:26:
64,192,53179,1,0,0:0:0:26:
192,192,53353,1,4,0:0:0:26:
448,192,53441,1,4,0:0:0:26:
320,192,53615,1,4,0:0:0:26:
192,192,53877,1,4,0:0:0:26:
64,192,54051,1,4,0:0:0:26:
64,192,54313,1,0,0:0:0:26:
448,192,54574,1,0,0:0:0:26:
448,192,54923,1,0,0:0:0:26:
64,192,55098,1,0,0:0:0:26:
192,192,55272,1,0,0:0:0:26:
448,192,55446,1,0,0:0:0:26:
320,192,55621,1,0,0:0:0:26:
192,192,55795,1,0,0:0:0:26:
320,192,55970,1,0,0:0:0:26:
64,192,56144,1,4,0:0:0:26:
448,192,56231,1,4,0:0:0:26:
320,192,56406,1,4,0:0:0:26:
192,192,56667,1,4,0:0:0:26:
64,192,56842,1,4,0:0:0:26:
64,192,57103,1,0,0:0:0:26:
448,192,57365,1,0,0:0:0:26:
448,192,57714,1,0,0:0:0:26:
320,192,57888,1,0,0:0:0:26:
64,192,58063,1,0,0:0:0:26:
320,192,58237,1,0,0:0:0:26:
64,192,58412,1,0,0:0:0:26:
192,192,58586,1,0,0:0:0:26:
64,192,58760,1,0,0:0:0:26:
192,192,58935,1,4,0:0:0:26:
448,192,59022,1,4,0:0:0:26:
320,192,59196,1,4,0:0:0:26:
192,192,59458,1,4,0:0:0:26:
448,192,59633,128,4,60853:0:0:0:26:
320,192,60853,1,0,0:0:0:26:
192,192,60941,1,0,0:0:0:26:
64,192,61028,1,0,0:0:0:26:
64,192,61202,1,0,0:0:0:26:
64,192,61377,1,0,0:0:0:26:
64,192,61551,1,0,0:0:0:26:
448,192,61726,1,0,0:0:0:26:
448,192,61900,1,0,0:0:0:26:
448,192,62074,1,0,0:0:0:26:
320,192,62162,1,0,0:0:0:26:
192,192,62249,1,0,0:0:0:26:
64,192,62336,1,0,0:0:0:26:
448,192,62423,1,0,0:0:0:26:
192,192,62685,1,0,0:0:0:26:
320,192,62946,1,0,0:0:0:26:
448,192,63295,1,0,0:0:0:26:
192,192,63470,1,0,0:0:0:26:
64,192,63644,1,0,0:0:0:26:
320,192,63819,1,0,0:0:0:26:
192,192,63993,1,0,0:0:0:26:
64,192,64167,1,0,0:0:0:26:
320,192,64342,1,0,0:0:0:26:
64,192,64516,1,4,0:0:0:26:
448,192,64603,1,4,0:0:0:26:
320,192,64778,1,4,0:0:0:26:
192,192,65039,1,4,0:0:0:26:
64,192,65214,1,0,0:0:0:26:
64,192,65476,1,0,0:0:0:26:
448,192,65737,1,0,0:0:0:26:
320,192,66086,1,0,0:0:0:26:
64,192,66260,1,0,0:0:0:26:
192,192,66435,1,0,0:0:0:26:
448,192,66609,1,0,0:0:0:26:
320,192,66784,1,0,0:0:0:26:
192,192,66958,1,0,0:0:0:26:
320,192,67133,1,0,0:0:0:26:
64,192,67307,1,4,0:0:0:26:
448,192,67394,1,4,0:0:0:26:
320,192,67569,1,4,0:0:0:26:
192,192,67830,1,4,0:0:0:26:
64,192,68005,1,2,0:0:0:26:
320,192,68179,1,0,0:0:0:26:
64,192,68353,1,2,0:0:0:26:
320,192,68528,1,0,0:0:0:26:
192,192,68702,128,0,69051:0:0:0:26:
448,192,69051,128,0,69400:0:0:0:26:
64,192,69400,1,2,0:0:0:26:
448,192,69574,1,0,0:0:0:26:
320,192,69749,1,2,0:0:0:26:
192,192,69923,1,0,0:0:0:26:
64,192,70098,128,0,70272:0:0:0:26:
448,192,70272,128,0,70621:0:0:0:26:
192,192,70621,1,4,0:0:0:26:
64,192,71144,1,4,0:0:0:26:
192,192,71493,1,4,0:0:0:26:
320,192,71842,1,4,0:0:0:26:
192,192,72191,1,4,0:0:0:26:
320,192,72539,1,4,0:0:0:26:
448,192,72888,1,4,0:0:0:26:
320,192,73237,1,4,0:0:0:26:
64,192,73586,128,0,74981:0:0:0:13:
448,192,73586,128,0,74981:0:0:0:13:
320,192,75330,1,4,0:0:0:26:
320,192,75679,1,4,0:0:0:26:
192,192,76028,1,4,0:0:0:26:
64,192,76377,1,2,0:0:0:13:
448,192,76377,1,0,0:0:0:13:
320,192,76551,1,0,0:0:0:26:
192,192,76726,1,2,0:0:0:26:
64,192,76900,1,0,0:0:0:26:
320,192,77074,1,2,0:0:0:26:
192,192,77249,1,0,0:0:0:26:
64,192,77423,1,2,0:0:0:26:
448,192,77598,1,0,0:0:0:26:
320,192,77772,1,2,0:0:0:26:
64,192,78121,1,2,0:0:0:26:
320,192,78295,1,0,0:0:0:26:
448,192,78470,1,0,0:0:0:26:
192,192,78644,1,0,0:0:0:26:
320,192,78819,1,0,0:0:0:26:
448,192,78993,1,0,0:0:0:26:
64,192,79167,1,2,0:0:0:26:
320,192,79516,1,2,0:0:0:26:
64,192,79691,1,0,0:0:0:26:
320,192,79865,1,2,0:0:0:26:
192,192,80039,1,0,0:0:0:26:
320,192,80214,1,2,0:0:0:26:
448,192,80388,1,0,0:0:0:26:
64,192,80563,1,2,0:0:0:26:
448,192,80824,1,0,0:0:0:26:
320,192,81086,1,0,0:0:0:26:
192,192,81260,1,2,0:0:0:26:
64,192,81435,1,0,0:0:0:26:
320,192,81609,1,2,0:0:0:26:
64,192,81784,1,2,0:0:0:26:
448,192,81958,1,2,0:0:0:26:
320,192,82133,1,0,0:0:0:26:
192,192,82307,1,2,0:0:0:26:
64,192,82481,1,0,0:0:0:26:
192,192,82656,1,2,0:0:0:26:
320,192,82830,1,0,0:0:0:26:
448,192,83005,1,2,0:0:0:26:
192,192,83179,1,0,0:0:0:26:
64,192,83353,1,2,0:0:0:26:
192,192,83702,1,2,0:0:0:26:
448,192,83877,1,0,0:0:0:26:
320,192,84051,1,0,0:0:0:26:
192,192,84138,1,0,0:0:0:26:
64,192,84226,1,0,0:0:0:26:
448,192,84400,1,0,0:0:0:26:
320,192,84487,1,0,0:0:0:26:
192,192,84574,1,0,0:0:0:26:
64,192,84749,1,4,0:0:0:26:
320,192,84923,1,2,0:0:0:26:
64,192,85098,1,2,0:0:0:26:
192,192,85446,1,4,0:0:0:26:
448,192,85621,1,2,0:0:0:26:
192,192,85795,1,2,0:0:0:26:
64,192,86144,1,4,0:0:0:26:
320,192,86319,1,2,0:0:0:26:
64,192,86493,1,2,0:0:0:26:
448,192,86842,1,4,0:0:0:26:
64,192,87016,1,2,0:0:0:26:
192,192,87191,1,2,0:0:0:26:
320,192,87365,1,2,0:0:0:26:
64,192,87539,1,2,0:0:0:26:
192,192,87714,1,0,0:0:0:26:
320,192,87888,1,2,0:0:0:26:
448,192,88063,1,0,0:0:0:26:
192,192,88237,1,2,0:0:0:26:
320,192,88412,1,0,0:0:0:26:
192,192,88586,1,2,0:0:0:26:
448,192,88760,1,0,0:0:0:26:
320,192,88935,1,2,0:0:0:26:
64,192,89109,1,0,0:0:0:26:
320,192,89284,1,2,0:0:0:26:
192,192,89458,1,0,0:0:0:26:
320,192,89633,1,2,0:0:0:26:
64,192,89807,1,0,0:0:0:26:
320,192,89981,1,2,0:0:0:26:
192,192,90156,1,0,0:0:0:26:
448,192,90330,1,2,0:0:0:26:
192,192,90679,1,2,0:0:0:26:
64,192,90853,1,0,0:0:0:26:
320,192,91028,1,2,0:0:0:26:
192,192,91377,1,2,0:0:0:26:
64,192,91551,1,0,0:0:0:26:
448,192,91726,1,2,0:0:0:26:
192,192,92074,1,2,0:0:0:26:
320,192,92249,1,0,0:0:0:26:
64,192,92423,1,0,0:0:0:26:
320,192,92598,1,0,0:0:0:26:
448,192,92772,1,0,0:0:0:26:
64,192,92946,1,0,0:0:0:26:
448,192,93121,1,4,0:0:0:26:
320,192,93208,1,0,0:0:0:26:
192,192,93295,1,0,0:0:0:26:
64,192,93383,1,0,0:0:0:26:
448,192,93470,1,0,0:0:0:26:
320,192,93557,1,0,0:0:0:26:
192,192,93644,1,0,0:0:0:26:
64,192,93731,1,0,0:0:0:26:
448,192,93819,1,0,0:0:0:26:
64,192,93993,1,0,0:0:0:26:
192,192,94167,1,0,0:0:0:26:
320,192,94342,1,4,0:0:0:26:
448,192,94516,1,4,0:0:0:26:
320,192,94603,1,0,0:0:0:26:
192,192,94691,1,0,0:0:0:26:
64,192,94778,1,0,0:0:0:26:
448,192,94865,1,0,0:0:0:26:
320,192,94952,1,0,0:0:0:26:
192,192,95039,1,0,0:0:0:26:
64,192,95127,1,0,0:0:0:26:
448,192,95214,1,0,0:0:0:26:
64,192,95388,1,0,0:0:0:26:
192,192,95563,1,0,0:0:0:26:
320,192,95737,1,0,0:0:0:26:
448,192,95912,128,0,100272:0:0:0:26:
64,192,98353,1,0,0:0:0:26:
320,192,98702,1,0,0:0:0:26:
320,192,99749,1,0,0:0:0:26:
192,192,99923,1,0,0:0:0:26:
64,192,100272,128,0,100795:0:0:0:26:
320,192,101057,1,0,0:0:0:26:
448,192,101144,1,0,0:0:0:26:
320,192,101231,1,0,0:0:0:26:
192,192,101319,1,0,0:0:0:26:
64,192,101406,1,0,0:0:0:26:
320,192,101493,128,0,101929:0:0:0:26:
64,192,101929,1,4,0:0:0:26:
448,192,102191,1,4,0:0:0:26:
64,192,102452,1,4,0:0:0:26:
448,192,102714,1,4,0:0:0:26:
64,192,102976,1,4,0:0:0:26:
320,192,103237,1,0,0:0:0:26:
192,192,103499,1,0,0:0:0:26:
64,192,103760,128,0,104109:0:0:0:26:
448,192,104109,128,0,106377:0:0:0:26:
64,192,106377,128,0,106726:0:0:0:26:
320,192,106726,1,0,0:0:0:26:
64,192,107423,1,4,0:0:0:13:
448,192,107423,128,0,111260:0:0:0:13:
192,192,109516,128,0,111260:0:0:0:0:
64,192,111260,1,4,0:0:0:0:
