osu file format v14

[General]
AudioFilename: fluquor.mp3
AudioLeadIn: 1500
PreviewTime: 21326
Countdown: 0
SampleSet: Soft
StackLeniency: 0.7
Mode: 0
LetterboxInBreaks: 1
WidescreenStoryboard: 1

[Editor]
Bookmarks: 64188,124657
DistanceSpacing: 1.6
BeatDivisor: 4
GridSize: 4
TimelineZoom: 1

[Metadata]
Title:Fluquor
TitleUnicode:Fluquor
Artist:onoken feat. Rin
ArtistUnicode:onoken feat. Rin
Creator:Pho
Version:Normal
Source:Deemo
Tags:収録アルバム testimony cytus axsword 作詞 演唱 sao minase
BeatmapID:782344
BeatmapSetID:310401

[Difficulty]
HPDrainRate:4
CircleSize:3
OverallDifficulty:3
ApproachRate:5.5
SliderMultiplier:1
SliderTickRate:1

[Events]
//Background and Video events
0,0,"bg.png",0,0
//Break Periods
//Storyboard Layer 0 (Background)
//Storyboard Layer 1 (Fail)
//Storyboard Layer 2 (Pass)
//Storyboard Layer 3 (Foreground)
Sprite,Foreground,Centre,"SB/drop.png",320,240 F,0,-1500,,0 S,0,0,,0.6 F,0,186642,186862,0,1 M,0,186642,187302,206,244,184,324 S,0,187082,187302,0.6,0
Sprite,Foreground,Centre,"SB/radial.png",320,240 F,0,-1500,,0 M,0,0,,184,324 F,0,186862,,1 S,1,187302,188402,0,1 F,0,187962,188402,1,0
Sprite,Foreground,Centre,"SB/drop.png",320,240 F,0,-1500,,0 S,0,0,,0.6 F,0,197230,197450,0,1 M,0,197230,197890,174,15,140,95 S,0,197670,197890,0.6,0
Sprite,Foreground,Centre,"SB/radial.png",320,240 F,0,-1500,,0 M,0,0,,140,95 F,0,197450,,1 S,1,197890,198990,0,1 F,0,198550,198990,1,0
Sprite,Foreground,Centre,"SB/drop.png",320,240 F,0,-1500,,0 S,0,0,,0.6 F,0,207819,208039,0,1 M,0,207819,208479,155,244,133,324 S,0,208259,208479,0.6,0
Sprite,Foreground,Centre,"SB/radial.png",320,240 F,0,-1500,,0 M,0,0,,133,324 F,0,208039,,1 S,1,208479,209579,0,1 F,0,209139,209579,1,0
Sprite,Foreground,Centre,"SB/drop.png",320,240 F,0,-1500,,0 S,0,0,,0.6 F,0,218407,218627,0,1 M,0,218407,219067,201,173,177,253 S,0,218847,219067,0.6,0
Sprite,Foreground,Centre,"SB/radial.png",320,240 F,0,-1500,,0 M,0,0,,177,253 F,0,218627,,1 S,1,219067,220167,0,1 F,0,219727,220167,1,0
//Storyboard Sound Samples

[TimingPoints]
687,410.958904109589,3,2,1,20,1,0
1097,338.983050847458,3,2,1,20,1,0
1266,447.761194029851,3,2,1,20,1,0
1266,-133.333333333333,3,2,1,20,0,0
1713,-133.333333333333,4,2,1,5,0,0
2164,500,3,2,1,20,1,0
2664,447.761194029851,3,2,1,15,1,0
2664,-133.333333333333,3,2,1,15,0,0
3111,-133.333333333333,4,2,1,5,0,0
3559,504.201680672269,3,2,1,10,1,0
4063,425.531914893617,3,2,1,15,1,0
4063,-133.333333333333,3,2,1,15,0,0
4488,-133.333333333333,4,2,1,5,0,0
4914,481.927710843374,3,2,1,15,1,0
5395,-133.333333333333,3,2,1,18,0,0
5877,502.794700543856,3,2,1,20,1,0
6379,-100,3,2,1,5,0,0
6631,483.870967741935,3,2,1,12,1,0
6872,394.736842105263,3,2,1,12,1,0
7069,419.58041958042,3,2,1,20,1,0
7069,-133.333333333333,3,2,1,20,0,0
7488,-133.333333333333,4,2,1,5,0,0
7908,504.201680672269,3,2,1,10,1,0
8412,441.176470588235,3,2,1,14,1,0
8412,-133.333333333333,3,2,1,14,0,0
8853,-133.333333333333,4,2,1,5,0,0
9294,-133.333333333333,4,2,1,10,0,0
9735,425.531914893617,4,2,1,12,1,0
10160,461.538461538462,4,2,1,16,1,0
10390,-133.333333333333,4,2,1,5,0,0
10621,541.76072234763,4,2,1,5,1,0
11162,465.116279069767,3,2,1,12,1,0
11162,-133.333333333333,3,2,1,12,0,0
11627,-133.333333333333,4,2,1,5,0,0
12092,521.739130434783,3,2,1,16,1,0
12483,361.44578313253,3,2,1,16,1,0
12663,424.028268551237,3,2,3,18,1,0
12663,-133.333333333333,3,2,3,18,0,0
13087,-133.333333333333,4,2,1,5,0,0
13511,500,4,2,1,20,1,0
14011,420.31523642732,3,2,1,13,1,0
14011,-133.333333333333,3,2,1,13,0,0
14431,-133.333333333333,4,2,1,5,0,0
14851,504.201680672269,3,2,1,17,1,0
15355,465.116279069767,3,2,3,18,1,0
15355,-133.333333333333,3,2,3,18,0,0
15820,-133.333333333333,4,2,1,5,0,0
16285,-133.333333333333,4,2,1,18,0,0
16750,508.474576271186,3,2,1,14,1,0
17258,481.927710843374,3,2,1,13,1,0
17739,-100,4,2,1,5,0,0
17980,600,3,2,1,15,1,0
18280,530.973451327434,3,2,1,15,1,0
18810,456.273764258555,4,2,1,22,1,0
18810,-133.333333333333,4,2,1,22,0,0
19266,-133.333333333333,4,2,1,5,0,0
19494,705.882352941176,4,2,1,10,1,0
19846,546.075085324232,4,2,1,10,1,0
19846,-111.111111111111,4,2,1,10,0,0
20392,-111.111111111111,4,2,1,5,0,0
20665,441.176470588235,3,2,1,20,1,0
20885,422.535211267606,3,2,1,30,1,0
20885,-133.333333333333,3,2,1,30,0,0
21411,470.588235294118,3,2,1,40,1,0
21881,456.273764258555,3,2,1,30,1,0
22337,400,3,2,1,25,1,0
22737,428.571428571429,3,2,1,25,1,0
23165,-100,3,2,1,15,0,0
23379,-100,3,2,1,20,0,0
23600,476.190476190476,3,2,1,25,1,0
23838,456.273764258555,3,2,1,30,1,0
24066,439.721509710517,3,2,1,30,1,0
24505,-100,3,2,1,30,0,0
24945,459.770114942529,3,2,1,25,1,0
25404,419.58041958042,3,2,1,22,1,0
25613,-100,3,2,1,15,0,0
25824,439.721509710517,3,2,1,20,1,0
26264,-100,3,2,1,30,0,0
26704,441.176470588235,3,2,1,35,1,0
27145,-100,3,2,1,30,0,0
27586,-100,3,2,1,25,0,0
29351,-100,3,2,1,35,0,0
29792,-100,3,2,1,30,0,0
30234,-100,3,2,1,25,0,0
30675,-100,3,2,1,20,0,0
31115,-100,3,2,1,25,0,0
31556,-100,3,2,1,28,0,0
31998,-100,3,2,1,35,0,0
32439,-100,3,2,1,30,0,0
32880,-100,3,2,1,25,0,0
33322,-100,3,2,1,20,0,0
33762,-100,3,2,1,20,0,0
33983,-100,3,2,1,25,0,0
34203,-100,3,2,1,30,0,0
35086,-100,3,2,1,30,0,0
35527,454.545454545455,3,2,1,27,1,0
35981,428.571428571429,3,2,1,27,1,0
36189,441.176470588235,3,2,1,27,1,0
36409,441.176470588235,3,2,1,24,1,0
36630,-100,3,2,1,27,0,0
36851,-100,3,2,1,30,0,0
37292,434.782608695652,3,2,1,35,1,0
37726,-100,3,2,1,30,0,0
38161,454.545454545455,3,2,1,27,1,0
38616,428.571428571429,3,2,1,25,1,0
38830,418.702023726448,3,2,1,25,1,0
39248,443.458980044346,3,2,1,25,1,0
39469,466.926070038911,3,2,1,27,1,0
39935,451.127819548872,3,2,1,25,1,0
40386,410.958904109589,3,2,1,20,1,0
40796,421.052631578947,3,2,1,25,1,0
41006,493.827160493827,3,2,1,22,1,0
41252,447.093889716841,3,2,1,27,1,0
41699,-100,3,2,1,15,0,0
42146,500,3,2,1,15,1,0
42646,434.782608695652,3,2,1,15,1,0
43950,463.320463320463,3,2,1,15,1,0
45339,500,3,2,1,16,1,0
45589,364.741641337386,3,2,1,18,1,0
45771,434.782608695652,3,2,1,20,1,0
45988,366.524129505192,3,2,1,22,1,0
46171,419.58041958042,3,2,1,24,1,0
46380,493.827160493827,3,2,1,26,1,0
46626,459.770114942529,3,2,1,28,1,0
47085,440.528634361234,3,2,1,30,1,0
47525,560.747663551402,3,2,1,25,1,0
48085,441.176470588235,3,2,1,15,1,0
49408,394.736842105263,3,2,1,15,1,0
50197,441.176470588235,3,2,1,15,1,0
50638,480,3,2,1,18,1,0
50878,461.538461538462,3,2,1,20,1,0
51108,416.666666666667,3,2,1,22,1,0
51524,468.75,3,2,1,24,1,0
51992,398.14200398142,3,2,1,26,1,0
51992,-133.333333333333,3,2,1,28,0,0
52390,452.830188679245,3,2,1,20,1,0
53295,408.163265306122,3,2,1,18,1,0
54111,517.241379310345,3,2,1,21,1,0
54628,409.276944065484,3,2,1,20,1,0
55037,-100,3,2,1,10,0,0
55446,461.538461538462,3,2,1,15,1,0
55907,-100,3,2,1,18,0,0
56138,352.941176470588,3,2,1,20,1,0
56314,352.941176470588,3,2,1,22,1,0
56490,402.684563758389,3,2,1,24,1,0
56691,402.684563758389,3,2,1,26,1,0
56892,571.428571428571,3,2,1,28,1,0
57177,431.654676258993,3,2,1,26,1,0
57608,472.44094488189,3,2,1,30,1,0
58080,-100,3,2,1,25,0,0
58552,461.538461538462,3,2,1,22,1,0
59013,387.096774193548,3,2,1,18,1,0
59400,400,3,2,1,21,1,0
59600,444.444444444444,3,2,1,24,1,0
59822,315.789473684211,3,2,1,24,1,0
59979,375,3,2,1,27,1,0
59979,-111.111111111111,3,2,1,27,0,0
60354,-111.111111111111,3,2,1,10,0,0
60729,545.454545454546,3,2,1,22,1,0
61001,333.333333333333,3,2,1,25,1,0
61334,394.736842105263,3,2,1,25,1,0
61334,-133.333333333333,3,2,1,25,0,0
61728,422.535211267606,3,2,1,20,1,0
61728,-133.333333333333,3,2,1,20,0,0
62150,566.037735849057,3,2,1,18,1,0
62716,490.998363338789,3,2,1,16,1,0
62716,-117.647058823529,3,2,1,16,0,0
63206,-117.647058823529,3,2,1,8,0,0
64188,560.747663551402,3,2,1,16,1,0
64468,465.116279069767,3,2,1,16,1,0
64700,400,3,2,1,20,1,0
64900,456.273764258555,3,2,1,14,1,0
65128,428.571428571429,3,2,1,18,1,0
65342,-100,3,2,1,12,0,0
65557,428.571428571429,3,2,1,24,1,0
65985,-100,3,2,1,26,0,0
66414,-100,3,2,1,24,0,0
66628,-100,3,2,1,18,0,0
66842,442.80442804428,3,2,1,24,1,0
67284,-100,3,2,1,26,0,0
68170,434.782608695652,3,2,1,26,1,0
69039,-100,3,2,1,30,0,0
69474,476.190476190476,3,2,1,20,1,0
69950,434.782608695652,3,2,1,20,1,0
70819,431.654676258993,3,2,1,20,1,0
71250,-100,3,2,1,26,0,0
71898,-100,3,2,1,24,0,0
72113,468.75,3,2,1,28,1,0
73050,413.793103448276,3,2,1,20,1,0
73463,434.782608695652,3,2,1,20,1,0
74332,480,3,2,1,20,1,0
74812,441.176470588235,3,2,1,24,1,0
76135,-100,3,2,1,28,0,0
77017,-100,3,2,1,30,0,0
77459,-100,3,2,1,28,0,0
80106,461.538461538462,3,2,1,26,1,0
80567,-100,3,2,1,15,0,0
81490,441.176470588235,3,2,1,20,1,0
82813,422.535211267606,3,2,1,20,1,0
84080,441.176470588235,3,2,1,20,1,0
84521,-100,3,2,1,5,0,0
84962,-100,3,2,1,12,0,0
85403,441.176470588235,3,2,1,15,1,0
86947,441.176470588235,3,2,1,15,1,0
88050,422.535211267606,3,2,1,15,1,0
88478,461.538461538462,3,2,1,15,1,0
88939,441.176470588235,3,2,1,15,1,0
89380,-100,3,2,1,15,0,0
89600,416.666666666667,3,2,1,15,1,0
89808,468.75,3,2,1,15,1,0
90276,-100,3,2,1,5,0,0
90511,-100,3,2,1,15,0,0
90696,428.571428571429,3,2,1,15,1,0
90910,461.538461538462,3,2,1,15,1,0
91140,441.176470588235,3,2,1,15,1,0
95110,-100,3,2,1,18,0,0
95551,-100,3,2,1,18,0,0
95991,422.535211267606,3,2,3,22,1,0
96413,-100,3,2,1,16,0,0
96836,464.037122969838,3,2,1,22,1,0
97300,477.326968973747,3,2,1,22,1,0
97777,430.10752688172,3,2,1,16,1,0
98637,441.176470588235,3,2,1,18,1,0
99078,-100,3,2,1,22,0,0
99519,-100,3,2,1,26,0,0
99960,-100,3,2,1,28,0,0
100181,-100,3,2,1,22,0,0
100401,-100,3,2,1,24,0,0
101284,-100,3,2,1,20,0,0
102166,-100,3,2,1,10,0,0
102607,-100,3,2,1,18,0,0
103048,-100,3,2,1,10,0,0
103269,-100,3,2,1,18,0,0
103489,-100,3,2,1,24,0,0
103710,-100,3,2,1,32,0,0
103922,441.176470588235,3,2,1,50,1,1
104032,-100,3,2,1,40,0,0
104804,-100,3,2,1,36,0,0
105245,-100,3,2,1,32,0,0
105686,413.793103448276,3,2,1,30,1,0
106099,482.897384305835,3,2,1,30,1,0
106340,442.80442804428,3,2,1,30,1,0
106561,443.786982248521,3,2,1,30,1,0
107892,413.793103448276,3,2,1,32,1,0
108098,-100,3,2,1,20,0,0
108305,461.538461538462,3,2,1,38,1,0
108535,-100,3,2,1,20,0,0
108766,441.176470588235,3,2,1,30,1,0
109207,444.115470022206,3,2,1,35,1,0
109651,-100,3,2,1,30,0,0
110539,441.176470588235,3,2,1,35,1,0
110980,-100,3,2,1,30,0,0
111862,-100,3,2,1,35,0,0
112303,-100,3,2,1,30,0,0
112744,-100,3,2,1,27,0,0
113186,-100,3,2,1,30,0,0
113406,-100,3,2,1,20,0,0
113627,-100,3,2,1,34,0,0
113847,-100,3,2,1,20,0,0
114068,-100,3,2,1,38,0,0
114289,-100,3,2,1,20,0,0
114509,-100,3,2,1,35,0,0
114950,-100,3,2,1,30,0,0
115391,-100,3,2,1,27,0,0
115833,-100,3,2,1,35,0,0
116274,-100,3,2,1,30,0,0
116494,-100,3,2,1,33,0,0
116936,-100,3,2,1,35,0,0
117597,-100,3,2,1,30,0,0
118039,-100,3,2,1,25,0,0
118480,-100,3,2,1,27,0,0
118811,-100,3,2,1,5,0,0
118921,-100,3,2,1,30,0,0
119252,-100,3,2,1,5,0,0
119363,-100,3,2,1,33,0,0
119694,-100,3,2,1,5,0,0
119804,-100,3,2,1,35,0,0
120244,-100,3,2,1,30,0,0
120686,-100,3,2,1,25,0,0
121127,-100,3,2,1,28,0,0
121568,-100,3,2,1,25,0,0
121789,-100,3,2,1,28,0,0
122009,-100,3,2,1,32,0,0
122450,-100,3,2,1,40,0,0
122891,-100,3,2,1,36,0,0
123333,-100,3,2,1,30,0,0
123774,-100,3,2,1,24,0,0
124215,-100,3,2,1,20,0,0
124657,468.75,3,2,1,20,1,0
125125,454.545454545455,3,2,1,20,1,0
125579,400,3,2,1,20,1,0
125979,470.588235294118,3,2,1,20,1,0
126448,434.782608695652,3,2,1,20,1,0
126882,-100,3,2,1,10,0,0
127317,-100,3,2,1,20,0,0
127752,441.176470588235,3,2,1,20,1,0
128193,-100,3,2,1,24,0,0
128634,-100,3,2,1,10,0,0
128854,400,3,2,1,20,1,0
129054,400,3,2,1,26,1,0
129254,-100,3,2,1,22,0,0
129454,461.538461538462,3,2,1,20,1,0
129684,-100,3,2,1,24,0,0
130146,500,3,2,1,18,1,0
130396,468.75,3,2,1,20,1,0
131802,402.684563758389,3,2,1,20,1,0
132204,-100,3,2,1,10,0,0
132607,480,3,2,1,20,1,0
133087,410.958904109589,3,2,1,20,1,0
133703,461.538461538462,3,2,1,20,1,0
134395,437.956204379562,3,2,1,20,1,0
134832,405.405405405405,3,2,1,22,1,0
134832,-111.111111111111,3,2,1,24,0,0
135237,468.75,3,2,1,26,1,0
135705,441.176470588235,3,2,1,20,1,0
137028,466.926070038911,3,2,1,20,1,0
137494,441.176470588235,3,2,1,20,1,0
137935,-100,3,2,1,24,0,0
138376,434.782608695652,3,2,1,28,1,0
138810,-100,3,2,1,20,0,0
139245,-100,3,2,1,28,0,0
139680,422.535211267606,3,2,1,26,1,0
140525,468.75,3,2,1,24,1,0
140993,441.176470588235,3,2,1,20,1,0
141434,-100,3,2,1,25,0,0
141875,400,3,2,1,20,1,0
142075,609.137055837563,3,2,1,20,1,0
142379,372.670807453416,3,2,1,20,1,0
142751,500,3,2,1,25,1,0
143251,428.571428571429,3,2,1,20,1,0
143679,434.782608695652,3,2,1,20,1,0
144113,-100,3,2,1,10,0,0
144548,508.474576271186,3,2,1,28,1,0
145056,415.800415800416,3,2,1,20,1,0
145056,-117.647058823529,3,2,1,20,0,0
145887,-117.647058823529,3,2,1,5,0,0
146303,431.654676258993,3,2,1,20,1,0
147597,431.654676258993,3,2,1,20,1,0
148460,461.538461538462,3,2,1,20,1,0
148921,441.176470588235,3,2,1,22,1,0
151568,-100,3,2,1,24,0,0
154215,-100,3,2,1,26,0,0
156862,-100,3,2,1,24,0,0
157303,-100,3,2,1,20,0,0
157744,-100,3,2,1,24,0,0
158185,-100,3,2,1,26,0,0
158626,-100,3,2,1,20,0,0
159068,-100,3,2,1,26,0,0
159509,-100,3,2,1,22,0,0
160832,-100,3,2,1,20,0,0
161715,447.761194029851,3,2,1,20,1,0
163282,497.92531120332,3,2,1,20,1,0
163530,447.761194029851,3,2,1,20,1,0
164425,432.370108813144,3,2,1,20,1,0
164857,397.95715327983,3,2,1,20,1,0
164857,-111.111111111111,3,2,1,20,0,0
165254,-111.111111111111,3,2,1,10,0,0
165652,502.092050209205,3,2,1,18,1,0
166154,432.370108813144,3,2,1,18,1,0
166154,-111.111111111111,3,2,1,18,0,0
166586,-111.111111111111,3,2,1,10,0,0
167019,-111.111111111111,3,2,1,20,0,0
167451,441.176470588235,3,2,1,20,1,0
167892,-100,3,2,1,26,0,0
168333,-100,3,2,1,20,0,0
169656,-100,3,2,1,23,0,0
170098,-100,3,2,1,24,0,0
170539,-100,3,2,1,20,0,0
170980,-100,3,2,1,24,0,0
171862,-100,3,2,1,22,0,0
172303,-100,3,2,1,20,0,0
173186,-100,3,2,1,22,0,0
173627,-100,3,2,1,20,0,0
174509,-100,3,2,1,22,0,0
174951,-100,3,2,1,20,0,0
175392,-100,3,2,1,18,0,0
175833,-100,3,2,1,20,0,0
176274,-100,3,2,1,18,0,0
176715,-100,3,2,1,20,0,0
177156,-100,3,2,1,22,0,0
177598,-100,3,2,1,24,0,0
177818,-100,3,2,1,26,0,0
178039,-100,3,2,1,28,0,0
178480,-100,3,2,1,10,0,0
178701,458.015267175573,3,2,1,20,1,0
178929,361.881785283474,3,2,1,22,1,0
179109,560.747663551402,3,2,1,24,1,0
179389,414.364640883978,3,2,1,26,1,0
179803,441.176470588235,3,2,1,24,1,0
180244,-100,3,2,1,20,0,0
180685,-100,3,2,1,24,0,0
181126,-100,3,2,1,20,0,0
181788,500,3,2,1,20,1,0
182038,466.926070038911,3,2,1,20,1,0
182504,371.517027863777,3,2,1,22,1,0
182875,461.538461538462,3,2,1,24,1,0
183336,451.977401129944,3,2,1,26,1,0
183787,-100,3,2,1,20,0,0
184465,-100,3,2,1,20,0,0
184691,400,3,2,1,22,1,0
184891,-100,3,2,1,26,0,0
185091,444.444444444444,3,2,1,30,1,0
185535,-100,3,2,1,36,0,0
185757,-100,3,2,1,40,0,0
185979,441.176470588235,3,2,1,45,1,1
187302,-100,3,2,6,45,0,1
187412,-100,3,2,1,45,0,1
188626,-100,3,2,1,35,0,1
189067,-100,3,2,1,39,0,1
189508,-100,3,2,1,43,0,1
189949,-100,3,2,1,45,0,1
190390,-100,3,2,1,37,0,1
190831,-100,3,2,1,41,0,1
191273,-100,3,2,1,41,0,1
197890,-100,3,2,6,41,0,1
198001,-100,3,2,1,41,0,1
201861,-100,3,2,1,45,0,1
203184,-100,3,2,1,35,0,1
203846,-100,3,2,1,38,0,1
204067,-100,3,2,1,41,0,1
204287,-100,3,2,1,44,0,1
204398,-100,3,2,1,44,0,0
204508,-100,3,2,1,47,0,1
204618,-100,3,2,1,47,0,0
204949,-100,3,2,1,45,0,0
205390,-100,3,2,1,43,0,0
205831,-100,3,2,1,41,0,0
208479,-100,3,2,6,40,0,0
208920,-76.9230769230769,3,2,1,45,0,0
209361,-100,3,2,1,30,0,0
209802,-100,3,2,1,41,0,0
210133,-100,3,2,1,35,0,0
215537,-100,3,2,1,30,0,0
219067,-100,3,2,6,30,0,0
219177,-100,3,2,1,30,0,0
219508,405.405405405405,3,2,1,30,1,0
219913,468.75,3,2,1,35,1,0
220381,444.444444444444,3,2,1,40,1,0
220825,-100,3,2,1,38,0,0
221269,-100,3,2,1,36,0,0
221714,418.118466898955,3,2,1,34,1,0
222132,408.163265306122,3,2,1,25,1,0
222817,441.176470588235,3,2,1,22,1,0
223039,441.176470588235,3,2,1,22,1,0
223480,500,3,2,1,18,1,0
223855,-100,3,2,1,5,0,0
223980,666.666666666667,3,2,1,18,1,0
224646,666.666666666667,3,2,1,20,1,0
227979,-100,3,2,1,15,0,0
229312,-100,3,2,1,10,0,0
230312,-100,3,2,1,5,0,0

[Colours]
Combo1 : 128,128,128
Combo2 : 182,149,126
Combo3 : 206,206,206

[HitObjects]
57,63,687,5,0,0:0:0:0:
104,169,1266,2,0,P|139:196|249:188,1,150.000005722046,0|0,0:0|0:0,0:0:0:0:
283,101,2664,2,0,P|347:81|427:128,1,150.000005722046
494,190,4063,2,0,L|485:346,1,150.000005722046
401,372,5395,1,0,0:0:0:0:
330,281,5877,2,0,L|172:286,1,150
118,214,7069,6,0,P|98:150|113:54,1,150.000005722046
210,66,8412,2,0,L|371:62,1,150.000005722046,0|0,0:0|0:0,0:0:0:0:
473,113,9735,2,0,P|468:171|475:214,1,100,0|0,0:0|0:0,0:0:0:0:
481,313,10621,1,0,0:0:0:0:
395,349,11162,2,0,P|325:365|235:356,1,150.000005722046,0|0,0:0|0:0,0:0:0:0:
181,269,12663,6,0,P|197:218|188:115,1,150.000005722046,2|0,0:0|0:0,0:0:0:0:
106,60,14011,2,0,P|90:111|99:214,1,150.000005722046,0|0,0:0|0:0,0:0:0:0:
152,286,15355,2,0,L|307:283,1,150.000005722046,2|0,0:0|0:0,0:0:0:0:
375,364,16750,1,0,0:0:0:0:
475,287,17258,2,0,L|481:132,1,150
443,54,18280,5,0,0:0:0:0:
369,129,18810,2,0,P|335:138|253:123,1,112.500004291535
189,74,19846,2,0,P|112:66|40:128,1,171.5
17,240,21411,5,4,0:0:0:0:
111,320,21881,2,0,P|161:323|219:301,1,100,2|2,0:0|0:0,0:0:0:0:
277,219,22737,1,0,0:0:0:0:
373,289,23165,2,0,L|376:359,2,50,2|2|2,0:0|0:0|0:0,0:0:0:0:
449,205,24066,6,0,P|454:168|441:90,1,100,8|2,0:0|0:0,0:0:0:0:
385,8,24945,1,2,0:0:0:0:
303,87,25404,2,0,P|258:82|200:47,1,100,0|2,0:0|0:0,0:0:0:0:
101,5,26263,1,2,0:0:0:0:
27,113,26704,6,0,L|33:221,1,100,8|2,0:0|0:0,0:0:0:0:
73,325,27586,1,2,0:0:0:0:
192,320,28027,1,0,0:0:0:0:
236,208,28468,2,0,L|223:112,2,50,2|2|2,0:0|0:0|0:0,0:0:0:0:
302,308,29351,5,8,0:0:0:0:
302,308,29571,1,8,0:0:0:0:
302,308,29792,2,0,P|359:327|412:309,1,100,2|2,0:0|0:0,0:0:0:0:
462,217,30674,2,0,L|472:80,2,100,2|2|2,0:0|0:0|0:0,0:0:0:0:
352,167,31998,5,8,0:0:0:0:
245,223,32439,2,0,P|235:160|247:106,1,100,2|2,0:0|0:0,0:0:0:0:
320,34,33321,1,0,0:0:0:0:
425,91,33762,2,0,L|495:85,2,50,2|2|2,0:0|0:0|0:0,0:0:0:0:
432,211,34645,5,8,0:0:0:0:
354,302,35086,2,0,P|309:325|254:327,1,100,2|2,0:0|0:0,0:0:0:0:
139,288,35981,1,0,0:0:0:0:
86,184,36409,2,0,L|22:179,2,50,2|2|2,0:0|0:0|0:0,0:0:0:0:
171,102,37292,6,0,P|222:122|278:119,1,100,8|2,0:0|0:0,0:0:0:0:
364,67,38161,1,2,0:0:0:0:
451,151,38616,2,0,L|444:221,1,50
348,241,39248,2,0,L|343:290,1,50,0|2,0:0|0:0,0:0:0:0:
247,345,39935,5,8,0:0:0:0:
247,345,40160,1,8,0:0:0:0:
247,345,40386,2,0,P|188:357|128:343,1,100,2|2,0:0|0:0,0:0:0:0:
47,282,41252,2,0,P|32:189|41:68,1,200,2|0,0:0|0:0,0:0:0:0:
161,26,42646,5,0,0:0:0:0:
355,182,43950,1,0,0:0:0:0:
90,324,45339,2,0,P|147:350|245:320,1,166.5
357,352,46626,1,0,0:0:0:0:
450,268,47085,2,0,L|460:155,1,100
410,12,48085,5,0,0:0:0:0:
195,132,49408,1,0,0:0:0:0:
389,275,50638,2,0,P|368:305|301:326,1,98,0|0,0:0|0:0,0:0:0:0:
245,241,51524,2,0,P|192:219|139:230,1,100,0|0,0:0|0:0,0:0:0:0:
55,269,52390,2,0,L|69:372,1,100
181,358,53295,5,0,0:0:0:0:
280,352,53703,2,0,P|299:306|291:244,1,100
218,158,54628,2,0,P|116:149|49:67,1,200,0|0,0:0|0:0,0:0:0:0:
161,26,55907,6,0,P|231:31|343:16,1,170,0|0,0:0|0:0,0:0:0:0:
447,93,57177,2,0,L|447:139|447:212,1,100,0|0,0:0|0:0,0:0:0:0:
410,285,58080,1,0,0:0:0:0:
325,228,58552,6,0,P|279:214|215:214,1,100,0|0,0:0|0:0,0:0:0:0:
151,284,59400,2,0,P|196:304|208:306,1,50,0|0,0:0|0:0,0:0:0:0:
316,325,59979,2,0,P|323:267|313:140,1,179.999994506836
208,39,61334,6,0,P|150:60|110:143,1,155
193,229,62716,2,0,P|252:219|292:51,1,255.000004863739,0|2,0:0|0:0,0:0:0:0:
213,21,64468,5,0,0:0:0:0:
135,57,64700,2,0,L|69:48,1,50,2|0,0:0|0:0,0:0:0:0:
43,126,65128,2,0,L|112:139,1,50,2|0,0:0|0:0,0:0:0:0:
158,190,65557,2,0,P|171:237|158:303,1,100,2|2,0:0|0:0,0:0:0:0:
277,365,66414,2,0,P|267:336|265:302,1,50,2|0,0:0|0:0,0:0:0:0:
290,238,66842,6,0,L|401:234,1,100,2|2,0:0|0:0,0:0:0:0:
413,151,67506,1,0,0:0:0:0:
413,151,67727,2,0,L|345:152,1,50,2|0,0:0|0:0,0:0:0:0:
303,88,68170,2,0,P|260:83|195:105,1,100,2|2,0:0|0:0,0:0:0:0:
94,212,69039,2,0,L|102:274,1,50,2|0,0:0|0:0,0:0:0:0:
184,270,69474,6,0,L|167:152,1,100,2|2,0:0|0:0,0:0:0:0:
171,88,70167,1,0,0:0:0:0:
171,88,70384,2,0,P|202:78|239:75,1,50,2|0,0:0|0:0,0:0:0:0:
299,89,70819,2,0,P|349:93|413:82,1,100,2|2,0:0|0:0,0:0:0:0:
488,166,71682,2,0,P|456:164|426:174,1,50,2|0,0:0|0:0,0:0:0:0:
370,212,72113,6,0,L|366:333,1,100,2|2,0:0|0:0,0:0:0:0:
300,360,72816,1,0,0:0:0:0:
300,360,73050,2,0,L|240:342,1,50,2|0,0:0|0:0,0:0:0:0:
192,291,73463,2,0,P|162:306|143:309,1,50,2|2,0:0|0:0,0:0:0:0:
73,264,73897,2,0,L|49:211,2,50,0|2|2,0:0|0:0|0:0,0:0:0:0:
254,203,74812,6,0,P|280:180|257:26,1,200,2|0,0:0|0:0,0:0:0:0:
114,130,76135,2,0,P|57:205|100:289,1,200,2|0,0:0|0:0,0:0:0:0:
204,350,77459,5,2,0:0:0:0:
318,313,77900,2,0,L|325:381,2,50,0|0|0,0:0|0:0|0:0,0:0:0:0:
234,226,78782,1,2,0:0:0:0:
125,273,79223,2,0,P|97:295|70:305,2,50,0|0|0,0:0|0:0|0:0,0:0:0:0:
180,215,79885,1,0,0:0:0:0:
171,134,80106,6,0,P|138:88|54:218,1,300,2|0,0:0|0:0,0:0:0:0:
153,283,81931,2,0,P|188:266|250:266,1,100,0|0,0:0|0:0,0:0:0:0:
354,331,82813,2,0,P|404:353|454:352,2,100,0|0|0,0:0|0:0|0:0,0:0:0:0:
294,233,84080,2,0,P|291:149|306:25,1,200,0|0,0:0|0:0,0:0:0:0:
423,38,85403,6,0,L|420:104,1,50,2|0,0:0|0:0,0:0:0:0:
467,153,85844,2,0,P|456:212|459:273,1,100,0|0,0:0|0:0,0:0:0:0:
375,340,86726,2,0,P|342:328|318:327,1,50,2|0,0:0|0:0,0:0:0:0:
253,356,87167,2,0,P|215:366|147:358,1,100,0|0,0:0|0:0,0:0:0:0:
45,299,88050,6,0,P|28:265|26:235,1,50,2|0,0:0|0:0,0:0:0:0:
92,204,88478,2,0,L|91:95,1,100,0|0,0:0|0:0,0:0:0:0:
186,30,89380,2,0,L|253:29,1,50,2|0,0:0|0:0,0:0:0:0:
269,108,89808,2,0,P|214:116|109:104,1,150,0|0,0:0|0:0,0:0:0:0:
39,160,90696,6,0,L|43:220,1,50,2|0,0:0|0:0,0:0:0:0:
122,235,91140,2,0,L|116:342,1,100,0|0,0:0|0:0,0:0:0:0:
231,368,92022,2,0,L|288:360,1,50,2|0,0:0|0:0,0:0:0:0:
317,289,92463,2,0,P|356:313|422:324,1,100,0|0,0:0|0:0,0:0:0:0:
473,220,93345,6,0,P|477:179|477:151,1,50,2|0,0:0|0:0,0:0:0:0:
426,108,93787,2,0,P|404:136|392:209,1,100
295,271,94669,1,2,0:0:0:0:
176,255,95110,1,2,0:0:0:0:
91,170,95551,1,0,0:0:0:0:
109,46,95991,6,0,P|157:38|211:61,1,100,2|0,0:0|0:0,0:0:0:0:
269,143,96836,1,2,0:0:0:0:
351,68,97300,2,0,L|462:64,1,100,2|0,0:0|0:0,0:0:0:0:
501,173,98207,2,0,L|439:175,1,50,0|0,0:0|0:0,0:0:0:0:
409,245,98637,6,0,P|375:304|237:332,1,200,0|2,0:0|0:0,0:0:0:0:
112,262,99960,2,0,P|110:292|120:322,1,50,0|0,0:0|0:0,0:0:0:0:
194,280,100401,2,0,P|196:203|189:119,1,150,0|0,0:0|0:0,0:0:0:0:
163,52,101284,6,0,P|209:68|362:35,1,200,0|0,0:0|0:0,0:0:0:0:
454,105,102607,2,0,P|392:139|356:268,1,200,0|0,0:0|0:0,0:0:0:0:
379,335,103710,1,0,0:0:0:0:
303,364,103922,5,4,0:0:0:0:
199,303,104363,2,0,P|188:247|197:195,1,100,0|0,0:0|0:0,0:0:0:0:
257,105,105245,1,2,0:0:0:0:
369,165,105686,2,0,L|440:165,2,50,2|2|2,0:0|0:0|0:0,0:0:0:0:
359,37,106561,5,8,0:0:0:0:
257,105,107004,2,0,P|211:122|144:118,1,100,2|2,0:0|0:0,0:0:0:0:
25,218,107892,2,0,P|16:186|22:164,1,50,2|0,0:0|0:0,0:0:0:0:
99,186,108305,2,0,P|98:227|87:300,1,100,2|2,0:0|0:0,0:0:0:0:
178,365,109207,5,8,0:0:0:0:
259,276,109651,2,0,P|308:271|366:279,1,100,2|2,0:0|0:0,0:0:0:0:
470,233,110539,1,2,0:0:0:0:
358,188,110980,2,0,P|316:189|298:185,2,50,2|2|2,0:0|0:0|0:0,0:0:0:0:
391,72,111862,5,8,0:0:0:0:
391,72,112083,1,8,0:0:0:0:
391,72,112303,2,0,P|342:46|283:43,1,100,2|2,0:0|0:0,0:0:0:0:
186,84,113186,2,0,L|202:153,1,50,2|0,0:0|0:0,0:0:0:0:
125,167,113627,2,0,L|115:236,1,50,2|0,0:0|0:0,0:0:0:0:
192,245,114068,2,0,L|208:314,1,50,2|0,0:0|0:0,0:0:0:0:
141,344,114509,5,8,0:0:0:0:
46,270,114950,2,0,P|38:224|44:153,1,100,2|2,0:0|0:0,0:0:0:0:
106,70,115833,1,2,0:0:0:0:
197,147,116274,2,0,L|255:157,2,50,2|2|2,0:0|0:0|0:0,0:0:0:0:
240,35,117156,5,10,0:0:0:0:
359,49,117597,2,0,P|348:98|356:153,1,100,2|2,0:0|0:0,0:0:0:0:
447,222,118480,2,0,P|458:256|460:280,1,50,2|0,0:0|0:0,0:0:0:0:
377,266,118921,2,0,P|375:302|368:324,1,50,2|0,0:0|0:0,0:0:0:0:
298,277,119362,2,0,P|284:310|272:324,1,50,2|0,0:0|0:0,0:0:0:0:
217,264,119803,5,8,0:0:0:0:
124,187,120244,2,0,P|118:142|129:67,1,100,2|2,0:0|0:0,0:0:0:0:
228,29,121127,1,2,0:0:0:0:
310,116,121568,2,0,L|366:115,2,50,2|2|2,0:0|0:0|0:0,0:0:0:0:
225,201,122450,5,0,0:0:0:0:
225,201,122671,1,0,0:0:0:0:
225,201,122891,2,0,P|213:265|229:345,1,100,2|2,0:0|0:0,0:0:0:0:
283,341,123553,1,0,0:0:0:0:
352,301,123774,1,2,0:0:0:0:
358,181,124215,2,0,P|419:157|470:166,1,100,0|0,0:0|0:0,0:0:0:0:
453,36,125125,5,0,0:0:0:0:
453,36,125579,2,0,P|408:52|340:66,1,100,0|0,0:0|0:0,0:0:0:0:
254,116,126448,2,0,B|215:209|292:218|251:326,1,200,0|0,0:0|0:0,0:0:0:0:
151,365,127752,5,0,0:0:0:0:
58,288,128193,2,0,P|36:234|78:114,1,150,0|2,0:0|0:0,0:0:0:0:
119,96,129054,2,0,L|184:98,2,50,2|0|0,0:0|0:0|0:0,0:0:0:0:
131,179,129684,2,0,P|185:181|242:171,1,100,2|2,0:0|0:0,0:0:0:0:
311,203,130396,6,0,P|323:263|314:322,1,100
208,348,131333,2,0,L|192:288,1,50,0|0,0:0|0:0,0:0:0:0:
128,242,131802,2,0,B|92:166|172:114|124:26,1,200
28,115,133087,6,0,P|25:147|33:174,2,50,0|0|2,0:0|0:0|0:0,0:0:0:0:
78,50,133703,2,0,L|198:44,1,100,2|0,0:0|0:0,0:0:0:0:
238,99,134395,1,2,0:0:0:0:
192,219,134832,2,0,P|142:230|98:226,1,89.9999972534181,0|2,0:0|0:0,0:0:0:0:
154,337,135705,6,0,P|205:324|265:327,1,100,0|0,0:0|0:0,0:0:0:0:
360,375,136587,1,0,0:0:0:0:
468,343,137028,2,0,P|481:302|466:235,1,100
386,163,137935,1,0,0:0:0:0:
336,262,138376,6,0,P|303:231|275:74,1,200,2|0,0:0|0:0,0:0:0:0:
376,19,139680,1,2,0:0:0:0:
469,93,140102,2,0,P|469:154|459:204,1,100,0|0,0:0|0:0,0:0:0:0:
354,263,140993,6,0,L|240:249,1,100,2|0,0:0|0:0,0:0:0:0:
130,296,141875,2,0,L|130:362,1,50,0|0,0:0|0:0,0:0:0:0:
47,263,142379,6,0,L|45:150,1,100,2|0,0:0|0:0,0:0:0:0:
95,32,143251,2,0,L|158:41,1,50,0|0,0:0|0:0,0:0:0:0:
197,97,143679,6,0,P|250:110|413:100,1,200,2|0,0:0|0:0,0:0:0:0:
450,24,145056,6,0,B|408:153|509:180|447:287,1,255.000004863739,0|2,0:0|0:0,0:0:0:0:
378,364,146734,5,2,0:0:0:0:
258,356,147166,2,0,P|218:351|194:332,1,50,0|0,0:0|0:0,0:0:0:0:
160,283,147597,2,0,P|114:284|44:316,1,100,2|2,0:0|0:0,0:0:0:0:
46,191,148460,2,0,L|40:120,1,50
111,94,148921,5,2,0:0:0:0:
198,177,149362,2,0,P|246:190|312:170,1,100,2|0,0:0|0:0,0:0:0:0:
349,73,150244,2,0,P|301:60|235:80,1,100,2|2,0:0|0:0,0:0:0:0:
160,146,151126,1,2,0:0:0:0:
94,45,151568,6,0,P|67:68|56:89,1,50,2|0,0:0|0:0,0:0:0:0:
55,160,152009,2,0,L|66:264,1,100,2|0,0:0|0:0,0:0:0:0:
153,340,152891,2,0,P|175:317|196:303,1,50,2|0,0:0|0:0,0:0:0:0:
251,358,153332,2,0,L|361:370,1,100,2|0,0:0|0:0,0:0:0:0:
452,306,154215,6,0,P|456:274|455:240,1,50,2|0,0:0|0:0,0:0:0:0:
469,177,154656,2,0,P|436:163|317:172,1,150,2|0,0:0|0:0,0:0:0:0:
261,118,155538,2,0,P|247:85|250:13,1,100,2|2,0:0|0:0,0:0:0:0:
365,45,156421,1,2,0:0:0:0:
370,164,156862,6,0,P|311:229|199:223,1,200,2|0,0:0|0:0,0:0:0:0:
91,189,158185,2,0,P|150:124|262:130,1,200,2|0,0:0|0:0,0:0:0:0:
333,34,159509,5,2,0:0:0:0:
419,117,159950,2,0,L|419:232,1,100,0|0,0:0|0:0,0:0:0:0:
340,308,160832,2,0,L|319:192,2,100,2|0|0,0:0|0:0|0:0,0:0:0:0:
232,361,162162,6,0,P|179:369|91:174,1,305.5
166,85,163977,1,0,0:0:0:0:
234,188,164425,1,0,0:0:0:0:
370,160,164857,6,0,P|397:131|318:53,1,179.999994506836
190,51,166154,2,0,P|115:82|142:160,1,179.999994506836
225,243,167451,6,0,P|237:296|228:348,2,100,0|0|0,0:0|0:0|0:0,0:0:0:0:
122,181,168774,2,0,P|110:128|119:76,2,100,0|0|0,0:0|0:0|0:0,0:0:0:0:
241,169,170098,6,0,L|353:156,2,100,0|0|0,0:0|0:0|0:0,0:0:0:0:
176,270,171421,2,0,L|64:257,2,100,0|0|0,0:0|0:0|0:0,0:0:0:0:
283,324,172745,6,0,P|337:301|394:308,2,100,0|0|0,0:0|0:0|0:0,0:0:0:0:
236,213,174068,2,0,P|182:190|125:197,2,100,0|0|0,0:0|0:0|0:0,0:0:0:0:
301,112,175392,6,0,P|349:103|407:120,1,100,0|0,0:0|0:0,0:0:0:0:
431,230,176274,1,0,0:0:0:0:
311,232,176715,2,0,P|268:226|211:180,1,100,0|0,0:0|0:0,0:0:0:0:
174,84,177598,2,0,L|113:103,1,50,0|0,0:0|0:0,0:0:0:0:
54,63,178039,6,0,P|38:105|47:215,1,150,2|0,0:0|0:0,0:0:0:0:
103,274,178929,2,0,L|173:269,1,50
218,355,179389,2,0,L|106:359,1,100,2|0,0:0|0:0,0:0:0:0:
53,260,180244,1,0,0:0:0:0:
132,171,180685,6,0,P|169:145|237:148,1,100,2|0,0:0|0:0,0:0:0:0:
333,97,181567,2,0,L|337:42,1,50,0|0,0:0|0:0,0:0:0:0:
422,40,182038,2,0,L|409:159,1,100,2|2,0:0|0:0,0:0:0:0:
358,256,182875,2,0,L|288:251,1,50,2|0,0:0|0:0,0:0:0:0:
255,315,183336,6,0,P|196:303|148:306,1,100,2|0,0:0|0:0,0:0:0:0:
26,179,184465,1,0,0:0:0:0:
26,179,184691,2,0,P|73:187|141:182,1,100,0|0,0:0|0:0,0:0:0:0:
210,101,185535,2,0,P|209:69|210:42,1,50,0|0,0:0|0:0,0:0:0:0:
292,20,185979,6,0,P|304:98|290:187,1,150,12|0,0:0|0:0,0:0:0:0:
231,216,186861,2,0,P|191:219|163:214,1,50,0|0,0:0|0:0,0:0:0:0:
120,270,187302,2,0,P|145:309|205:351,1,100,2|0,0:0|0:0,0:0:0:0:
286,276,188184,1,0,0:0:0:0:
398,359,188626,6,0,P|417:321|360:172,1,200,8|0,0:0|0:0,0:0:0:0:
296,136,189729,1,0,0:0:0:0:
230,186,189949,2,0,P|178:206|123:191,2,100,0|0|0,0:0|0:0|0:0,0:0:0:0:
296,136,191052,1,0,0:0:0:0:
314,58,191273,6,0,P|368:47|430:50,1,100,8|0,0:0|0:0,0:0:0:0:
480,150,192155,2,0,P|480:187|472:216,1,50,0|0,0:0|0:0,0:0:0:0:
419,254,192596,2,0,P|371:259|307:257,1,100,0|0,0:0|0:0,0:0:0:0:
161,299,193479,2,0,P|165:338|177:355,1,50,0|0,0:0|0:0,0:0:0:0:
239,302,193920,6,0,P|238:249|222:198,2,100,8|0|0,0:0|0:0|0:0,0:0:0:0:
349,347,195243,2,0,L|408:336,1,50,0|0,0:0|0:0,0:0:0:0:
452,278,195684,2,0,P|459:223|444:169,1,100
374,85,196567,6,0,P|320:105|271:105,1,100,8|0,0:0|0:0,0:0:0:0:
159,86,197449,2,0,L|152:32,1,50
72,42,197890,2,0,L|86:195,1,150,2|0,0:0|0:0,0:0:0:0:
46,261,198773,1,0,0:0:0:0:
169,366,199214,6,0,P|206:355|203:216,1,200,8|0,0:0|0:0,0:0:0:0:
153,162,200317,1,0,0:0:0:0:
160,82,200537,1,0,0:0:0:0:
271,36,200979,2,0,P|319:45|373:45,1,100
426,194,201861,6,0,P|345:205|270:235,1,150,8|0,0:0|0:0,0:0:0:0:
207,256,202743,2,0,L|211:324,1,50,0|0,0:0|0:0,0:0:0:0:
141,346,203184,2,0,P|123:300|148:193,1,150,0|0,0:0|0:0,0:0:0:0:
187,137,204067,2,0,P|192:97|188:71,1,50,0|0,0:0|0:0,0:0:0:0:
128,37,204508,6,0,P|170:58|323:23,1,200,12|0,0:0|0:0,0:0:0:0:
424,78,205831,1,0,0:0:0:0:
352,174,206273,2,0,L|362:236,1,50,2|2,0:0|0:0,0:0:0:0:
282,243,206714,2,0,L|292:305,1,50,2|8,0:0|0:0,0:0:0:0:
232,347,207155,5,8,0:0:0:0:
232,347,207376,1,8,0:0:0:0:
232,347,207596,2,0,P|182:355|67:256,1,200,2|2,0:0|0:0,0:0:0:0:
145,176,208920,1,2,0:0:0:0:
49,104,209361,2,0,L|45:43,1,50,2|0,0:0|0:0,0:0:0:0:
122,32,209802,6,0,P|155:61|226:84,1,100,8|2,0:0|0:0,0:0:0:0:
323,107,210684,2,0,L|311:166,1,50,2|0,0:0|0:0,0:0:0:0:
341,231,211126,1,0,0:0:0:0:
457,260,211567,2,0,L|467:198,2,50,2|2|2,0:0|0:0|0:0,0:0:0:0:
387,300,212229,5,8,0:0:0:0:
387,300,212449,1,8,0:0:0:0:
308,208,212890,2,0,P|240:176|195:180,1,100,2|2,0:0|0:0,0:0:0:0:
114,238,213773,2,0,P|78:223|58:203,1,50,2|0,0:0|0:0,0:0:0:0:
125,159,214214,2,0,L|130:33,1,100,2|2,0:0|0:0,0:0:0:0:
197,17,214876,1,0,0:0:0:0:
275,33,215096,5,8,0:0:0:0:
351,125,215537,2,0,P|342:181|362:230,1,100,2|2,0:0|0:0,0:0:0:0:
474,242,216420,1,2,0:0:0:0:
480,122,216861,2,0,L|483:69,2,50,2|2|2,0:0|0:0|0:0,0:0:0:0:
421,177,217523,5,8,0:0:0:0:
421,177,217743,1,8,0:0:0:0:
323,107,218184,2,0,P|283:144|233:162,1,100,2|2,0:0|0:0,0:0:0:0:
113,199,219067,2,0,P|79:256|147:363,1,191.7,2|2,0:0|0:0,0:0:0:0:
245,356,220381,6,0,P|300:332|449:322,1,200,0|2,0:0|0:0,0:0:0:0:
353,224,221714,2,0,P|292:209|151:111,1,198,0|2,0:0|0:0,0:0:0:0:
123,16,223037,2,0,P|186:22|305:117,1,214,8|0,0:0|0:0,0:0:0:0:
256,192,224646,12,0,230312,0:0:0:0:
