osu file format v14

[General]
AudioFilename: fluquor.mp3
AudioLeadIn: 1500
PreviewTime: 21326
Countdown: 0
SampleSet: Soft
StackLeniency: 0.7
Mode: 0
LetterboxInBreaks: 1
WidescreenStoryboard: 1

[Editor]
Bookmarks: 64188,124657
DistanceSpacing: 1.2
BeatDivisor: 4
GridSize: 4
TimelineZoom: 2.799999

[Metadata]
Title:Fluquor
TitleUnicode:Fluquor
Artist:onoken feat. Rin
ArtistUnicode:onoken feat. Rin
Creator:Pho
Version:Hard
Source:Deemo
Tags:収録アルバム testimony cytus axsword 作詞 演唱 sao minase
BeatmapID:782343
BeatmapSetID:310401

[Difficulty]
HPDrainRate:6
CircleSize:4
OverallDifficulty:5
ApproachRate:7
SliderMultiplier:1.2
SliderTickRate:1

[Events]
//Background and Video events
0,0,"bg.png",0,0
//Break Periods
//Storyboard Layer 0 (Background)
//Storyboard Layer 1 (Fail)
//Storyboard Layer 2 (Pass)
//Storyboard Layer 3 (Foreground)
Sprite,Foreground,Centre,"SB/drop.png",320,240 F,0,-1500,,0 S,0,0,,0.6 F,0,186642,186862,0,1 M,0,186642,187302,325,213,289,293 S,0,187082,187302,0.6,0
Sprite,Foreground,Centre,"SB/radial.png",320,240 F,0,-1500,,0 M,0,0,,289,293 F,0,186862,,1 S,1,187302,188402,0,1 F,0,187962,188402,1,0
Sprite,Foreground,Centre,"SB/drop.png",320,240 F,0,-1500,,0 S,0,0,,0.6 F,0,197230,197450,0,1 M,0,197230,197890,316,-6,308,74 S,0,197670,197890,0.6,0
Sprite,Foreground,Centre,"SB/radial.png",320,240 F,0,-1500,,0 M,0,0,,308,74 F,0,197450,,1 S,1,197890,198990,0,1 F,0,198550,198990,1,0
Sprite,Foreground,Centre,"SB/drop.png",320,240 F,0,-1500,,0 S,0,0,,0.6 F,0,207819,208039,0,1 M,0,207819,208479,213,185,201,265 S,0,208259,208479,0.6,0
Sprite,Foreground,Centre,"SB/radial.png",320,240 F,0,-1500,,0 M,0,0,,201,265 F,0,208039,,1 S,1,208479,209579,0,1 F,0,209139,209579,1,0
Sprite,Foreground,Centre,"SB/drop.png",320,240 F,0,-1500,,0 S,0,0,,0.6 F,0,218407,218627,0,1 M,0,218407,219067,399,334,409,414 S,0,218847,219067,0.6,0
Sprite,Foreground,Centre,"SB/radial.png",320,240 F,0,-1500,,0 M,0,0,,409,414 F,0,218627,,1 S,1,219067,220167,0,1 F,0,219727,220167,1,0
//Storyboard Sound Samples

[TimingPoints]
687,410.958904109589,3,2,1,20,1,0
1097,338.983050847458,3,2,1,20,1,0
1266,447.761194029851,3,2,1,20,1,0
1266,-133.333333333333,3,2,1,20,0,0
1713,-133.333333333333,4,2,1,5,0,0
2164,500,3,2,1,20,1,0
2664,447.761194029851,3,2,1,15,1,0
2664,-133.333333333333,3,2,1,15,0,0
3111,-133.333333333333,4,2,1,5,0,0
3559,504.201680672269,3,2,1,10,1,0
4063,425.531914893617,3,2,1,15,1,0
4063,-133.333333333333,3,2,1,15,0,0
4488,-133.333333333333,4,2,1,5,0,0
4914,481.927710843374,3,2,1,15,1,0
5154,-133.333333333333,3,2,1,20,0,0
5395,-133.333333333333,3,2,1,18,0,0
5877,502.794700543856,3,2,1,20,1,0
5877,-133.333333333333,3,2,1,20,0,0
6379,-133.333333333333,3,2,1,5,0,0
6631,483.870967741935,3,2,1,12,1,0
6872,394.736842105263,3,2,1,12,1,0
7069,419.58041958042,3,2,1,20,1,0
7069,-133.333333333333,3,2,1,20,0,0
7488,-133.333333333333,4,2,1,5,0,0
7908,504.201680672269,3,2,1,10,1,0
8412,441.176470588235,3,2,1,14,1,0
8412,-133.333333333333,3,2,1,14,0,0
8853,-133.333333333333,4,2,1,5,0,0
9294,-133.333333333333,4,2,1,10,0,0
9735,425.531914893617,4,2,1,12,1,0
10160,461.538461538462,4,2,1,16,1,0
10621,541.76072234763,4,2,1,5,1,0
11162,465.116279069767,3,2,1,12,1,0
11162,-133.333333333333,3,2,1,12,0,0
11627,-133.333333333333,4,2,1,5,0,0
12092,521.739130434783,3,2,1,16,1,0
12483,361.44578313253,3,2,1,16,1,0
12663,424.028268551237,3,2,3,18,1,0
12663,-133.333333333333,3,2,3,18,0,0
13087,-100,4,2,1,5,0,0
13511,500,4,2,1,20,1,0
14011,420.31523642732,3,2,1,13,1,0
14011,-133.333333333333,3,2,1,13,0,0
14431,-100,4,2,1,5,0,0
14851,504.201680672269,3,2,1,17,1,0
15355,465.116279069767,3,2,3,18,1,0
15355,-133.333333333333,3,2,3,18,0,0
15820,-133.333333333333,4,2,1,5,0,0
16285,-133.333333333333,4,2,1,18,0,0
16517,-133.333333333333,4,2,1,16,0,0
16750,508.474576271186,3,2,1,14,1,0
17258,481.927710843374,3,2,1,13,1,0
17258,-200,3,2,1,13,0,0
17739,-200,3,2,1,5,0,0
17980,600,3,2,1,15,1,0
18280,530.973451327434,3,2,1,15,1,0
18810,456.273764258555,4,2,1,22,1,0
18810,-133.333333333333,4,2,1,22,0,0
19266,-133.333333333333,4,2,1,5,0,0
19494,705.882352941176,4,2,1,10,1,0
19846,546.075085324232,4,2,1,10,1,0
19846,-200,4,2,1,10,0,0
20392,-200,4,2,1,5,0,0
20665,441.176470588235,3,2,1,20,1,0
20885,422.535211267606,3,2,1,30,1,0
20885,-133.333333333333,3,2,1,30,0,0
21411,470.588235294118,3,2,1,40,1,0
21881,456.273764258555,3,2,1,30,1,0
22337,400,3,2,1,25,1,0
22737,428.571428571429,3,2,1,25,1,0
23165,-100,3,2,1,15,0,0
23379,-100,3,2,1,20,0,0
23600,476.190476190476,3,2,1,25,1,0
23838,456.273764258555,3,2,1,30,1,0
24066,439.721509710517,3,2,1,30,1,0
24505,-100,3,2,1,30,0,0
24945,459.770114942529,3,2,1,25,1,0
25404,419.58041958042,3,2,1,22,1,0
25824,439.721509710517,3,2,1,20,1,0
26044,-100,3,2,1,25,0,0
26264,-100,3,2,1,30,0,0
26484,-100,3,2,1,15,0,0
26704,441.176470588235,3,2,1,35,1,0
27145,-100,3,2,1,30,0,0
27586,-100,3,2,1,25,0,0
29351,-100,3,2,1,35,0,0
29792,-100,3,2,1,30,0,0
30234,-100,3,2,1,25,0,0
30675,-100,3,2,1,20,0,0
31115,-100,3,2,1,25,0,0
31556,-100,3,2,1,28,0,0
31998,-100,3,2,1,35,0,0
32439,-100,3,2,1,30,0,0
32880,-100,3,2,1,25,0,0
33322,-100,3,2,1,20,0,0
33762,-100,3,2,1,20,0,0
33983,-100,3,2,1,25,0,0
34203,-100,3,2,1,30,0,0
34424,-100,3,2,1,35,0,0
35086,-100,3,2,1,30,0,0
35527,454.545454545455,3,2,1,27,1,0
35981,428.571428571429,3,2,1,27,1,0
36189,441.176470588235,3,2,1,27,1,0
36409,441.176470588235,3,2,1,24,1,0
36851,-100,3,2,1,30,0,0
37292,434.782608695652,3,2,1,35,1,0
37726,-100,3,2,1,30,0,0
38161,454.545454545455,3,2,1,27,1,0
38616,428.571428571429,3,2,1,25,1,0
38830,418.702023726448,3,2,1,25,1,0
39248,443.458980044346,3,2,1,25,1,0
39469,466.926070038911,3,2,1,27,1,0
39935,451.127819548872,3,2,1,25,1,0
40386,410.958904109589,3,2,1,20,1,0
40796,421.052631578947,3,2,1,25,1,0
41006,493.827160493827,3,2,1,22,1,0
41252,447.093889716841,3,2,1,27,1,0
41699,-100,3,2,1,15,0,0
42146,500,3,2,1,15,1,0
42646,434.782608695652,3,2,1,15,1,0
43950,463.320463320463,3,2,1,15,1,0
45339,500,3,2,1,16,1,0
45589,364.741641337386,3,2,1,18,1,0
45771,434.782608695652,3,2,1,20,1,0
45988,366.524129505192,3,2,1,22,1,0
46171,419.58041958042,3,2,1,24,1,0
46380,493.827160493827,3,2,1,26,1,0
46626,459.770114942529,3,2,1,28,1,0
47085,440.528634361234,3,2,1,30,1,0
47525,560.747663551402,3,2,1,25,1,0
48085,441.176470588235,3,2,1,15,1,0
49408,394.736842105263,3,2,1,15,1,0
50197,441.176470588235,3,2,1,15,1,0
50638,480,3,2,1,18,1,0
50878,461.538461538462,3,2,1,20,1,0
51108,416.666666666667,3,2,1,22,1,0
51524,468.75,3,2,1,24,1,0
51992,398.14200398142,3,2,1,26,1,0
52390,452.830188679245,3,2,1,20,1,0
53295,408.163265306122,3,2,1,18,1,0
54111,517.241379310345,3,2,1,21,1,0
54628,409.276944065484,3,2,1,20,1,0
55037,-100,3,2,1,10,0,0
55446,461.538461538462,3,2,1,15,1,0
55907,-100,3,2,1,18,0,0
56138,352.941176470588,3,2,1,20,1,0
56314,352.941176470588,3,2,1,22,1,0
56490,402.684563758389,3,2,1,24,1,0
56691,402.684563758389,3,2,1,26,1,0
56892,571.428571428571,3,2,1,28,1,0
57177,431.654676258993,3,2,1,26,1,0
57608,472.44094488189,3,2,1,30,1,0
58080,-100,3,2,1,25,0,0
58552,461.538461538462,3,2,1,22,1,0
59013,387.096774193548,3,2,1,18,1,0
59400,400,3,2,1,21,1,0
59600,444.444444444444,3,2,1,24,1,0
59822,315.789473684211,3,2,1,24,1,0
59979,375,3,2,1,27,1,0
59979,-133.333333333333,3,2,1,27,0,0
60354,-100,3,2,1,10,0,0
60729,545.454545454546,3,2,1,22,1,0
61001,333.333333333333,3,2,1,25,1,0
61334,394.736842105263,3,2,1,25,1,0
61728,422.535211267606,3,2,1,20,1,0
61728,-133.333333333333,3,2,1,20,0,0
62150,566.037735849057,3,2,1,18,1,0
62716,490.998363338789,3,2,1,16,1,0
62716,-133.333333333333,3,2,1,16,0,0
63206,-133.333333333333,3,2,1,8,0,0
64188,560.747663551402,3,2,1,16,1,0
64468,465.116279069767,3,2,1,16,1,0
64700,400,3,2,1,20,1,0
64900,456.273764258555,3,2,1,14,1,0
65128,428.571428571429,3,2,1,18,1,0
65342,-100,3,2,1,12,0,0
65557,428.571428571429,3,2,1,24,1,0
65985,-100,3,2,1,26,0,0
66199,-100,3,2,1,22,0,0
66414,-100,3,2,1,24,0,0
66628,-100,3,2,1,18,0,0
66842,442.80442804428,3,2,1,24,1,0
67063,-100,3,2,1,18,0,0
67284,-100,3,2,1,26,0,0
68170,434.782608695652,3,2,1,26,1,0
69039,-100,3,2,1,30,0,0
69474,476.190476190476,3,2,1,20,1,0
69950,434.782608695652,3,2,1,20,1,0
70819,431.654676258993,3,2,1,20,1,0
71250,-100,3,2,1,26,0,0
71466,-100,3,2,1,20,0,0
71898,-100,3,2,1,24,0,0
72113,468.75,3,2,1,28,1,0
73050,413.793103448276,3,2,1,20,1,0
73463,434.782608695652,3,2,1,20,1,0
74332,480,3,2,1,20,1,0
74812,441.176470588235,3,2,1,24,1,0
76135,-100,3,2,1,28,0,0
77017,-100,3,2,1,30,0,0
77459,-100,3,2,1,28,0,0
80106,461.538461538462,3,2,1,26,1,0
80567,-100,3,2,1,15,0,0
81490,441.176470588235,3,2,1,20,1,0
82813,422.535211267606,3,2,1,20,1,0
84080,441.176470588235,3,2,1,20,1,0
84521,-100,3,2,1,5,0,0
84962,-100,3,2,1,12,0,0
85403,441.176470588235,3,2,1,15,1,0
86947,441.176470588235,3,2,1,15,1,0
88050,422.535211267606,3,2,1,15,1,0
88478,461.538461538462,3,2,1,15,1,0
88939,441.176470588235,3,2,1,15,1,0
89380,-100,3,2,1,15,0,0
89600,416.666666666667,3,2,1,15,1,0
89808,468.75,3,2,1,15,1,0
90276,-100,3,2,1,5,0,0
90511,-100,3,2,1,15,0,0
90696,428.571428571429,3,2,1,15,1,0
90910,461.538461538462,3,2,1,15,1,0
91140,441.176470588235,3,2,1,15,1,0
95110,-100,3,2,1,18,0,0
95551,-100,3,2,1,18,0,0
95991,422.535211267606,3,2,3,22,1,0
96413,-100,3,2,1,16,0,0
96836,464.037122969838,3,2,1,22,1,0
97300,477.326968973747,3,2,1,22,1,0
97777,430.10752688172,3,2,1,16,1,0
98637,441.176470588235,3,2,1,18,1,0
98857,-100,3,2,1,20,0,0
99078,-100,3,2,1,22,0,0
99298,-100,3,2,1,24,0,0
99519,-100,3,2,1,26,0,0
99739,-100,3,2,1,22,0,0
99960,-100,3,2,1,28,0,0
100401,-100,3,2,1,24,0,0
101284,-100,3,2,1,20,0,0
102166,-100,3,2,1,10,0,0
102607,-100,3,2,1,18,0,0
103048,-100,3,2,1,10,0,0
103489,-100,3,2,1,24,0,0
103710,-100,3,2,1,32,0,0
103922,441.176470588235,3,2,1,50,1,1
104032,-100,3,2,1,40,0,0
104804,-100,3,2,1,36,0,0
105245,-100,3,2,1,32,0,0
105686,413.793103448276,3,2,1,30,1,0
106099,482.897384305835,3,2,1,30,1,0
106340,442.80442804428,3,2,1,30,1,0
106561,443.786982248521,3,2,1,30,1,0
107892,413.793103448276,3,2,1,32,1,0
108098,-100,3,2,1,20,0,0
108305,461.538461538462,3,2,1,38,1,0
108766,441.176470588235,3,2,1,30,1,0
108986,-100,3,2,1,20,0,0
109207,444.115470022206,3,2,1,35,1,0
109651,-100,3,2,1,30,0,0
110539,441.176470588235,3,2,1,35,1,0
110980,-100,3,2,1,30,0,0
111862,-100,3,2,1,35,0,0
112303,-100,3,2,1,30,0,0
112744,-100,3,2,1,27,0,0
113186,-100,3,2,1,30,0,0
113406,-100,3,2,1,20,0,0
113627,-100,3,2,1,34,0,0
113847,-100,3,2,1,20,0,0
114068,-100,3,2,1,38,0,0
114289,-100,3,2,1,20,0,0
114509,-100,3,2,1,35,0,0
114950,-100,3,2,1,30,0,0
115391,-100,3,2,1,27,0,0
115833,-100,3,2,1,35,0,0
116274,-100,3,2,1,30,0,0
116494,-100,3,2,1,33,0,0
116936,-100,3,2,1,35,0,0
117597,-100,3,2,1,30,0,0
118039,-100,3,2,1,25,0,0
118480,-100,3,2,1,27,0,0
118811,-100,3,2,1,5,0,0
118921,-100,3,2,1,30,0,0
119252,-100,3,2,1,5,0,0
119363,-100,3,2,1,33,0,0
119694,-100,3,2,1,5,0,0
119804,-100,3,2,1,35,0,0
120244,-100,3,2,1,30,0,0
120686,-100,3,2,1,25,0,0
121127,-100,3,2,1,28,0,0
121568,-100,3,2,1,25,0,0
121789,-100,3,2,1,28,0,0
122009,-100,3,2,1,32,0,0
122450,-100,3,2,1,40,0,0
122891,-100,3,2,1,36,0,0
123333,-100,3,2,1,30,0,0
123774,-100,3,2,1,24,0,0
124215,-100,3,2,1,20,0,0
124657,468.75,3,2,1,20,1,0
125125,454.545454545455,3,2,1,20,1,0
125579,400,3,2,1,20,1,0
125979,470.588235294118,3,2,1,20,1,0
126448,434.782608695652,3,2,1,20,1,0
126882,-100,3,2,1,10,0,0
127317,-100,3,2,1,20,0,0
127752,441.176470588235,3,2,1,20,1,0
128082,-100,3,2,1,18,0,0
128138,-100,3,2,1,10,0,0
128193,-100,3,2,1,24,0,0
128634,-100,3,2,1,10,0,0
128854,400,3,2,1,20,1,0
129054,400,3,2,1,26,1,0
129254,-100,3,2,1,22,0,0
129454,461.538461538462,3,2,1,20,1,0
129684,-100,3,2,1,24,0,0
130146,500,3,2,1,18,1,0
130396,468.75,3,2,1,20,1,0
131802,402.684563758389,3,2,1,20,1,0
132204,-100,3,2,1,10,0,0
132607,480,3,2,1,20,1,0
133087,410.958904109589,3,2,1,20,1,0
133703,461.538461538462,3,2,1,20,1,0
134395,437.956204379562,3,2,1,20,1,0
134832,405.405405405405,3,2,1,24,1,0
134832,-111.111111111111,3,2,1,24,0,0
135237,468.75,3,2,1,26,1,0
135705,441.176470588235,3,2,1,20,1,0
137028,466.926070038911,3,2,1,20,1,0
137494,441.176470588235,3,2,1,20,1,0
137935,-100,3,2,1,24,0,0
138376,434.782608695652,3,2,1,28,1,0
139680,422.535211267606,3,2,1,26,1,0
140525,468.75,3,2,1,24,1,0
140993,441.176470588235,3,2,1,20,1,0
141434,-100,3,2,1,25,0,0
141875,400,3,2,1,20,1,0
142075,609.137055837563,3,2,1,20,1,0
142379,372.670807453416,3,2,1,20,1,0
142751,500,3,2,1,25,1,0
143251,428.571428571429,3,2,1,20,1,0
143679,434.782608695652,3,2,1,20,1,0
144113,-100,3,2,1,10,0,0
144331,-100,3,2,1,15,0,0
144548,508.474576271186,3,2,1,28,1,0
145056,415.800415800416,3,2,1,20,1,0
145056,-200,3,2,1,20,0,0
145471,-200,3,2,1,15,0,0
145887,-200,3,2,1,5,0,0
146303,431.654676258993,3,2,1,20,1,0
147597,431.654676258993,3,2,1,20,1,0
148460,461.538461538462,3,2,1,20,1,0
148921,441.176470588235,3,2,1,22,1,0
151568,-100,3,2,1,24,0,0
154215,-100,3,2,1,26,0,0
156862,-100,3,2,1,24,0,0
158185,-100,3,2,1,26,0,0
159509,-100,3,2,1,22,0,0
160832,-100,3,2,1,20,0,0
161715,447.761194029851,3,2,1,20,1,0
163282,497.92531120332,3,2,1,20,1,0
163530,447.761194029851,3,2,1,20,1,0
164425,432.370108813144,3,2,1,20,1,0
164857,397.95715327983,3,2,1,20,1,0
164857,-133.333333333333,3,2,1,20,0,0
165254,-133.333333333333,3,2,1,10,0,0
165652,502.092050209205,3,2,1,18,1,0
166154,432.370108813144,3,2,1,18,1,0
166154,-133.333333333333,3,2,1,18,0,0
166586,-133.333333333333,3,2,1,10,0,0
167019,-111.111111111111,3,2,1,20,0,0
167451,441.176470588235,3,2,1,20,1,0
167671,-100,3,2,1,12,0,0
167892,-100,3,2,1,26,0,0
168112,-100,3,2,1,12,0,0
168333,-100,3,2,1,20,0,0
168553,-100,3,2,1,12,0,0
168774,-100,3,2,1,20,0,0
168995,-100,3,2,1,12,0,0
169215,-100,3,2,1,20,0,0
169436,-100,3,2,1,12,0,0
169656,-100,3,2,1,23,0,0
169877,-100,3,2,1,12,0,0
170098,-100,3,2,1,24,0,0
170318,-100,3,2,1,12,0,0
170539,-100,3,2,1,20,0,0
170759,-100,3,2,1,12,0,0
170980,-100,3,2,1,24,0,0
171201,-100,3,2,1,12,0,0
171421,-100,3,2,1,24,0,0
171642,-100,3,2,1,12,0,0
171862,-100,3,2,1,22,0,0
172083,-100,3,2,1,12,0,0
172303,-100,3,2,1,20,0,0
172524,-100,3,2,1,12,0,0
172745,-100,3,2,1,20,0,0
172965,-100,3,2,1,12,0,0
173186,-100,3,2,1,22,0,0
173406,-100,3,2,1,12,0,0
173627,-100,3,2,1,20,0,0
173848,-100,3,2,1,12,0,0
174068,-100,3,2,1,20,0,0
174289,-100,3,2,1,12,0,0
174509,-100,3,2,1,22,0,0
174730,-100,3,2,1,12,0,0
174951,-100,3,2,1,20,0,0
175171,-100,3,2,1,12,0,0
175392,-100,3,2,1,18,0,0
175612,-100,3,2,1,12,0,0
175833,-100,3,2,1,20,0,0
176053,-100,3,2,1,12,0,0
176274,-100,3,2,1,18,0,0
176495,-100,3,2,1,12,0,0
176715,-100,3,2,1,20,0,0
177156,-100,3,2,1,22,0,0
177377,-100,3,2,1,12,0,0
177598,-100,3,2,1,24,0,0
177818,-100,3,2,1,26,0,0
178039,-133.333333333333,3,2,1,28,0,0
178480,-133.333333333333,3,2,1,10,0,0
178701,458.015267175573,3,2,1,20,1,0
178929,361.881785283474,3,2,1,22,1,0
179109,560.747663551402,3,2,1,24,1,0
179389,414.364640883978,3,2,1,26,1,0
179803,441.176470588235,3,2,1,24,1,0
180244,-100,3,2,1,20,0,0
180464,-100,3,2,1,10,0,0
180685,-100,3,2,1,24,0,0
181126,-100,3,2,1,20,0,0
181788,500,3,2,1,20,1,0
182038,466.926070038911,3,2,1,20,1,0
182504,371.517027863777,3,2,1,22,1,0
182875,461.538461538462,3,2,1,24,1,0
183336,451.977401129944,3,2,1,26,1,0
183448,-100,3,2,1,24,0,0
183787,-100,3,2,1,20,0,0
184239,-100,3,2,1,10,0,0
184465,-100,3,2,1,20,0,0
184691,400,3,2,1,22,1,0
184891,-100,3,2,1,26,0,0
185091,444.444444444444,3,2,1,30,1,0
185313,-100,3,2,1,33,0,0
185535,-100,3,2,1,36,0,0
185757,-100,3,2,1,40,0,0
185979,441.176470588235,3,2,1,45,1,1
187302,-100,3,2,6,45,0,1
187412,-100,3,2,1,45,0,1
188626,-100,3,2,1,35,0,1
188846,-100,3,2,1,37,0,1
189067,-100,3,2,1,39,0,1
189287,-100,3,2,1,41,0,1
189508,-100,3,2,1,43,0,1
189949,-100,3,2,1,45,0,1
190170,-100,3,2,1,35,0,1
190390,-100,3,2,1,37,0,1
190611,-100,3,2,1,39,0,1
190831,-100,3,2,1,41,0,1
191273,-100,3,2,1,41,0,1
197890,-100,3,2,6,41,0,1
198001,-100,3,2,1,41,0,1
201861,-100,3,2,1,45,0,1
203184,-100,3,2,1,35,0,1
203846,-100,3,2,1,38,0,1
204067,-100,3,2,1,41,0,1
204287,-100,3,2,1,44,0,1
204398,-100,3,2,1,44,0,0
204508,-100,3,2,1,47,0,1
204618,-100,3,2,1,47,0,0
204949,-100,3,2,1,45,0,0
205390,-100,3,2,1,43,0,0
205831,-100,3,2,1,41,0,0
208479,-100,3,2,6,40,0,0
208699,-100,3,2,1,40,0,0
208920,-76.9230769230769,3,2,1,45,0,0
209361,-100,3,2,1,30,0,0
209802,-100,3,2,1,41,0,0
210133,-100,3,2,1,35,0,0
215537,-100,3,2,1,30,0,0
219067,-100,3,2,6,30,0,0
219177,-100,3,2,1,30,0,0
219508,405.405405405405,3,2,1,30,1,0
219913,468.75,3,2,1,35,1,0
220381,444.444444444444,3,2,1,40,1,0
220825,-100,3,2,1,38,0,0
221269,-100,3,2,1,36,0,0
221714,418.118466898955,3,2,1,34,1,0
222132,408.163265306122,3,2,1,25,1,0
222817,441.176470588235,3,2,1,22,1,0
223039,441.176470588235,3,2,1,22,1,0
223480,500,3,2,1,18,1,0
223980,666.666666666667,3,2,1,18,1,0
224646,666.666666666667,3,2,1,20,1,0
227979,-100,3,2,1,15,0,0
229312,-100,3,2,1,10,0,0
230312,-100,3,2,1,5,0,0

[Colours]
Combo1 : 128,128,128
Combo2 : 182,149,126
Combo3 : 206,206,206

[HitObjects]
164,94,687,5,0,0:0:0:0:
79,174,1266,2,0,P|121:205|251:174,1,180
278,91,2664,2,0,P|338:66|447:121,1,180.000006866455,0|0,0:0|0:0,0:0:0:0:
439,258,4063,6,0,B|415:294|321:314|267:282,1,180.000006866455
193,319,5154,2,0,L|182:372,1,45.0000017166138
86,250,5877,2,0,P|86:178|72:112,1,135.000005149841
178,244,7069,6,0,P|225:312|331:302,1,180.000006866455,0|0,0:0|0:0,0:0:0:0:
403,231,8412,2,0,P|359:146|400:77,1,180.000006866455,0|0,0:0|0:0,0:0:0:0:
495,154,9735,5,0,0:0:0:0:
316,143,10160,2,0,L|196:137,1,120
41,229,11162,2,0,P|126:231|226:277,1,180.000006866455,0|0,0:0|0:0,0:0:0:0:
349,336,12483,2,0,L|345:365,1,30
342,330,12663,6,0,P|393:317|443:187,1,180,2|0,0:0|0:0,0:0:0:0:
383,125,14011,2,0,P|279:119|194:93,1,180.000006866455,0|0,0:0|0:0,0:0:0:0:
53,19,15355,6,0,P|66:120|62:203,1,180.000006866455,2|0,0:0|0:0,0:0:0:0:
35,273,16517,1,0,0:0:0:0:
91,327,16750,1,0,0:0:0:0:
91,327,17258,2,0,P|155:333|188:330,1,90.0000034332277
270,255,18280,5,0,0:0:0:0:
270,255,18810,2,0,P|258:172|271:116,1,135.000005149841,0|0,0:0|0:0,0:0:0:0:
448,20,19846,6,0,P|452:76|446:119,1,90.0000034332277,0|0,0:0|0:0,0:0:0:0:
376,172,20885,2,0,L|383:233,1,45.0000017166138
442,333,21411,5,4,0:0:0:0:
270,293,21881,2,0,P|195:292|142:320,1,120,2|2,0:0|0:0,0:0:0:0:
74,359,22537,1,0,0:0:0:0:
62,241,22737,2,0,L|51:112,1,120,0|2,0:0|0:0,0:0:0:0:
108,45,23379,1,2,0:0:0:0:
181,98,23600,2,0,L|263:96,1,60,2|8,0:0|0:0,0:0:0:0:
424,84,24066,5,8,0:0:0:0:
291,179,24505,2,0,P|285:247|294:297,1,120,2|2,0:0|0:0,0:0:0:0:
450,342,25404,1,0,0:0:0:0:
432,188,25824,1,2,0:0:0:0:
508,130,26043,1,2,0:0:0:0:
426,79,26263,2,0,P|386:99|343:99,1,60,2|0,0:0|0:0,0:0:0:0:
212,44,26704,5,8,0:0:0:0:
112,209,27145,2,0,P|112:145|100:77,1,120,2|2,0:0|0:0,0:0:0:0:
4,224,28027,1,0,0:0:0:0:
99,362,28468,1,2,0:0:0:0:
169,296,28689,1,2,0:0:0:0:
240,359,28909,2,0,L|316:340,1,60,2|0,0:0|0:0,0:0:0:0:
478,283,29351,5,8,0:0:0:0:
478,283,29571,1,8,0:0:0:0:
324,244,29792,2,0,P|299:192|303:112,1,120,2|2,0:0|0:0,0:0:0:0:
475,143,30674,6,0,P|459:167|418:185,1,60,2|0,0:0|0:0,0:0:0:0:
448,36,31115,2,0,P|476:37|512:64,1,60,2|0,0:0|0:0,0:0:0:0:
362,101,31556,2,0,P|349:75|354:30,1,60,2|0,0:0|0:0,0:0:0:0:
475,143,31998,5,8,0:0:0:0:
326,191,32439,2,0,P|257:187|187:171,1,120,2|2,0:0|0:0,0:0:0:0:
67,46,33321,1,0,0:0:0:0:
47,215,33762,2,0,L|51:299,1,60,2|2,0:0|0:0,0:0:0:0:
140,350,34203,2,0,L|153:267,1,60,2|8,0:0|0:0,0:0:0:0:
184,113,34645,5,8,0:0:0:0:
264,268,35086,2,0,P|321:288|389:266,1,120,2|2,0:0|0:0,0:0:0:0:
310,103,35981,1,0,0:0:0:0:
32,122,36409,2,0,P|94:127|156:121,1,120,2|2,0:0|0:0,0:0:0:0:
202,23,37070,1,0,0:0:0:0:
264,170,37291,5,8,0:0:0:0:
264,170,37726,2,0,P|308:142|397:151,1,120,2|2,0:0|0:0,0:0:0:0:
477,267,38616,1,0,0:0:0:0:
477,267,38830,2,0,P|439:292|364:286,1,120
296,239,39469,2,0,P|266:231|227:239,1,60,2|0,0:0|0:0,0:0:0:0:
129,350,39935,5,8,0:0:0:0:
129,350,40160,1,8,0:0:0:0:
73,253,40386,2,0,P|70:207|74:125,1,120,2|2,0:0|0:0,0:0:0:0:
167,24,41252,1,2,0:0:0:0:
263,129,41699,2,0,P|322:156|385:132,1,120,0|0,0:0|0:0,0:0:0:0:
470,48,42646,5,0,0:0:0:0:
264,140,43950,1,0,0:0:0:0:
433,250,45339,2,0,L|443:328,1,60
363,363,45771,2,0,L|353:291,1,60
291,240,46171,2,0,L|214:238,1,60
170,164,46626,1,0,0:0:0:0:
40,255,47085,2,0,P|30:293|45:391,1,120,0|0,0:0|0:0,0:0:0:0:
105,202,48085,5,0,0:0:0:0:
263,98,49408,1,0,0:0:0:0:
70,28,50638,2,0,P|63:62|70:107,1,60,0|0,0:0|0:0,0:0:0:0:
140,148,51108,2,0,L|271:132,1,120,0|0,0:0|0:0,0:0:0:0:
425,83,51992,1,0,0:0:0:0:
423,222,52390,6,0,P|385:226|308:175,1,120
489,167,53295,1,0,0:0:0:0:
464,310,53703,2,0,P|398:309|337:316,1,120
255,366,54369,1,0,0:0:0:0:
133,305,54628,2,0,P|88:294|169:203,1,240,0|0,0:0|0:0,0:0:0:0:
253,267,55907,6,0,P|297:257|329:233,1,60,0|0,0:0|0:0,0:0:0:0:
409,181,56314,2,0,P|366:169|335:148,1,60,0|0,0:0|0:0,0:0:0:0:
220,131,56691,2,0,P|250:118|279:90,1,60,0|0,0:0|0:0,0:0:0:0:
340,18,57177,1,0,0:0:0:0:
471,126,57608,2,0,P|492:170|484:242,1,120,0|0,0:0|0:0,0:0:0:0:
404,342,58552,5,0,0:0:0:0:
404,342,59013,2,0,P|341:327|270:323,1,120,0|0,0:0|0:0,0:0:0:0:
194,345,59600,1,0,0:0:0:0:
114,220,59822,2,0,L|114:180,1,30
126,231,59979,2,0,P|190:222|233:153,1,135.000005149841,0|0,0:0|0:0,0:0:0:0:
173,54,60729,2,0,L|106:59,1,60,0|0,0:0|0:0,0:0:0:0:
37,139,61334,5,0,0:0:0:0:
93,260,61728,2,0,L|201:251,1,90.0000034332277,0|0,0:0|0:0,0:0:0:0:
276,170,62716,6,0,P|344:257|466:188,1,270.000010299683,0|2,0:0|0:0,0:0:0:0:
452,106,64468,5,0,0:0:0:0:
378,43,64700,2,0,L|309:40,1,60,2|0,0:0|0:0,0:0:0:0:
279,119,65128,2,0,L|200:111,1,60,2|0,0:0|0:0,0:0:0:0:
89,13,65556,6,0,P|57:41|54:131,1,120,2|2,0:0|0:0,0:0:0:0:
125,162,66199,1,0,0:0:0:0:
53,232,66414,2,0,L|61:297,1,60,2|0,0:0|0:0,0:0:0:0:
174,376,66842,6,0,L|162:304,1,60,2|0,0:0|0:0,0:0:0:0:
211,235,67284,2,0,P|248:260|341:258,1,120,2|2,0:0|0:0,0:0:0:0:
380,191,67949,1,0,0:0:0:0:
480,281,68170,2,0,P|492:322|482:353,1,60,2|0,0:0|0:0,0:0:0:0:
410,313,68604,2,0,L|406:171,1,120,2|2,0:0|0:0,0:0:0:0:
354,67,69256,1,0,0:0:0:0:
354,67,69474,6,0,P|319:82|301:119,1,60,2|0,0:0|0:0,0:0:0:0:
234,153,69950,2,0,P|167:155|101:149,1,120,2|2,0:0|0:0,0:0:0:0:
42,59,70602,1,0,0:0:0:0:
42,59,70819,2,0,P|77:56|110:31,1,60,2|0,0:0|0:0,0:0:0:0:
200,85,71250,2,0,P|241:68|269:70,1,60,2|0,0:0|0:0,0:0:0:0:
330,162,71682,2,0,L|328:228,1,60,2|0,0:0|0:0,0:0:0:0:
176,334,72113,6,0,P|168:290|178:194,1,120,2|2,0:0|0:0,0:0:0:0:
172,215,73050,2,0,L|253:203,1,60,2|0,0:0|0:0,0:0:0:0:
390,264,73463,2,0,P|401:297|387:347,1,60,2|2,0:0|0:0,0:0:0:0:
309,201,73897,2,0,P|295:160|302:121,1,60,0|2,0:0|0:0,0:0:0:0:
337,40,74332,1,2,0:0:0:0:
483,112,74812,6,0,P|437:147|355:140,1,120,2|0,0:0|0:0,0:0:0:0:
271,95,75473,1,0,0:0:0:0:
271,95,75694,2,0,L|196:106,1,60,0|0,0:0|0:0,0:0:0:0:
50,153,76135,2,0,P|24:192|30:285,1,120,2|0,0:0|0:0,0:0:0:0:
130,373,76797,1,0,0:0:0:0:
211,247,77017,2,0,L|280:229,1,60,0|0,0:0|0:0,0:0:0:0:
433,185,77459,5,2,0:0:0:0:
433,185,77900,2,0,L|448:101,2,60,0|0|0,0:0|0:0|0:0,0:0:0:0:
234,116,78782,1,2,0:0:0:0:
234,116,79223,2,0,P|219:72|223:50,2,60,0|0|0,0:0|0:0|0:0,0:0:0:0:
290,192,79885,1,0,0:0:0:0:
377,166,80106,6,0,P|415:141|322:35,1,240,2|0,0:0|0:0,0:0:0:0:
248,130,81490,2,0,L|254:255,2,120,0|0|0,0:0|0:0|0:0,0:0:0:0:
153,47,82813,2,0,P|90:69|24:72,1,120,0|0,0:0|0:0,0:0:0:0:
107,170,83658,1,0,0:0:0:0:
107,170,84080,2,0,P|162:190|353:181,1,240,0|0,0:0|0:0,0:0:0:0:
462,103,85403,6,0,P|465:71|462:34,1,60,2|0,0:0|0:0,0:0:0:0:
382,159,85844,2,0,P|380:236|387:303,1,120,0|0,0:0|0:0,0:0:0:0:
252,358,86726,2,0,P|214:359|178:349,1,60,2|0,0:0|0:0,0:0:0:0:
81,296,87167,2,0,P|130:287|212:259,1,120,0|0,0:0|0:0,0:0:0:0:
311,163,88050,2,0,P|316:115|308:90,1,60,2|0,0:0|0:0,0:0:0:0:
222,20,88478,2,0,P|220:63|229:160,1,120,0|0,0:0|0:0,0:0:0:0:
274,235,89159,1,0,0:0:0:0:
274,235,89380,2,0,L|351:232,1,60,2|0,0:0|0:0,0:0:0:0:
237,320,89808,2,0,P|317:314|431:319,1,180,0|0,0:0|0:0,0:0:0:0:
468,256,90696,6,0,P|455:224|453:172,1,60,2|0,0:0|0:0,0:0:0:0:
441,84,91140,2,0,P|456:117|449:204,1,120,0|0,0:0|0:0,0:0:0:0:
292,280,92022,2,0,L|222:285,1,60,2|0,0:0|0:0,0:0:0:0:
163,195,92463,2,0,P|198:214|232:286,1,120,0|0,0:0|0:0,0:0:0:0:
40,123,93345,2,0,L|34:54,1,60,2|0,0:0|0:0,0:0:0:0:
119,161,93787,2,0,P|173:157|240:104,1,120,0|0,0:0|0:0,0:0:0:0:
390,38,94669,5,2,0:0:0:0:
280,88,95110,1,2,0:0:0:0:
342,190,95551,1,0,0:0:0:0:
452,144,95991,6,0,P|463:173|449:281,1,120,2|0,0:0|0:0,0:0:0:0:
261,321,96836,1,2,0:0:0:0:
261,321,97300,2,0,P|246:283|259:191,1,120,2|0,0:0|0:0,0:0:0:0:
344,119,98207,1,0,0:0:0:0:
243,55,98637,6,0,L|166:65,1,60,0|2,0:0|0:0,0:0:0:0:
70,130,99078,2,0,L|147:140,1,60,2|2,0:0|0:0,0:0:0:0:
215,193,99519,2,0,L|214:255,1,60,2|0,0:0|0:0,0:0:0:0:
132,363,99960,1,0,0:0:0:0:
132,363,100401,2,0,P|201:330|304:362,1,180,0|0,0:0|0:0,0:0:0:0:
398,313,101284,6,0,B|438:220|323:180|402:70,1,240,0|0,0:0|0:0,0:0:0:0:
114,71,102607,2,0,B|74:164|189:204|110:314,1,240,0|0,0:0|0:0,0:0:0:0:
47,237,103710,1,0,0:0:0:0:
124,181,103922,6,0,P|167:162|204:171,1,60,4|0,0:0|0:0,0:0:0:0:
332,264,104363,2,0,P|289:269|208:236,1,120,0|0,0:0|0:0,0:0:0:0:
192,132,105024,1,0,0:0:0:0:
381,46,105245,1,2,0:0:0:0:
381,46,105686,2,0,L|380:115,1,60,2|2,0:0|0:0,0:0:0:0:
448,184,106099,2,0,L|444:252,1,60,2|8,0:0|0:0,0:0:0:0:
232,192,106561,5,8,0:0:0:0:
324,320,107004,2,0,P|258:324|195:317,1,120,2|2,0:0|0:0,0:0:0:0:
33,205,107892,2,0,L|100:203,1,60,2|0,0:0|0:0,0:0:0:0:
171,151,108305,2,0,P|165:84|168:16,1,120,2|2,0:0|0:0,0:0:0:0:
257,29,108986,1,0,0:0:0:0:
252,210,109207,5,8,0:0:0:0:
252,210,109651,2,0,P|288:220|392:212,1,120,2|2,0:0|0:0,0:0:0:0:
442,155,110317,1,0,0:0:0:0:
259,61,110539,1,2,0:0:0:0:
259,61,110980,2,0,P|253:100|257:135,1,60,2|2,0:0|0:0,0:0:0:0:
147,209,111421,2,0,P|153:173|149:143,1,60,2|0,0:0|0:0,0:0:0:0:
38,41,111862,5,8,0:0:0:0:
38,41,112083,1,8,0:0:0:0:
47,180,112303,2,0,L|57:309,1,120,2|2,0:0|0:0,0:0:0:0:
138,349,112965,1,0,0:0:0:0:
254,297,113186,2,0,P|219:271|195:270,1,60,2|0,0:0|0:0,0:0:0:0:
135,165,113627,2,0,P|147:135|175:113,1,60,2|0,0:0|0:0,0:0:0:0:
367,175,114068,2,0,P|346:197|316:208,1,60,2|0,0:0|0:0,0:0:0:0:
256,36,114509,5,8,0:0:0:0:
256,36,114950,2,0,B|273:78|238:106|257:171,1,120,2|2,0:0|0:0,0:0:0:0:
414,326,115833,1,2,0:0:0:0:
414,326,116274,1,2,0:0:0:0:
451,237,116494,1,2,0:0:0:0:
354,241,116715,2,0,P|321:245|290:266,1,60,2|8,0:0|0:0,0:0:0:0:
149,355,117156,5,10,0:0:0:0:
149,355,117597,2,0,L|138:220,1,120,2|2,0:0|0:0,0:0:0:0:
71,167,118259,1,0,0:0:0:0:
178,85,118480,6,0,P|220:72|275:86,1,90,2|0,0:0|0:0,0:0:0:0:
306,149,118921,2,0,P|295:192|265:225,1,90,2|0,0:0|0:0,0:0:0:0:
189,233,119362,2,0,P|157:204|142:161,1,90,2|0,0:0|0:0,0:0:0:0:
226,156,119803,5,8,0:0:0:0:
226,156,120244,2,0,B|272:138|296:181|364:148,1,120,2|2,0:0|0:0,0:0:0:0:
390,16,121127,1,2,0:0:0:0:
390,16,121347,2,0,P|354:18|309:91,1,120,0|2,0:0|0:0,0:0:0:0:
354,150,121899,1,0,0:0:0:0:
354,150,122009,2,0,L|405:154,1,30,2|2,0:0|0:0,0:0:0:0:
389,227,122230,2,0,L|440:231,1,30,0|0,0:0|0:0,0:0:0:0:
456,297,122450,6,0,L|405:301,1,30,0|0,0:0|0:0,0:0:0:0:
421,374,122671,2,0,L|370:378,1,30,0|0,0:0|0:0,0:0:0:0:
328,329,122891,2,0,P|285:311|250:323,1,60,2|0,0:0|0:0,0:0:0:0:
121,345,123333,2,0,P|154:364|195:366,1,60,2|0,0:0|0:0,0:0:0:0:
219,199,123774,1,2,0:0:0:0:
219,199,124215,2,0,P|212:141|191:71,1,120,0|0,0:0|0:0,0:0:0:0:
79,35,125125,5,0,0:0:0:0:
18,172,125579,2,0,P|67:179|152:173,1,120,0|0,0:0|0:0,0:0:0:0:
247,78,126448,2,0,P|226:202|273:323,1,240,0|0,0:0|0:0,0:0:0:0:
402,286,127752,5,0,0:0:0:0:
421,143,128082,2,0,L|423:125,1,15
421,143,128193,2,0,B|334:117|330:188|229:140,1,180,0|2,0:0|0:0,0:0:0:0:
144,64,129054,2,0,P|97:52|69:57,2,60,2|0|0,0:0|0:0|0:0,0:0:0:0:
93,233,129684,2,0,P|65:213|33:123,1,120,2|2,0:0|0:0,0:0:0:0:
175,173,130396,6,0,L|171:297,1,120,0|0,0:0|0:0,0:0:0:0:
370,280,131333,1,0,0:0:0:0:
321,362,131567,1,0,0:0:0:0:
266,272,131802,2,0,P|254:212|358:75,1,240,0|0,0:0|0:0,0:0:0:0:
155,41,133087,5,0,0:0:0:0:
106,123,133292,1,0,0:0:0:0:
56,41,133497,1,2,0:0:0:0:
190,117,133703,2,0,P|192:168|168:251,1,120,2|0,0:0|0:0,0:0:0:0:
77,342,134395,1,2,0:0:0:0:
77,342,134832,2,0,P|139:336|209:340,1,107.999996704102,0|2,0:0|0:0,0:0:0:0:
428,316,135705,6,0,P|392:320|307:282,1,120,0|0,0:0|0:0,0:0:0:0:
265,155,136587,1,0,0:0:0:0:
363,61,137028,1,0,0:0:0:0:
450,185,137494,2,0,L|448:326,1,120,0|0,0:0|0:0,0:0:0:0:
226,334,138376,6,0,P|157:319|98:290,2,120,2|0|0,0:0|0:0|0:0,0:0:0:0:
326,211,139680,2,0,P|366:212|447:249,2,120,2|0|0,0:0|0:0|0:0,0:0:0:0:
183,75,140993,6,0,P|124:78|41:59,1,120,2|0,0:0|0:0,0:0:0:0:
234,194,141875,2,0,P|244:163|243:135,1,60,0|0,0:0|0:0,0:0:0:0:
372,27,142379,6,0,P|368:88|378:154,1,120,2|0,0:0|0:0,0:0:0:0:
444,299,143251,2,0,P|408:319|376:330,1,60
301,272,143679,6,0,P|243:268|122:293,1,180,2|0,0:0|0:0,0:0:0:0:
50,243,144548,2,0,L|44:161,1,60,0|0,0:0|0:0,0:0:0:0:
151,32,145056,2,0,P|157:100|133:152,1,120
295,70,146303,6,0,P|297:111|318:192,1,120,2|2,0:0|0:0,0:0:0:0:
386,252,146950,1,0,0:0:0:0:
471,153,147166,2,0,P|438:160|404:175,1,60,0|0,0:0|0:0,0:0:0:0:
265,279,147597,2,0,P|293:303|381:327,1,120,2|2,0:0|0:0,0:0:0:0:
458,287,148244,1,0,0:0:0:0:
304,191,148460,2,0,L|234:203,1,60,0|0,0:0|0:0,0:0:0:0:
101,254,148921,6,0,L|165:270,1,60,2|0,0:0|0:0,0:0:0:0:
189,128,149362,2,0,P|146:127|69:187,1,120,2|0,0:0|0:0,0:0:0:0:
197,33,150244,2,0,P|242:31|315:63,1,120,2|2,0:0|0:0,0:0:0:0:
400,140,150906,1,0,0:0:0:0:
400,140,151126,2,0,L|387:206,1,60,2|0,0:0|0:0,0:0:0:0:
292,294,151568,6,0,L|273:212,1,60,2|0,0:0|0:0,0:0:0:0:
455,230,152009,2,0,P|459:274|426:370,1,120,2|0,0:0|0:0,0:0:0:0:
347,370,152671,1,0,0:0:0:0:
347,370,152891,2,0,L|281:363,1,60,2|0,0:0|0:0,0:0:0:0:
127,325,153332,2,0,P|111:289|112:254,1,60,2|0,0:0|0:0,0:0:0:0:
220,183,153773,2,0,P|248:211|250:254,1,60
126,173,154215,6,0,L|117:51,1,120,2|2,0:0|0:0,0:0:0:0:
206,18,154876,1,0,0:0:0:0:
206,18,155097,2,0,L|275:24,1,60,0|0,0:0|0:0,0:0:0:0:
420,94,155538,2,0,P|380:108|295:110,1,120,2|2,0:0|0:0,0:0:0:0:
149,178,156200,2,0,L|137:116,2,60,0|2|0,0:0|0:0|0:0,0:0:0:0:
231,316,156862,6,0,P|255:278|255:196,1,120,2|0,0:0|0:0,0:0:0:0:
67,202,157523,2,0,L|80:264,2,60,0|0|0,0:0|0:0|0:0,0:0:0:0:
61,109,158185,2,0,P|101:84|191:89,1,120,2|0,0:0|0:0,0:0:0:0:
337,194,158847,2,0,P|293:217|216:198,1,120,0|0,0:0|0:0,0:0:0:0:
307,92,159509,6,0,P|348:76|446:82,2,120,2|0|0,0:0|0:0|0:0,0:0:0:0:
205,292,160832,2,0,P|163:307|66:302,2,120,2|0|0,0:0|0:0|0:0,0:0:0:0:
389,191,162162,2,0,P|433:288|276:333,1,300
207,230,163530,2,0,P|195:186|208:107,2,120,0|0|0,0:0|0:0|0:0,0:0:0:0:
322,209,164857,6,0,P|334:125|312:24,1,180.000006866455,0|0,0:0|0:0,0:0:0:0:
190,175,166154,2,0,P|178:259|200:360,1,180.000006866455,0|0,0:0|0:0,0:0:0:0:
372,334,167451,6,0,P|406:324|441:321,1,60,0|0,0:0|0:0,0:0:0:0:
312,226,167892,2,0,P|355:230|392:222,1,60,0|0,0:0|0:0,0:0:0:0:
356,128,168333,2,0,P|394:118|428:115,1,60,0|0,0:0|0:0,0:0:0:0:
296,33,168774,6,0,P|259:26|225:24,1,60,0|0,0:0|0:0,0:0:0:0:
180,113,169215,2,0,P|137:116|116:112,1,60,0|0,0:0|0:0,0:0:0:0:
244,206,169656,2,0,P|207:202|180:210,1,60,0|0,0:0|0:0,0:0:0:0:
68,262,170098,6,0,P|69:296|84:334,1,60,0|0,0:0|0:0,0:0:0:0:
222,283,170539,2,0,P|223:320|218:353,1,60,0|0,0:0|0:0,0:0:0:0:
361,238,170980,2,0,P|360:274|364:302,1,60,0|0,0:0|0:0,0:0:0:0:
418,143,171421,6,0,P|429:119|437:74,1,60,0|0,0:0|0:0,0:0:0:0:
310,165,171862,2,0,P|295:129|286:92,1,60,0|0,0:0|0:0,0:0:0:0:
176,212,172303,2,0,P|184:171|179:143,1,60,0|0,0:0|0:0,0:0:0:0:
48,62,172745,6,0,P|84:81|126:92,1,60,0|0,0:0|0:0,0:0:0:0:
259,86,173186,2,0,P|226:101|202:118,1,60,0|0,0:0|0:0,0:0:0:0:
86,206,173627,2,0,P|120:215|152:212,1,60,0|0,0:0|0:0,0:0:0:0:
320,281,174068,6,0,P|283:288|255:285,1,60,0|0,0:0|0:0,0:0:0:0:
342,136,174509,2,0,P|362:184|368:217,1,60,0|0,0:0|0:0,0:0:0:0:
439,306,174951,2,0,P|437:266|446:231,1,60,0|0,0:0|0:0,0:0:0:0:
488,147,175392,6,0,P|446:140|419:142,1,60,0|0,0:0|0:0,0:0:0:0:
417,27,175833,2,0,P|379:42|358:64,1,60,0|0,0:0|0:0,0:0:0:0:
252,29,176274,2,0,P|253:76|270:108,1,60,0|0,0:0|0:0,0:0:0:0:
212,178,176715,6,0,P|151:171|79:179,1,120,0|0,0:0|0:0,0:0:0:0:
36,266,177377,1,0,0:0:0:0:
157,328,177598,2,0,P|159:289|155:250,1,60,0|0,0:0|0:0,0:0:0:0:
130,82,178039,6,0,P|181:70|275:80,1,135.000005149841,2|0,0:0|0:0,0:0:0:0:
355,96,178929,2,0,P|367:78|372:37,1,60,0|0,0:0|0:0,0:0:0:0:
449,153,179389,2,0,P|442:206|454:289,1,120,2|0,0:0|0:0,0:0:0:0:
328,361,180244,2,0,P|287:350|253:353,1,60,0|0,0:0|0:0,0:0:0:0:
162,369,180685,6,0,P|150:337|146:238,1,120,2|0,0:0|0:0,0:0:0:0:
143,252,181567,2,0,P|129:293|102:315,1,60,0|0,0:0|0:0,0:0:0:0:
60,190,182038,2,0,P|85:162|177:150,1,120,2|2,0:0|0:0,0:0:0:0:
387,228,182875,5,2,0:0:0:0:
278,288,183105,1,0,0:0:0:0:
292,139,183336,2,0,L|301:86,1,30,2|0,0:0|0:0,0:0:0:0:
251,205,183787,2,0,P|255:164|189:36,1,180,0|0,0:0|0:0,0:0:0:0:
74,106,184691,6,0,P|69:144|77:177,1,60,0|0,0:0|0:0,0:0:0:0:
130,231,184991,1,0,0:0:0:0:
130,231,185091,2,0,L|175:238,1,30,0|0,0:0|0:0,0:0:0:0:
182,310,185313,2,0,L|227:317,1,30,0|0,0:0|0:0,0:0:0:0:
300,314,185535,2,0,L|330:310,1,30,0|0,0:0|0:0,0:0:0:0:
352,235,185757,2,0,L|382:231,1,30,0|0,0:0|0:0,0:0:0:0:
399,111,185979,6,0,P|354:89|264:101,1,120,12|0,0:0|0:0,0:0:0:0:
215,164,186640,1,0,0:0:0:0:
215,164,186751,1,0,0:0:0:0:
215,164,186861,2,0,L|222:200,3,30,0|0|0|0,0:0|0:0|0:0|0:0,0:0:0:0:
225,239,187302,6,0,P|190:261|101:261,1,120,2|0,0:0|0:0,0:0:0:0:
48,193,187964,1,0,0:0:0:0:
105,23,188184,2,0,P|117:65|117:99,1,60,0|0,0:0|0:0,0:0:0:0:
213,154,188626,6,0,L|288:148,1,60,8|0,0:0|0:0,0:0:0:0:
345,107,188956,1,0,0:0:0:0:
345,107,189067,2,0,L|348:70,1,30,0|0,0:0|0:0,0:0:0:0:
412,155,189287,2,0,L|418:184,1,30,0|0,0:0|0:0,0:0:0:0:
368,280,189508,2,0,P|349:255|345:215,1,60,0|0,0:0|0:0,0:0:0:0:
443,334,189949,6,0,P|420:354|313:350,1,120
261,291,190611,1,0,0:0:0:0:
134,304,190831,2,0,P|124:339|131:379,1,60,0|0,0:0|0:0,0:0:0:0:
184,218,191273,6,0,L|174:143,1,60,8|0,0:0|0:0,0:0:0:0:
173,115,191604,1,0,0:0:0:0:
173,115,191714,1,0,0:0:0:0:
249,39,191934,1,0,0:0:0:0:
249,39,192045,1,0,0:0:0:0:
249,39,192155,2,0,L|269:83,3,30,0|0|0|0,0:0|0:0|0:0|0:0,0:0:0:0:
280,103,192596,6,0,P|321:104|420:82,1,120
475,156,193258,1,0,0:0:0:0:
475,156,193368,1,0,0:0:0:0:
475,156,193479,2,0,L|468:234,1,60,0|0,0:0|0:0,0:0:0:0:
401,342,193920,6,0,L|392:300,1,30,8|0,0:0|0:0,0:0:0:0:
314,307,194140,2,0,L|324:254,1,30,8|0,0:0|0:0,0:0:0:0:
230,342,194361,2,0,L|214:305,1,30,0|0,0:0|0:0,0:0:0:0:
129,313,194581,2,0,L|142:267,1,30,0|0,0:0|0:0,0:0:0:0:
68,190,194802,2,0,P|58:225|64:263,1,60,0|0,0:0|0:0,0:0:0:0:
194,166,195243,6,0,P|206:128|202:95,1,60,0|0,0:0|0:0,0:0:0:0:
187,69,195574,1,0,0:0:0:0:
187,69,195684,1,0,0:0:0:0:
55,120,195905,1,0,0:0:0:0:
151,247,196126,2,0,P|198:254|222:249,1,60,0|0,0:0|0:0,0:0:0:0:
294,167,196567,6,0,P|330:166|364:178,1,60,8|0,0:0|0:0,0:0:0:0:
411,224,196898,1,0,0:0:0:0:
411,224,197008,2,0,L|423:261,1,30,0|0,0:0|0:0,0:0:0:0:
494,171,197229,2,0,L|482:208,1,30,0|0,0:0|0:0,0:0:0:0:
418,131,197449,2,0,P|402:97|375:75,1,60
244,20,197890,6,0,P|207:48|65:52,1,180,2|0,0:0|0:0,0:0:0:0:
19,166,198773,1,0,0:0:0:0:
79,273,198993,1,0,0:0:0:0:
79,273,199104,1,0,0:0:0:0:
79,273,199214,6,0,P|117:253|160:248,1,60,8|0,0:0|0:0,0:0:0:0:
204,287,199545,1,0,0:0:0:0:
204,287,199655,2,0,L|202:331,1,30,0|0,0:0|0:0,0:0:0:0:
280,316,199876,2,0,L|285:356,1,30,0|0,0:0|0:0,0:0:0:0:
363,321,200096,2,0,L|381:261,1,60,0|0,0:0|0:0,0:0:0:0:
384,156,200537,6,0,P|341:156|272:208,1,120
178,255,201199,1,0,0:0:0:0:
178,255,201309,1,0,0:0:0:0:
178,255,201420,2,0,L|157:219,3,30,0|0|0|0,0:0|0:0|0:0|0:0,0:0:0:0:
123,208,201861,6,0,L|130:70,1,120,8|0,0:0|0:0,0:0:0:0:
287,31,202523,1,0,0:0:0:0:
287,31,202633,1,0,0:0:0:0:
287,31,202743,2,0,L|320:45,3,30,0|0|0|0,0:0|0:0|0:0|0:0,0:0:0:0:
359,56,203184,2,0,P|374:110|352:232,1,180,0|0,0:0|0:0,0:0:0:0:
277,279,203956,1,0,0:0:0:0:
277,279,204067,2,0,L|247:283,1,30,0|0,0:0|0:0,0:0:0:0:
152,221,204287,2,0,L|181:218,1,30,0|0,0:0|0:0,0:0:0:0:
273,163,204508,6,0,L|275:133,3,30,12|0|0|0,0:0|0:0|0:0|0:0,0:0:0:0:
232,99,204949,2,0,L|223:67,3,30,0|0|0|0,0:0|0:0|0:0|0:0,0:0:0:0:
271,48,205390,2,0,L|273:18,3,30,0|0|0|0,0:0|0:0|0:0|0:0,0:0:0:0:
325,8,205831,2,0,P|359:8|392:19,1,60,0|0,0:0|0:0,0:0:0:0:
457,121,206273,2,0,P|420:128|392:118,1,60,2|2,0:0|0:0,0:0:0:0:
322,180,206714,1,2,0:0:0:0:
350,310,206934,5,8,0:0:0:0:
412,234,207155,1,8,0:0:0:0:
412,234,207376,1,8,0:0:0:0:
256,269,207596,2,0,P|158:312|156:195,1,240,2|2,0:0|0:0,0:0:0:0:
231,107,208699,1,0,0:0:0:0:
231,107,208809,1,0,0:0:0:0:
231,107,208920,2,0,P|236:154|220:193,1,77.9999964294435,2|0,0:0|0:0,0:0:0:0:
112,92,209361,2,0,P|107:63|119:32,1,60,2|0,0:0|0:0,0:0:0:0:
302,71,209802,6,0,P|319:118|305:213,1,120,8|2,0:0|0:0,0:0:0:0:
282,330,210464,1,0,0:0:0:0:
282,330,210574,1,0,0:0:0:0:
282,330,210684,2,0,L|328:322,3,30,2|0|0|0,0:0|0:0|0:0|0:0,0:0:0:0:
361,334,211126,2,0,P|378:279|429:218,1,120,0|2,0:0|0:0,0:0:0:0:
503,172,211787,1,2,0:0:0:0:
440,98,212008,1,2,0:0:0:0:
332,184,212229,5,8,0:0:0:0:
232,81,212449,1,8,0:0:0:0:
232,81,212670,1,8,0:0:0:0:
331,23,212890,2,0,P|341:56|339:95,1,60,2|0,0:0|0:0,0:0:0:0:
246,212,213331,6,0,P|235:180|237:152,2,40,2|0|0,0:0|0:0|0:0,0:0:0:0:
338,269,213773,2,0,P|363:270|388:259,2,40,2|0|0,0:0|0:0|0:0,0:0:0:0:
254,338,214214,2,0,P|214:328|185:332,1,60,2|0,0:0|0:0,0:0:0:0:
75,277,214655,2,0,P|120:267|153:247,1,60,2|0,0:0|0:0,0:0:0:0:
159,114,215096,5,8,0:0:0:0:
159,114,215317,1,8,0:0:0:0:
251,184,215537,2,0,P|298:194|377:192,1,120,2|2,0:0|0:0,0:0:0:0:
435,39,216420,1,2,0:0:0:0:
435,39,216861,2,0,L|368:36,1,60,2|2,0:0|0:0,0:0:0:0:
268,126,217302,2,0,L|337:106,1,60,2|8,0:0|0:0,0:0:0:0:
165,50,217743,5,8,0:0:0:0:
165,50,217964,1,8,0:0:0:0:
94,141,218184,2,0,P|95:182|106:278,1,120,2|2,0:0|0:0,0:0:0:0:
345,360,219067,2,0,P|358:319|345:220,1,120,2|0,0:0|0:0,0:0:0:0:
308,149,219710,1,0,0:0:0:0:
217,30,219913,2,0,P|217:77|232:105,1,60,2|0,0:0|0:0,0:0:0:0:
255,230,220381,6,0,P|207:255|121:255,2,120,0|2|2,0:0|0:0|0:0,0:0:0:0:
409,187,221714,5,0,0:0:0:0:
409,187,222132,2,0,P|399:270|399:332,1,120,2|2,0:0|0:0,0:0:0:0:
289,354,222817,1,8,0:0:0:0:
289,354,223039,2,0,L|216:344,1,60,8|8,0:0|0:0,0:0:0:0:
108,313,223480,2,0,P|119:278|111:237,1,60,2|0,0:0|0:0,0:0:0:0:
208,192,223980,2,0,P|190:153|195:66,1,120,2|2,0:0|0:0,0:0:0:0:
256,192,224813,12,0,230313,0:0:0:0:
