osu file format v12

[General]
AudioFilename: 04 - wert.mp3
AudioLeadIn: 0
PreviewTime: 186742
Countdown: 0
SampleSet: Soft
StackLeniency: 0.3
Mode: 0
LetterboxInBreaks: 1

[Editor]
Bookmarks: 31141,67521,106708,175521
DistanceSpacing: 0.7
BeatDivisor: 4
GridSize: 4

[Metadata]
Title:wert
TitleUnicode:wert
Artist:onoken
ArtistUnicode:onoken
Creator:KaNe[YYK]YoMe
Version:Normal
Source:
Tags:Swell Strings axsword instrumental
BeatmapID:204932
BeatmapSetID:71373

[Difficulty]
HPDrainRate:2
CircleSize:3
OverallDifficulty:2
ApproachRate:4
SliderMultiplier:1.5
SliderTickRate:1

[Events]
//Background and Video events
0,0,"release_img.jpg",0,0
//Break Periods
2,34567,35860
2,52567,60235
//Storyboard Layer 0 (Background)
//Storyboard Layer 1 (Fail)
//Storyboard Layer 2 (Pass)
//Storyboard Layer 3 (Foreground)
//Storyboard Sound Samples
//Background Colour Transformations
3,100,163,162,255

[TimingPoints]
30055,375,4,2,0,100,1,0
115555,-100,4,2,0,100,0,1
139180,-100,4,2,0,100,0,0
139555,-100,4,2,0,100,0,1
163555,-100,4,2,0,100,0,0
187541,-100,4,2,0,100,0,1
193166,-100,4,2,0,100,0,0
193541,-100,4,2,0,100,0,1
199166,-100,4,2,0,100,0,0
199541,-100,4,2,0,100,0,1
205166,-100,4,2,0,100,0,0
205541,-100,4,2,0,100,0,1
211166,-100,4,2,0,100,0,0
211541,-100,4,2,0,100,0,1
217166,-100,4,2,0,100,0,0
217541,-100,4,2,0,100,0,1
223166,-100,4,2,0,100,0,0
223541,-100,4,2,0,100,0,1
229166,-100,4,2,0,100,0,0
229541,-100,4,2,0,100,0,1
235728,-100,4,2,0,5,0,0

[Colours]
Combo1 : 121,0,147
Combo2 : 28,146,217
Combo3 : 14,2,242
Combo4 : 107,126,146

[HitObjects]
256,192,31180,5,0,0:0:0:0:
160,104,31555,2,0,L|336:104,1,150
344,288,32305,6,0,L|184:288,1,150
172,192,33055,5,0,0:0:0:0:
340,192,33430,1,0,0:0:0:0:
256,152,33805,2,0,L|256:256,3,75
256,192,37180,5,0,0:0:0:0:
160,96,37555,2,0,L|160:280,1,150
352,304,38305,6,0,L|352:128,1,150
256,112,39055,5,0,0:0:0:0:
256,272,39430,1,0,0:0:0:0:
216,192,39805,2,0,L|320:192,3,75
256,192,43180,5,0,0:0:0:0:
256,112,43555,2,0,L|160:152,2,75
256,272,44305,2,0,L|352:232,2,75
336,192,45055,1,0,0:0:0:0:
176,192,45430,1,0,0:0:0:0:
256,232,45805,2,0,L|256:128,3,75
256,192,49180,5,0,0:0:0:0:
256,104,49555,2,0,L|424:104,1,150
408,192,50305,1,0,0:0:0:0:
408,280,50680,1,0,0:0:0:0:
320,280,51055,2,0,L|160:280,1,150
168,192,51805,2,0,L|168:88,3,75
256,192,61555,12,0,67180,0:0:0:0:
152,104,67555,6,0,P|200:80|224:80,3,75
296,80,68305,2,0,P|368:112|384:128,3,75
424,176,69055,1,0,0:0:0:0:
304,176,69430,1,0,0:0:0:0:
192,176,69805,2,0,P|232:112|304:80,1,150
432,80,70555,6,0,P|376:192|336:192,1,150
336,80,71305,2,0,P|264:136|264:208,1,150
184,280,72055,2,0,P|288:296|296:264,2,150
256,184,73180,1,0,0:0:0:0:
368,184,73555,5,0,0:0:0:0:
368,184,73742,2,0,P|344:104|280:80,1,150
208,80,74492,2,0,P|144:120|128:200,1,150,0|0,0:0|0:0,0:0:0:0:
128,288,75242,1,0,0:0:0:0:
224,288,75617,1,0,0:0:0:0:
328,288,75992,2,0,P|400:264|424:192,1,150
424,88,76742,2,0,B|312:-24|256:264|184:-40|64:96,1,375
72,192,78055,1,0,0:0:0:0:
144,264,78430,1,0,0:0:0:0:
248,264,78805,2,0,P|184:184|152:184,2,112.5
296,64,79742,6,0,P|376:96|376:168,1,150
384,232,80492,2,0,P|352:312|280:312,1,150
216,320,81242,2,0,P|136:288|136:216,1,150
128,152,81992,2,0,P|160:72|232:72,1,150
296,64,82742,2,0,P|376:96|376:168,1,150
224,144,83492,2,0,P|288:152|288:168,2,75
288,232,84242,2,0,P|224:224|224:208,2,75
224,144,84805,1,0,0:0:0:0:
288,144,85180,1,0,0:0:0:0:
216,320,85742,6,0,P|136:288|136:216,1,150
128,152,86492,2,0,P|160:72|232:72,1,150
296,64,87242,2,0,P|376:96|376:168,1,150
384,232,87992,2,0,P|352:312|280:312,1,150
216,320,88742,2,0,P|136:288|136:216,1,150
288,240,89492,2,0,P|224:232|224:216,2,75
224,152,90242,2,0,P|288:160|288:176,2,75
136,176,90805,2,0,B|88:176|88:176|72:120,3,75
136,72,91742,6,0,L|224:72,2,75
304,72,92492,2,0,L|408:72,2,75
384,176,93242,2,0,L|224:176,1,150
136,176,93992,1,0,0:0:0:0:
136,176,94367,1,0,0:0:0:0:
136,280,94742,2,0,L|232:280,2,75
304,280,95492,2,0,L|392:280,1,75
408,144,97180,6,0,L|320:144,1,75
240,144,97930,2,0,L|160:144,1,75
168,224,98680,1,0,0:0:0:0:
240,224,99055,1,0,0:0:0:0:
240,224,99430,1,0,0:0:0:0:
336,224,99992,6,0,L|432:224,2,75,0|0|0,0:0|0:0|0:0,0:0:0:0:
336,136,100930,2,0,L|336:48,6,75
336,224,102430,6,0,P|280:232|272:216,1,75
272,144,102992,2,0,P|208:104|160:152,1,150
160,224,103930,6,0,P|216:232|220:225,1,75
336,224,104680,1,0,0:0:0:0:
328,136,105055,2,0,L|192:136,2,112.5
424,144,105992,2,0,L|424:240,2,75
336,224,106930,6,0,L|248:224,1,75
160,224,107492,2,0,P|200:152|256:136,2,112.5
264,224,108430,2,0,L|352:224,1,75
424,224,109180,2,0,P|424:160|416:152,2,75
336,224,109930,5,0,0:0:0:0:
264,224,110305,1,0,0:0:0:0:
224,160,110680,1,0,0:0:0:0:
296,160,111055,2,0,L|296:72,3,75
264,224,111992,2,0,P|208:232|200:216,2,75
256,192,112742,12,0,114617,0:0:0:0:
256,192,115180,5,0,0:0:0:0:
256,192,115555,1,0,0:0:0:0:
256,192,115930,1,0,0:0:0:0:
348,192,116305,2,0,P|330:128|252:104,1,150
256,104,117055,2,0,P|192:121|168:200,1,150
224,264,117992,2,0,P|280:272|288:256,2,75
376,264,118742,2,0,P|358:200|280:176,1,150
208,176,119492,2,0,P|144:193|120:272,1,150
224,264,120242,2,0,P|280:272|288:256,2,75
216,144,121180,5,0,0:0:0:0:
256,144,121555,1,0,0:0:0:0:
296,144,121930,1,0,0:0:0:0:
296,240,122305,1,0,0:0:0:0:
256,240,122680,1,0,0:0:0:0:
216,240,123055,1,0,0:0:0:0:
256,192,123430,1,0,0:0:0:0:
288,112,123992,2,0,P|232:104|224:120,2,75
176,160,124742,2,0,P|168:216|184:224,2,75
224,272,125492,2,0,P|280:280|288:264,2,75
280,192,126055,5,0,0:0:0:0:
280,160,126430,1,0,0:0:0:0:
280,128,126805,1,0,0:0:0:0:
280,96,127180,1,0,0:0:0:0:
192,96,127555,6,0,P|160:168|96:184,1,150
320,288,128305,2,0,P|352:216|416:200,1,150
296,152,129055,2,0,L|200:240,2,112.5
120,192,129992,6,0,L|192:128,2,75
384,192,130742,2,0,L|320:256,2,75
384,104,131492,2,0,P|344:80|312:72,2,75
224,72,132055,2,0,L|88:72,2,112.5
112,160,132805,2,0,L|112:272,2,112.5
224,152,133555,5,0,0:0:0:0:
336,152,134117,2,0,L|336:240,3,75
256,192,135055,1,0,0:0:0:0:
256,192,135430,1,0,0:0:0:0:
176,160,135992,2,0,P|168:216|184:224,2,75
256,192,136742,2,0,L|352:192,6,75
336,104,138055,2,0,L|288:104,12,37.5
200,144,139555,6,0,P|200:232|216:216,1,225
296,232,140305,2,0,L|376:232,2,75
296,144,141055,1,0,0:0:0:0:
392,144,141430,1,0,0:0:0:0:
208,144,141992,2,0,L|120:144,2,75
136,232,142742,2,0,L|240:232,2,75
312,232,143492,2,0,L|408:232,2,75
312,312,144055,2,0,L|176:312,2,112.5
256,192,144805,1,0,0:0:0:0:
256,144,145086,1,0,0:0:0:0:
256,104,145367,1,0,0:0:0:0:
256,80,145555,6,0,P|336:104|368:160,1,150
368,240,146305,2,0,P|344:288|304:296,3,75
256,296,147430,1,0,0:0:0:0:
256,296,147992,2,0,P|208:232|112:192,1,150
152,120,149117,2,0,P|200:72|216:72,4,75
152,200,150055,2,0,L|152:248,4,37.5
152,200,150617,1,0,0:0:0:0:
256,104,151180,5,0,0:0:0:0:
256,104,151555,2,0,P|352:128|400:264,1,225
288,264,153992,6,0,P|232:264|232:280,2,75,0|0|0,0:0|0:0|0:0,0:0:0:0:
200,152,156055,5,0,0:0:0:0:
312,152,156805,1,0,0:0:0:0:
352,224,157555,2,0,P|224:264|144:208,2,225
256,152,159992,6,0,L|256:232,2,75
168,152,160555,2,0,P|128:176|128:216,1,75
120,280,160930,2,0,P|144:320|200:320,1,75
256,328,161305,2,0,P|296:304|296:248,3,75
304,192,162055,2,0,L|304:152,12,37.5
304,280,163555,1,0,0:0:0:0:
