osu file format v12

[General]
AudioFilename: 04 - wert.mp3
AudioLeadIn: 0
PreviewTime: 186742
Countdown: 0
SampleSet: Soft
StackLeniency: 0.3
Mode: 0
LetterboxInBreaks: 1

[Editor]
Bookmarks: 31141,67521,106708,175521
DistanceSpacing: 0.4
BeatDivisor: 4
GridSize: 4

[Metadata]
Title:wert
TitleUnicode:wert
Artist:onoken
ArtistUnicode:onoken
Creator:KaNe[YYK]YoMe
Version:Insane
Source:
Tags:Swell Strings axsword instrumental
BeatmapID:204627
BeatmapSetID:71373

[Difficulty]
HPDrainRate:6
CircleSize:5
OverallDifficulty:7
ApproachRate:9
SliderMultiplier:1.8
SliderTickRate:1

[Events]
//Background and Video events
0,0,"release_img.jpg",0,0
//Break Periods
2,52567,60921
2,163755,174921
//Storyboard Layer 0 (Background)
//Storyboard Layer 1 (Fail)
//Storyboard Layer 2 (Pass)
//Storyboard Layer 3 (Foreground)
//Storyboard Sound Samples
//Background Colour Transformations
3,100,163,162,255

[TimingPoints]
30055,375,4,2,0,25,1,0
37180,-100,4,2,0,50,0,0
43180,-100,4,2,0,75,0,0
49180,-100,4,2,0,100,0,0
61555,-100,4,2,0,35,0,0
67180,-100,4,2,0,100,0,0
115555,-100,4,2,0,100,0,1
139180,-100,4,2,0,100,0,0
139555,-100,4,2,0,100,0,1
163555,-100,4,2,0,100,0,0
175555,-100,4,2,0,30,0,0
186055,-100,4,2,0,45,0,0
186242,-100,4,2,0,60,0,0
186430,-100,4,2,0,75,0,0
186617,-100,4,2,0,100,0,0
187541,-100,4,2,0,100,0,1
193166,-100,4,2,0,100,0,0
193541,-100,4,2,0,100,0,1
199166,-100,4,2,0,100,0,0
199541,-100,4,2,0,100,0,1
205166,-100,4,2,0,100,0,0
205541,-100,4,2,0,100,0,1
211166,-100,4,2,0,100,0,0
211541,-100,4,2,0,100,0,1
217166,-100,4,2,0,100,0,0
217541,-100,4,2,0,100,0,1
223166,-100,4,2,0,100,0,0
223541,-100,4,2,0,100,0,1
229166,-100,4,2,0,100,0,0
229541,-100,4,2,0,100,0,1
235728,-100,4,2,0,5,0,0
238166,-100,4,2,0,5,0,0

[Colours]
Combo1 : 121,0,147
Combo2 : 28,146,217
Combo3 : 14,2,242
Combo4 : 107,126,146

[HitObjects]
256,192,31180,5,0,0:0:0:0:
256,80,31555,1,0,0:0:0:0:
256,152,31930,1,0,0:0:0:0:
256,208,32305,1,0,0:0:0:0:
256,248,32680,1,0,0:0:0:0:
256,272,33055,1,0,0:0:0:0:
256,280,33430,1,0,0:0:0:0:
152,192,33992,5,0,0:0:0:0:
256,80,34180,1,0,0:0:0:0:
360,192,34367,1,0,0:0:0:0:
256,192,37180,5,0,0:0:0:0:
188,116,37555,2,0,B|144:192|144:192|208:300,1,180
320,272,38305,2,0,B|364:192|364:192|300:84,1,180
188,272,39055,1,0,0:0:0:0:
320,116,39430,1,0,0:0:0:0:
256,184,39805,5,0,0:0:0:0:
256,272,39992,1,0,0:0:0:0:
188,116,40180,1,0,0:0:0:0:
320,116,40367,1,0,0:0:0:0:
256,192,43180,5,0,0:0:0:0:
256,64,43555,1,0,0:0:0:0:
184,128,43742,1,0,0:0:0:0:
256,192,43930,1,0,0:0:0:0:
328,264,44117,1,0,0:0:0:0:
256,328,44305,1,0,0:0:0:0:
184,264,44492,1,0,0:0:0:0:
256,192,44680,1,0,0:0:0:0:
328,128,44867,1,0,0:0:0:0:
201,135,45055,6,0,B|240:144|240:144|256:192,1,90
310,248,45430,2,0,B|272:240|272:240|256:192,1,90
256,64,45805,1,0,0:0:0:0:
120,192,45992,1,0,0:0:0:0:
256,328,46180,1,0,0:0:0:0:
392,192,46367,1,0,0:0:0:0:
256,192,49180,5,0,0:0:0:0:
72,64,49555,1,0,0:0:0:0:
84,92,49648,1,0,0:0:0:0:
104,116,49742,2,0,P|152:132|192:136,1,90
220,152,50023,1,0,0:0:0:0:
248,168,50117,1,0,0:0:0:0:
272,188,50211,1,0,0:0:0:0:
292,212,50305,1,0,0:0:0:0:
308,240,50398,1,0,0:0:0:0:
324,268,50492,2,0,P|372:292|412:276,1,90
224,192,50867,5,0,0:0:0:0:
256,192,50961,1,0,0:0:0:0:
288,192,51055,1,0,0:0:0:0:
144,92,51242,1,0,0:0:0:0:
368,292,51430,1,0,0:0:0:0:
256,192,51617,1,0,0:0:0:0:
256,192,51805,1,0,0:0:0:0:
192,256,51992,1,0,0:0:0:0:
256,192,52180,1,0,0:0:0:0:
320,128,52367,1,0,0:0:0:0:
256,192,61555,12,8,67180,0:0:0:0:
144,120,67555,5,0,0:0:0:0:
256,152,67742,1,0,0:0:0:0:
368,120,67930,1,2,0:0:0:0:
344,224,68117,1,0,0:0:0:0:
304,248,68211,1,0,0:0:0:0:
256,256,68305,1,0,0:0:0:0:
208,248,68398,1,0,0:0:0:0:
176,224,68492,1,0,0:0:0:0:
256,64,68680,2,2,L|256:168,1,90
256,152,69055,5,0,0:0:0:0:
176,272,69242,1,0,0:0:0:0:
344,272,69430,1,2,0:0:0:0:
256,296,69617,1,0,0:0:0:0:
256,248,69711,1,0,0:0:0:0:
256,200,69805,1,0,0:0:0:0:
256,152,69898,1,0,0:0:0:0:
256,104,69992,1,0,0:0:0:0:
208,200,70180,2,2,L|320:200,1,90
408,96,70555,5,0,0:0:0:0:
400,144,70648,1,0,0:0:0:0:
384,184,70742,1,0,0:0:0:0:
360,224,70836,1,0,0:0:0:0:
328,256,70930,6,0,P|272:296|232:312,1,90
208,312,71211,1,0,0:0:0:0:
160,312,71305,1,0,0:0:0:0:
120,296,71398,1,0,0:0:0:0:
88,264,71492,1,0,0:0:0:0:
96,208,71680,2,2,P|152:136|176:128,1,90
198,134,72055,5,0,0:0:0:0:
208,144,72148,1,0,0:0:0:0:
216,152,72242,1,0,0:0:0:0:
224,160,72336,1,0,0:0:0:0:
232,168,72430,1,0,0:0:0:0:
240,176,72523,1,0,0:0:0:0:
248,184,72617,1,0,0:0:0:0:
256,192,72711,1,0,0:0:0:0:
264,200,72805,2,0,L|368:200,1,90
352,200,73180,1,2,0:0:0:0:
160,200,73367,1,2,0:0:0:0:
208,80,73555,6,0,P|272:80|296:96,1,90
304,104,73836,1,0,0:0:0:0:
312,120,73930,2,0,P|312:168|264:216,1,90
280,216,74211,1,0,0:0:0:0:
272,224,74305,1,0,0:0:0:0:
264,232,74398,1,0,0:0:0:0:
256,240,74492,1,0,0:0:0:0:
228,264,74680,2,2,L|124:264,1,90
140,264,75055,6,0,P|70:240|46:200,1,90
62,216,75336,1,0,0:0:0:0:
62,200,75430,1,0,0:0:0:0:
62,184,75523,1,0,0:0:0:0:
62,168,75617,1,0,0:0:0:0:
62,152,75711,1,0,0:0:0:0:
62,128,75805,2,0,P|94:96|102:96,1,45
110,96,75992,1,0,0:0:0:0:
256,72,76180,1,2,0:0:0:0:
256,192,76367,1,2,0:0:0:0:
328,88,76555,5,0,0:0:0:0:
352,128,76648,1,0,0:0:0:0:
392,144,76742,1,0,0:0:0:0:
200,288,76930,1,0,0:0:0:0:
176,256,77023,1,0,0:0:0:0:
144,240,77117,1,0,0:0:0:0:
296,192,77305,5,0,0:0:0:0:
256,192,77398,1,0,0:0:0:0:
216,192,77492,1,0,0:0:0:0:
112,88,77680,5,2,0:0:0:0:
392,296,77867,1,2,0:0:0:0:
120,152,78055,5,0,0:0:0:0:
160,136,78148,1,0,0:0:0:0:
184,104,78242,1,0,0:0:0:0:
376,232,78430,5,0,0:0:0:0:
336,248,78523,1,0,0:0:0:0:
312,288,78617,1,0,0:0:0:0:
256,152,78805,5,0,0:0:0:0:
256,192,78898,1,0,0:0:0:0:
256,232,78992,1,0,0:0:0:0:
112,296,79180,5,2,0:0:0:0:
392,88,79367,1,2,0:0:0:0:
376,192,79555,5,0,0:0:0:0:
256,192,79742,1,0,0:0:0:0:
136,192,79930,1,0,0:0:0:0:
256,280,80117,1,0,0:0:0:0:
256,312,80211,1,0,0:0:0:0:
256,104,80398,1,0,0:0:0:0:
256,72,80492,1,0,0:0:0:0:
256,192,80680,1,2,0:0:0:0:
256,192,80867,1,2,0:0:0:0:
256,72,81055,5,0,0:0:0:0:
256,192,81242,1,0,0:0:0:0:
256,312,81430,1,0,0:0:0:0:
136,192,81617,1,0,0:0:0:0:
104,192,81711,1,0,0:0:0:0:
368,192,81898,1,0,0:0:0:0:
400,192,81992,1,0,0:0:0:0:
256,160,82180,2,2,L|256:224|256:216,2,45,2|2|2,0:0|0:0|0:0,0:0:0:0:
176,80,82555,5,0,0:0:0:0:
216,80,82648,1,0,0:0:0:0:
256,80,82742,1,0,0:0:0:0:
296,80,82836,1,0,0:0:0:0:
336,80,82930,5,0,0:0:0:0:
352,112,83023,1,0,0:0:0:0:
368,144,83117,1,0,0:0:0:0:
384,176,83211,1,0,0:0:0:0:
400,208,83305,5,0,0:0:0:0:
376,240,83398,1,0,0:0:0:0:
344,264,83492,1,0,0:0:0:0:
312,288,83586,1,0,0:0:0:0:
280,312,83680,1,2,0:0:0:0:
256,192,83867,1,2,0:0:0:0:
336,80,84055,6,0,L|288:80,1,45
264,80,84242,2,0,L|216:80,1,45
192,104,84430,2,0,L|160:144,1,45
144,160,84617,2,0,L|112:200,1,45
136,232,84805,5,0,0:0:0:0:
168,264,84898,1,0,0:0:0:0:
200,296,84992,1,0,0:0:0:0:
256,192,85180,5,2,0:0:0:0:
256,192,85367,1,2,0:0:0:0:
324,252,85555,6,0,L|236:172,1,90
192,136,85930,2,0,L|280:216,1,90
256,192,86305,1,0,0:0:0:0:
256,192,86398,1,0,0:0:0:0:
256,192,86492,1,0,0:0:0:0:
188,252,86680,1,2,0:0:0:0:
320,136,86867,1,2,0:0:0:0:
188,252,87055,6,0,L|276:172,1,90
320,136,87430,2,0,L|232:216,1,90
256,192,87805,1,0,0:0:0:0:
256,192,87898,1,0,0:0:0:0:
256,192,87992,1,0,0:0:0:0:
192,136,88180,1,2,0:0:0:0:
320,248,88367,1,2,0:0:0:0:
104,96,88555,6,0,L|200:96,1,90
424,288,88930,2,0,L|328:288,1,90
296,112,89305,5,0,0:0:0:0:
328,80,89398,1,0,0:0:0:0:
360,56,89492,1,0,0:0:0:0:
392,80,89586,1,0,0:0:0:0:
416,112,89680,1,2,0:0:0:0:
360,184,89867,1,2,0:0:0:0:
184,296,90055,6,0,L|80:296,1,90
336,104,90430,2,0,L|448:104,1,90
216,264,90805,5,0,0:0:0:0:
184,296,90898,1,0,0:0:0:0:
152,328,90992,1,0,0:0:0:0:
120,296,91086,1,0,0:0:0:0:
96,264,91180,1,2,0:0:0:0:
152,200,91367,1,2,0:0:0:0:
144,112,91554,5,0,0:0:0:0:
168,144,91648,1,0,0:0:0:0:
192,168,91742,2,0,L|248:168,1,45
264,168,91930,2,0,L|323:168,1,45
320,192,92117,1,0,0:0:0:0:
344,224,92211,1,0,0:0:0:0:
368,248,92305,2,0,L|192:248,1,135
208,248,92680,1,2,0:0:0:0:
184,248,92773,1,2,0:0:0:0:
160,248,92867,1,2,0:0:0:0:
424,80,93055,5,0,0:0:0:0:
384,80,93148,2,0,L|272:80,1,90
256,80,93430,1,0,0:0:0:0:
216,80,93523,1,0,0:0:0:0:
176,80,93617,1,0,0:0:0:0:
152,192,93805,1,0,0:0:0:0:
192,192,93898,1,0,0:0:0:0:
232,192,93992,1,0,0:0:0:0:
272,192,94086,1,0,0:0:0:0:
312,192,94180,1,2,0:0:0:0:
392,192,94367,1,2,0:0:0:0:
152,296,94555,6,0,L|208:296,4,45,0|0|0|0|0,0:0|0:0|0:0|0:0|0:0,0:0:0:0:
152,296,95117,1,0,0:0:0:0:
416,80,95680,5,0,0:0:0:0:
120,80,95867,1,0,0:0:0:0:
176,192,96055,1,0,0:0:0:0:
216,192,96148,1,0,0:0:0:0:
256,192,96242,1,0,0:0:0:0:
296,192,96336,1,0,0:0:0:0:
336,192,96430,1,0,0:0:0:0:
304,264,96617,2,0,L|184:264,2,90
120,312,97180,5,0,0:0:0:0:
384,312,97367,1,0,0:0:0:0:
256,192,97555,1,0,0:0:0:0:
256,152,97648,1,0,0:0:0:0:
256,112,97742,1,0,0:0:0:0:
256,192,97930,1,0,0:0:0:0:
256,192,98117,1,0,0:0:0:0:
384,72,98492,1,0,0:0:0:0:
128,72,98680,1,0,0:0:0:0:
104,288,99055,2,0,L|208:288,1,90
408,288,99430,2,0,L|296:288,1,90
280,288,99711,1,0,0:0:0:0:
248,288,99805,1,0,0:0:0:0:
184,192,99992,5,0,0:0:0:0:
224,192,100086,1,0,0:0:0:0:
256,192,100180,1,0,0:0:0:0:
328,192,100367,1,0,0:0:0:0:
256,120,100742,5,0,0:0:0:0:
256,192,100930,1,0,0:0:0:0:
256,264,101117,1,0,0:0:0:0:
184,88,101305,5,0,0:0:0:0:
144,88,101398,1,0,0:0:0:0:
104,88,101492,1,0,0:0:0:0:
336,88,101680,1,0,0:0:0:0:
376,88,101773,1,0,0:0:0:0:
416,88,101867,1,0,0:0:0:0:
256,120,102055,6,0,L|256:176,2,45
104,296,102430,1,0,0:0:0:0:
408,296,102617,1,0,0:0:0:0:
256,200,102805,1,2,0:0:0:0:
200,200,102992,2,2,P|272:144|312:208,1,180,0|2,0:0|0:0,0:0:0:0:
416,80,103930,5,0,0:0:0:0:
112,80,104117,1,0,0:0:0:0:
256,320,104492,1,0,0:0:0:0:
256,240,104680,1,0,0:0:0:0:
256,200,104773,1,0,0:0:0:0:
256,160,104867,1,0,0:0:0:0:
256,120,104961,1,0,0:0:0:0:
256,80,105055,1,0,0:0:0:0:
144,196,105242,1,0,0:0:0:0:
144,196,105430,2,0,B|144:148|144:148|196:100,1,90
256,120,105992,5,0,0:0:0:0:
288,256,106180,1,0,0:0:0:0:
256,256,106273,1,0,0:0:0:0:
224,256,106367,1,0,0:0:0:0:
256,120,106555,1,0,0:0:0:0:
256,300,106742,6,0,L|256:236,1,45
256,120,106930,2,2,L|256:224,1,90
256,120,107492,5,0,0:0:0:0:
256,120,107680,1,0,0:0:0:0:
256,144,107773,1,0,0:0:0:0:
256,168,107867,1,0,0:0:0:0:
256,200,107961,1,0,0:0:0:0:
256,232,108055,1,0,0:0:0:0:
256,300,108242,5,0,0:0:0:0:
104,88,108430,1,2,0:0:0:0:
400,88,108617,1,2,0:0:0:0:
256,192,109180,5,0,0:0:0:0:
256,192,109367,1,0,0:0:0:0:
256,56,109555,5,0,0:0:0:0:
80,192,109742,1,0,0:0:0:0:
256,336,109930,1,0,0:0:0:0:
432,192,110117,1,0,0:0:0:0:
168,120,110305,1,0,0:0:0:0:
168,272,110492,1,0,0:0:0:0:
352,272,110680,1,0,0:0:0:0:
352,120,110867,1,0,0:0:0:0:
168,120,111055,5,0,0:0:0:0:
168,168,111242,1,0,0:0:0:0:
168,216,111430,1,0,0:0:0:0:
168,264,111617,1,0,0:0:0:0:
352,264,111805,5,0,0:0:0:0:
352,216,111992,1,0,0:0:0:0:
352,168,112180,1,0,0:0:0:0:
352,120,112367,1,0,0:0:0:0:
232,168,112555,6,2,L|272:208,4,45,2|2|2|2|2,0:0|0:0|0:0|0:0|0:0,0:0:0:0:
88,72,113680,5,0,0:0:0:0:
104,152,113867,1,0,0:0:0:0:
136,224,114055,1,2,0:0:0:0:
160,256,114148,1,2,0:0:0:0:
192,280,114242,1,2,0:0:0:0:
232,296,114336,1,2,0:0:0:0:
272,296,114430,1,2,0:0:0:0:
312,288,114523,1,2,0:0:0:0:
344,264,114617,1,2,0:0:0:0:
368,232,114711,1,2,0:0:0:0:
384,192,114805,1,2,0:0:0:0:
376,152,114898,1,2,0:0:0:0:
352,120,114992,1,2,0:0:0:0:
312,112,115086,1,2,0:0:0:0:
280,136,115180,2,2,L|256:176,4,45
256,192,115930,5,0,0:0:0:0:
240,192,116117,1,0,0:0:0:0:
216,192,116305,1,0,0:0:0:0:
184,192,116492,1,0,0:0:0:0:
136,192,116680,1,0,0:0:0:0:
80,192,116867,1,0,0:0:0:0:
312,192,117055,1,0,0:0:0:0:
352,192,117148,1,0,0:0:0:0:
392,192,117242,1,0,0:0:0:0:
312,192,117430,5,0,0:0:0:0:
312,192,117617,1,0,0:0:0:0:
432,192,117992,1,0,0:0:0:0:
352,192,118180,1,0,0:0:0:0:
312,192,118273,1,0,0:0:0:0:
272,192,118367,1,0,0:0:0:0:
232,192,118461,1,0,0:0:0:0:
192,192,118555,1,0,0:0:0:0:
88,104,118742,5,0,0:0:0:0:
128,80,118836,1,0,0:0:0:0:
168,104,118930,1,0,0:0:0:0:
256,304,119117,1,2,0:0:0:0:
256,224,119305,1,0,0:0:0:0:
256,184,119398,1,0,0:0:0:0:
256,144,119492,1,0,0:0:0:0:
256,104,119586,1,0,0:0:0:0:
256,64,119680,1,0,0:0:0:0:
376,116,119867,5,2,0:0:0:0:
352,192,120055,2,0,P|328:236|308:248,4,45
256,172,121180,6,0,B|256:256|256:256|160:252|188:172,1,180
160,136,121930,5,0,0:0:0:0:
256,80,122117,1,0,0:0:0:0:
352,136,122305,1,0,0:0:0:0:
256,172,122492,1,2,0:0:0:0:
256,264,122680,2,0,L|256:320,4,45,0|0|0|0|0,0:0|0:0|0:0|0:0|0:0,0:0:0:0:
256,80,123242,1,2,0:0:0:0:
256,264,123430,2,0,L|256:320,4,45
112,192,123992,5,0,0:0:0:0:
256,192,124180,1,0,0:0:0:0:
392,192,124367,1,0,0:0:0:0:
392,264,124555,5,0,0:0:0:0:
256,120,124742,1,0,0:0:0:0:
112,264,124930,1,0,0:0:0:0:
168,192,125117,2,2,P|352:184|360:176,1,180
256,200,125867,5,0,0:0:0:0:
168,104,126055,5,0,0:0:0:0:
344,280,126242,1,0,0:0:0:0:
128,192,126430,1,0,0:0:0:0:
384,192,126617,1,0,0:0:0:0:
168,280,126805,1,0,0:0:0:0:
344,104,126992,1,0,0:0:0:0:
256,320,127180,1,0,0:0:0:0:
256,64,127367,1,0,0:0:0:0:
232,192,127555,2,2,L|296:192,2,45
176,80,128117,5,0,0:0:0:0:
368,232,128305,2,0,P|312:296|272:304,1,90
176,80,128680,1,0,0:0:0:0:
322,82,128867,2,0,P|336:88|368:152,1,90
200,288,129242,2,0,P|144:248|144:200,1,90
368,152,129617,1,2,0:0:0:0:
176,80,129805,1,2,0:0:0:0:
176,80,129898,1,2,0:0:0:0:
176,80,129992,1,2,0:0:0:0:
392,224,130180,6,0,P|352:280|304:280,1,90
200,288,130555,2,0,P|144:248|144:200,1,90
176,80,130930,1,0,0:0:0:0:
320,80,131117,1,0,0:0:0:0:
336,284,131305,5,2,0:0:0:0:
336,284,131398,1,2,0:0:0:0:
336,284,131492,1,2,0:0:0:0:
176,80,131680,5,2,0:0:0:0:
176,80,131773,1,2,0:0:0:0:
176,80,131867,1,2,0:0:0:0:
256,240,132055,6,0,L|256:288,4,45
176,284,132617,1,2,0:0:0:0:
256,80,132805,1,2,0:0:0:0:
336,284,132992,1,2,0:0:0:0:
176,80,133180,1,2,0:0:0:0:
256,284,133367,1,2,0:0:0:0:
336,80,133555,1,2,0:0:0:0:
288,216,133930,5,2,0:0:0:0:
200,152,134117,1,2,0:0:0:0:
312,152,134305,1,0,0:0:0:0:
224,216,134492,1,2,0:0:0:0:
256,112,134680,1,2,0:0:0:0:
256,168,134867,1,0,0:0:0:0:
280,216,135055,2,2,L|224:216,4,45
320,272,135992,1,0,0:0:0:0:
256,272,136180,1,0,0:0:0:0:
192,272,136367,1,0,0:0:0:0:
88,72,136555,6,2,L|144:72,3,45
160,72,136930,2,2,L|224:72,3,45
232,72,137305,2,2,L|288:72,3,45
312,72,137680,1,2,0:0:0:0:
360,112,137867,1,2,0:0:0:0:
408,152,138055,1,2,0:0:0:0:
368,200,138242,2,2,L|320:200,1,45
323,200,138430,2,2,L|256:200,1,45
278,200,138617,2,2,L|224:200,1,45
233,200,138805,2,2,L|176:200,1,45
152,200,138992,1,2,0:0:0:0:
112,248,139180,1,2,0:0:0:0:
152,296,139367,1,2,0:0:0:0:
384,296,139555,5,2,0:0:0:0:
384,72,139742,1,2,0:0:0:0:
152,72,139930,1,2,0:0:0:0:
152,296,140117,1,2,0:0:0:0:
288,224,140305,5,2,0:0:0:0:
288,160,140492,1,2,0:0:0:0:
224,160,140680,1,2,0:0:0:0:
224,224,140867,1,2,0:0:0:0:
344,192,141055,1,2,0:0:0:0:
344,192,141242,2,2,L|288:192,2,45
164,192,141617,1,2,0:0:0:0:
164,192,141992,1,2,0:0:0:0:
256,192,142180,1,2,0:0:0:0:
344,192,142367,1,2,0:0:0:0:
112,80,142555,5,2,0:0:0:0:
392,304,142742,1,2,0:0:0:0:
112,304,142930,1,2,0:0:0:0:
392,80,143117,1,2,0:0:0:0:
256,296,143305,2,0,L|256:240,2,45
256,160,143680,1,2,0:0:0:0:
256,112,143867,1,2,0:0:0:0:
256,112,144055,2,2,L|256:176,4,45
256,248,144992,5,0,0:0:0:0:
256,200,145180,1,2,0:0:0:0:
104,88,145367,1,2,0:0:0:0:
392,88,145555,1,0,0:0:0:0:
256,248,145742,2,2,L|256:192,2,45
392,88,146117,1,0,0:0:0:0:
104,88,146305,1,0,0:0:0:0:
256,248,146492,2,2,L|256:184,2,45
104,88,146867,5,0,0:0:0:0:
392,88,147055,1,0,0:0:0:0:
256,248,147242,2,2,L|256:200,6,45
256,248,147992,1,2,0:0:0:0:
104,88,148180,1,2,0:0:0:0:
392,88,148367,1,2,0:0:0:0:
256,191,149117,5,0,0:0:0:0:
256,212,149211,1,0,0:0:0:0:
256,236,149305,1,0,0:0:0:0:
144,296,149492,1,0,0:0:0:0:
256,296,149680,1,0,0:0:0:0:
376,296,149867,1,0,0:0:0:0:
256,128,150055,2,0,L|256:64,2,45
256,192,150430,1,0,0:0:0:0:
256,192,150617,1,0,0:0:0:0:
112,80,151180,5,0,0:0:0:0:
400,80,151555,1,0,0:0:0:0:
340,152,151742,1,0,0:0:0:0:
312,168,151836,1,0,0:0:0:0:
284,184,151930,1,0,0:0:0:0:
228,184,152117,1,0,0:0:0:0:
200,168,152211,1,0,0:0:0:0:
172,152,152305,1,0,0:0:0:0:
172,152,152492,5,0,0:0:0:0:
200,168,152586,1,0,0:0:0:0:
228,184,152680,1,0,0:0:0:0:
256,196,152773,1,0,0:0:0:0:
284,184,152867,1,0,0:0:0:0:
312,168,152961,1,0,0:0:0:0:
340,152,153055,1,2,0:0:0:0:
176,48,153242,1,2,0:0:0:0:
256,96,153430,1,2,0:0:0:0:
336,48,153617,1,2,0:0:0:0:
256,168,153992,6,0,L|256:264,2,90
304,256,154555,5,2,0:0:0:0:
352,240,154742,1,2,0:0:0:0:
392,208,154930,1,2,0:0:0:0:
424,168,155117,1,2,0:0:0:0:
208,256,155492,5,2,0:0:0:0:
168,240,155680,1,2,0:0:0:0:
136,208,155867,1,2,0:0:0:0:
112,168,156055,1,2,0:0:0:0:
416,168,156805,1,2,0:0:0:0:
400,296,157555,6,0,P|88:296|72:304,2,315
416,312,159992,5,2,0:0:0:0:
408,232,160180,1,2,0:0:0:0:
376,160,160367,1,2,0:0:0:0:
328,96,160555,1,2,0:0:0:0:
248,72,160742,1,2,0:0:0:0:
168,88,160930,1,2,0:0:0:0:
104,136,161117,1,2,0:0:0:0:
104,216,161305,1,2,0:0:0:0:
160,272,161492,1,2,0:0:0:0:
240,264,161680,1,2,0:0:0:0:
264,184,161867,1,2,0:0:0:0:
272,192,162055,5,2,0:0:0:0:
280,200,162148,1,2,0:0:0:0:
288,208,162242,1,0,0:0:0:0:
296,216,162336,1,0,0:0:0:0:
304,224,162430,1,2,0:0:0:0:
312,232,162523,1,2,0:0:0:0:
320,240,162617,1,0,0:0:0:0:
328,248,162711,1,0,0:0:0:0:
336,256,162805,1,2,0:0:0:0:
344,264,162898,1,2,0:0:0:0:
352,272,162992,1,2,0:0:0:0:
360,280,163086,1,2,0:0:0:0:
368,288,163180,1,2,0:0:0:0:
368,288,163273,1,2,0:0:0:0:
376,296,163367,1,2,0:0:0:0:
384,304,163461,1,2,0:0:0:0:
392,312,163555,1,2,0:0:0:0:
192,64,175555,5,0,0:0:0:0:
240,64,175742,1,0,0:0:0:0:
288,64,175930,1,0,0:0:0:0:
336,64,176117,1,0,0:0:0:0:
336,64,176492,5,0,0:0:0:0:
312,104,176680,1,0,0:0:0:0:
272,128,176867,1,0,0:0:0:0:
272,128,177242,5,0,0:0:0:0:
232,152,177430,1,0,0:0:0:0:
192,168,177617,1,0,0:0:0:0:
192,168,177992,5,0,0:0:0:0:
224,200,178180,1,0,0:0:0:0:
256,224,178367,1,0,0:0:0:0:
256,224,178742,5,0,0:0:0:0:
296,248,178930,1,0,0:0:0:0:
344,256,179117,1,0,0:0:0:0:
344,256,179492,5,0,0:0:0:0:
376,224,179680,1,0,0:0:0:0:
400,184,179867,1,0,0:0:0:0:
400,184,180242,5,0,0:0:0:0:
392,136,180430,1,0,0:0:0:0:
376,96,180617,1,0,0:0:0:0:
376,96,180992,5,0,0:0:0:0:
336,80,181180,1,0,0:0:0:0:
288,72,181367,1,0,0:0:0:0:
288,72,181742,5,0,0:0:0:0:
240,80,181930,1,0,0:0:0:0:
200,96,182117,1,0,0:0:0:0:
200,96,182492,5,0,0:0:0:0:
160,120,182680,1,0,0:0:0:0:
136,160,182867,1,0,0:0:0:0:
136,160,183242,5,0,0:0:0:0:
136,208,183430,1,0,0:0:0:0:
152,248,183617,1,0,0:0:0:0:
152,248,183992,5,0,0:0:0:0:
184,280,184180,1,0,0:0:0:0:
224,304,184367,1,0,0:0:0:0:
224,304,184742,5,0,0:0:0:0:
264,320,184930,1,0,0:0:0:0:
312,336,185117,1,0,0:0:0:0:
312,336,185492,5,0,0:0:0:0:
360,336,185680,1,0,0:0:0:0:
408,320,185867,1,0,0:0:0:0:
448,304,186055,1,0,0:0:0:0:
480,272,186242,1,0,0:0:0:0:
496,232,186430,1,0,0:0:0:0:
504,184,186617,1,0,0:0:0:0:
496,160,186805,5,2,0:0:0:0:
480,144,186898,1,2,0:0:0:0:
464,128,186992,1,2,0:0:0:0:
448,120,187086,1,2,0:0:0:0:
424,112,187166,2,2,P|352:120|344:128,4,45
208,88,187916,5,0,0:0:0:0:
152,88,188103,1,0,0:0:0:0:
104,128,188291,1,0,0:0:0:0:
96,184,188478,1,2,0:0:0:0:
104,208,188572,1,2,0:0:0:0:
120,232,188666,1,2,0:0:0:0:
144,248,188759,1,2,0:0:0:0:
168,256,188853,1,2,0:0:0:0:
216,232,189041,1,0,0:0:0:0:
256,192,189228,1,0,0:0:0:0:
296,152,189416,1,0,0:0:0:0:
344,128,189603,1,2,0:0:0:0:
368,136,189697,1,2,0:0:0:0:
392,152,189791,1,2,0:0:0:0:
408,168,189884,1,2,0:0:0:0:
416,192,189978,1,2,0:0:0:0:
408,248,190166,1,0,0:0:0:0:
376,288,190353,1,0,0:0:0:0:
336,328,190541,1,0,0:0:0:0:
272,328,190728,6,2,L|272:272,1,45
240,272,190916,2,2,L|240:216,1,45
272,216,191103,2,2,L|272:144,1,45
240,160,191291,2,2,L|240:104,1,45
240,56,191478,1,0,0:0:0:0:
176,56,191666,1,0,0:0:0:0:
112,56,191853,1,0,0:0:0:0:
112,112,192041,1,2,0:0:0:0:
112,136,192134,1,2,0:0:0:0:
112,160,192228,1,2,0:0:0:0:
128,200,192416,1,2,0:0:0:0:
144,216,192509,1,2,0:0:0:0:
160,232,192603,1,2,0:0:0:0:
192,264,192791,1,2,0:0:0:0:
240,264,192978,1,2,0:0:0:0:
264,264,193072,1,2,0:0:0:0:
288,264,193166,1,2,0:0:0:0:
312,264,193259,1,2,0:0:0:0:
336,264,193353,1,2,0:0:0:0:
416,264,193541,5,2,0:0:0:0:
256,64,193728,1,2,0:0:0:0:
96,264,193916,1,2,0:0:0:0:
256,192,194103,1,2,0:0:0:0:
256,64,194478,5,2,0:0:0:0:
416,264,194666,1,2,0:0:0:0:
96,264,194853,1,2,0:0:0:0:
256,192,195041,1,2,0:0:0:0:
256,192,195228,1,2,0:0:0:0:
256,192,195322,1,2,0:0:0:0:
256,192,195416,1,2,0:0:0:0:
232,264,195603,2,2,L|304:264,2,45
256,64,195978,1,2,0:0:0:0:
96,264,196166,1,2,0:0:0:0:
416,264,196353,1,2,0:0:0:0:
256,192,196541,1,2,0:0:0:0:
104,120,196916,5,2,0:0:0:0:
256,320,197103,1,2,0:0:0:0:
400,120,197291,1,2,0:0:0:0:
280,120,197478,2,2,L|208:120,4,45
256,192,198041,1,2,0:0:0:0:
256,192,198228,1,2,0:0:0:0:
256,192,198322,1,2,0:0:0:0:
256,192,198416,1,2,0:0:0:0:
256,192,198603,1,2,0:0:0:0:
424,304,199166,5,0,0:0:0:0:
400,304,199259,1,0,0:0:0:0:
376,304,199353,1,0,0:0:0:0:
352,304,199447,1,0,0:0:0:0:
328,304,199541,2,2,P|264:296|232:272,1,90
224,264,199822,1,0,0:0:0:0:
208,240,199916,2,2,P|192:176|200:128,1,90
200,128,200198,1,0,0:0:0:0:
216,104,200291,1,0,0:0:0:0:
240,88,200385,1,0,0:0:0:0:
264,80,200479,1,0,0:0:0:0:
288,80,200573,1,0,0:0:0:0:
312,88,200666,1,0,0:0:0:0:
336,104,200759,1,0,0:0:0:0:
352,128,200853,1,0,0:0:0:0:
360,152,200947,1,0,0:0:0:0:
368,176,201041,6,2,P|360:240|344:264,1,90
328,280,201322,1,0,0:0:0:0:
304,296,201416,2,2,P|256:320|208:320,1,90
192,320,201697,1,0,0:0:0:0:
168,320,201791,1,0,0:0:0:0:
144,312,201885,1,0,0:0:0:0:
120,296,201979,1,0,0:0:0:0:
104,272,202072,1,0,0:0:0:0:
96,248,202166,1,0,0:0:0:0:
96,224,202259,1,0,0:0:0:0:
96,200,202353,1,0,0:0:0:0:
256,80,202541,5,2,0:0:0:0:
416,304,202728,1,2,0:0:0:0:
104,312,202916,1,2,0:0:0:0:
256,312,203291,5,2,0:0:0:0:
104,80,203478,1,2,0:0:0:0:
408,80,203666,1,2,0:0:0:0:
256,80,204041,5,2,0:0:0:0:
104,192,204228,1,2,0:0:0:0:
256,312,204416,1,2,0:0:0:0:
408,192,204603,1,2,0:0:0:0:
232,168,204791,1,0,0:0:0:0:
240,176,204884,1,0,0:0:0:0:
248,184,204978,1,2,0:0:0:0:
256,192,205072,1,2,0:0:0:0:
264,200,205166,1,0,0:0:0:0:
272,208,205259,1,0,0:0:0:0:
280,216,205353,1,2,0:0:0:0:
288,224,205447,1,2,0:0:0:0:
296,232,205541,1,2,0:0:0:0:
104,192,205728,5,0,0:0:0:0:
408,192,205916,1,0,0:0:0:0:
224,72,206103,1,2,0:0:0:0:
256,72,206197,1,2,0:0:0:0:
288,72,206291,1,2,0:0:0:0:
256,192,206478,1,2,0:0:0:0:
256,192,206666,1,2,0:0:0:0:
256,192,206853,1,2,0:0:0:0:
408,192,207041,5,2,0:0:0:0:
104,192,207228,1,2,0:0:0:0:
256,192,207416,1,2,0:0:0:0:
256,320,207603,2,2,L|256:272,2,45
256,72,207978,5,2,0:0:0:0:
104,288,208166,1,2,0:0:0:0:
408,288,208353,1,2,0:0:0:0:
256,192,208541,12,2,209666,0:0:0:0:
160,96,210040,5,2,0:0:0:0:
224,96,210228,1,2,0:0:0:0:
288,96,210415,1,2,0:0:0:0:
352,96,210603,1,2,0:0:0:0:
352,264,210790,5,2,0:0:0:0:
288,264,210978,1,2,0:0:0:0:
224,264,211165,1,2,0:0:0:0:
160,264,211353,1,2,0:0:0:0:
80,56,211541,5,0,0:0:0:0:
136,56,211729,1,0,0:0:0:0:
192,56,211916,1,0,0:0:0:0:
248,56,212103,1,2,0:0:0:0:
272,56,212197,1,2,0:0:0:0:
296,56,212291,1,2,0:0:0:0:
320,56,212385,1,2,0:0:0:0:
344,56,212478,1,2,0:0:0:0:
344,112,212666,1,0,0:0:0:0:
344,168,212853,1,0,0:0:0:0:
344,224,213041,1,0,0:0:0:0:
344,280,213228,1,0,0:0:0:0:
344,336,213416,1,0,0:0:0:0:
288,336,213603,1,2,0:0:0:0:
264,336,213696,1,2,0:0:0:0:
240,336,213790,1,2,0:0:0:0:
216,336,213884,1,2,0:0:0:0:
192,336,213978,1,2,0:0:0:0:
256,192,214166,5,0,0:0:0:0:
256,192,214353,1,0,0:0:0:0:
184,80,214541,5,2,0:0:0:0:
160,80,214634,1,2,0:0:0:0:
136,80,214728,1,2,0:0:0:0:
328,280,214916,5,2,0:0:0:0:
352,280,215009,1,2,0:0:0:0:
376,280,215103,1,2,0:0:0:0:
240,176,215290,5,2,0:0:0:0:
256,192,215384,1,2,0:0:0:0:
272,208,215478,1,2,0:0:0:0:
288,224,215571,1,2,0:0:0:0:
304,240,215666,1,2,0:0:0:0:
304,240,215853,1,2,0:0:0:0:
184,288,216041,5,2,0:0:0:0:
160,288,216134,1,2,0:0:0:0:
136,288,216228,1,2,0:0:0:0:
336,104,216416,5,2,0:0:0:0:
360,104,216509,1,2,0:0:0:0:
384,104,216603,1,2,0:0:0:0:
224,168,216791,2,2,L|256:200,4,45,0|0|0|0|2,0:0|0:0|0:0|0:0|0:0,0:0:0:0:
224,168,217353,1,2,0:0:0:0:
112,64,217541,5,0,0:0:0:0:
136,64,217634,2,2,L|240:64,1,90
256,64,217916,1,2,0:0:0:0:
280,64,218009,1,2,0:0:0:0:
304,64,218103,1,2,0:0:0:0:
368,304,218291,5,0,0:0:0:0:
344,304,218384,1,2,0:0:0:0:
288,304,218572,1,2,0:0:0:0:
264,304,218666,1,2,0:0:0:0:
240,304,218759,1,2,0:0:0:0:
216,304,218853,1,2,0:0:0:0:
192,128,219041,5,2,0:0:0:0:
192,152,219134,1,2,0:0:0:0:
208,176,219228,1,2,0:0:0:0:
232,184,219322,1,2,0:0:0:0:
256,192,219416,1,2,0:0:0:0:
280,208,219509,1,2,0:0:0:0:
296,232,219603,1,2,0:0:0:0:
304,256,219697,1,2,0:0:0:0:
304,288,219791,1,2,0:0:0:0:
104,304,219978,5,2,0:0:0:0:
104,64,220166,1,2,0:0:0:0:
408,64,220353,1,2,0:0:0:0:
408,304,220541,1,2,0:0:0:0:
256,192,220916,1,2,0:0:0:0:
256,192,221103,1,2,0:0:0:0:
256,192,221478,1,2,0:0:0:0:
256,192,221666,1,2,0:0:0:0:
328,136,222040,5,2,0:0:0:0:
304,120,222134,1,2,0:0:0:0:
280,112,222228,1,2,0:0:0:0:
256,112,222321,1,2,0:0:0:0:
232,112,222415,1,2,0:0:0:0:
208,120,222509,1,2,0:0:0:0:
184,136,222603,1,2,0:0:0:0:
256,192,222791,2,2,L|256:248,4,45
120,96,223541,5,2,0:0:0:0:
120,160,223729,1,2,0:0:0:0:
120,224,223917,1,2,0:0:0:0:
120,288,224104,1,2,0:0:0:0:
256,192,224478,1,2,0:0:0:0:
280,192,224572,1,2,0:0:0:0:
304,192,224666,1,2,0:0:0:0:
360,192,224853,1,2,0:0:0:0:
360,288,225041,5,2,0:0:0:0:
296,288,225228,1,2,0:0:0:0:
232,288,225416,1,2,0:0:0:0:
216,272,225509,1,2,0:0:0:0:
200,248,225603,1,2,0:0:0:0:
192,224,225697,1,2,0:0:0:0:
184,200,225791,2,2,L|184:136,3,45
184,128,226166,1,2,0:0:0:0:
192,104,226259,1,2,0:0:0:0:
208,80,226353,1,2,0:0:0:0:
232,64,226447,1,2,0:0:0:0:
256,56,226541,1,2,0:0:0:0:
376,192,226728,5,2,0:0:0:0:
256,192,226916,1,2,0:0:0:0:
136,192,227103,1,2,0:0:0:0:
256,192,227291,1,2,0:0:0:0:
256,192,227385,1,2,0:0:0:0:
256,192,227479,1,2,0:0:0:0:
256,56,227666,1,2,0:0:0:0:
256,320,227853,1,2,0:0:0:0:
296,136,228041,5,2,0:0:0:0:
296,160,228134,1,2,0:0:0:0:
280,176,228228,1,2,0:0:0:0:
256,192,228322,1,2,0:0:0:0:
232,208,228416,1,2,0:0:0:0:
216,232,228509,1,2,0:0:0:0:
216,256,228603,1,2,0:0:0:0:
256,56,228791,5,2,0:0:0:0:
256,320,228978,1,2,0:0:0:0:
256,56,229166,1,2,0:0:0:0:
256,320,229353,1,2,0:0:0:0:
152,80,229541,5,2,0:0:0:0:
152,104,229634,1,2,0:0:0:0:
152,128,229728,1,2,0:0:0:0:
360,304,229916,5,2,0:0:0:0:
360,280,230009,1,2,0:0:0:0:
360,256,230103,1,2,0:0:0:0:
408,136,230291,5,2,0:0:0:0:
384,136,230384,1,2,0:0:0:0:
360,136,230478,1,2,0:0:0:0:
104,256,230666,5,2,0:0:0:0:
128,256,230759,1,2,0:0:0:0:
152,256,230853,1,2,0:0:0:0:
256,128,231041,5,2,0:0:0:0:
256,256,231228,1,2,0:0:0:0:
256,192,231416,1,2,0:0:0:0:
288,192,231509,1,2,0:0:0:0:
320,192,231603,1,2,0:0:0:0:
176,192,231791,2,2,L|112:192|120:192,4,45
131,192,232353,1,2,0:0:0:0:
131,192,232541,1,2,0:0:0:0:
256,80,232728,1,2,0:0:0:0:
376,192,232916,1,2,0:0:0:0:
256,304,233103,1,2,0:0:0:0:
124,120,233291,5,2,0:0:0:0:
196,56,233478,1,2,0:0:0:0:
196,320,233666,5,2,0:0:0:0:
124,256,233853,1,2,0:0:0:0:
388,264,234041,5,2,0:0:0:0:
308,320,234228,1,2,0:0:0:0:
308,56,234416,5,2,0:0:0:0:
388,120,234603,1,2,0:0:0:0:
160,184,234791,5,2,0:0:0:0:
184,184,234884,1,2,0:0:0:0:
208,184,234978,1,2,0:0:0:0:
232,184,235072,1,2,0:0:0:0:
256,184,235166,1,2,0:0:0:0:
280,184,235259,1,2,0:0:0:0:
304,184,235353,1,2,0:0:0:0:
328,184,235447,1,2,0:0:0:0:
352,184,235541,1,2,0:0:0:0:
256,192,235728,12,0,237791,0:0:0:0:
