osu file format v12

[General]
AudioFilename: 04 - wert.mp3
AudioLeadIn: 0
PreviewTime: 186742
Countdown: 0
SampleSet: Soft
StackLeniency: 0.3
Mode: 0
LetterboxInBreaks: 1

[Editor]
Bookmarks: 31141,67521,106708,175521,68110
DistanceSpacing: 2
BeatDivisor: 4
GridSize: 4

[Metadata]
Title:wert
TitleUnicode:wert
Artist:onoken
ArtistUnicode:onoken
Creator:KaNe[YYK]YoMe
Version:Hard
Source:
Tags:Swell Strings axsword instrumental
BeatmapID:205240
BeatmapSetID:71373

[Difficulty]
HPDrainRate:5
CircleSize:4
OverallDifficulty:5
ApproachRate:8
SliderMultiplier:1.8
SliderTickRate:1

[Events]
//Background and Video events
0,0,"release_img.jpg",0,0
//Break Periods
2,52567,60771
2,163755,174771
//Storyboard Layer 0 (Background)
//Storyboard Layer 1 (Fail)
//Storyboard Layer 2 (Pass)
//Storyboard Layer 3 (Foreground)
//Storyboard Sound Samples
//Background Colour Transformations
3,100,163,162,255

[TimingPoints]
30055,375,4,2,0,25,1,0
37180,-100,4,2,0,50,0,0
43180,-100,4,2,0,75,0,0
49180,-100,4,2,0,100,0,0
94930,-66.6666666666667,4,2,0,100,0,0
95117,-100,4,2,0,100,0,0
97930,-66.6666666666667,4,2,0,100,0,0
98117,-100,4,2,0,100,0,0
115555,-100,4,2,0,100,0,1
139180,-100,4,2,0,100,0,0
139555,-100,4,2,0,100,0,1
163555,-100,4,2,0,100,0,0
175555,-100,4,2,0,30,0,0
186055,-100,4,2,0,45,0,0
186242,-100,4,2,0,60,0,0
186430,-100,4,2,0,75,0,0
186617,-100,4,2,0,100,0,0
187541,-100,4,2,0,100,0,1
193166,-100,4,2,0,100,0,0
193541,-100,4,2,0,100,0,1
199166,-100,4,2,0,100,0,0
199541,-100,4,2,0,100,0,1
205166,-100,4,2,0,100,0,0
205541,-100,4,2,0,100,0,1
211166,-100,4,2,0,100,0,0
211541,-100,4,2,0,100,0,1
217166,-100,4,2,0,100,0,0
217541,-100,4,2,0,100,0,1
223166,-100,4,2,0,100,0,0
223541,-100,4,2,0,100,0,1
229166,-100,4,2,0,100,0,0
229541,-100,4,2,0,100,0,1
235728,-100,4,2,0,5,0,0
238166,-100,4,2,0,5,0,0

[Colours]
Combo1 : 121,0,147
Combo2 : 28,146,217
Combo3 : 14,2,242
Combo4 : 107,126,146

[HitObjects]
256,192,31180,5,0,0:0:0:0:
256,80,31555,1,0,0:0:0:0:
256,152,31930,1,0,0:0:0:0:
256,208,32305,1,0,0:0:0:0:
256,248,32680,1,0,0:0:0:0:
256,272,33055,1,0,0:0:0:0:
256,280,33430,1,0,0:0:0:0:
168,192,33992,5,0,0:0:0:0:
256,136,34180,1,0,0:0:0:0:
344,192,34367,1,0,0:0:0:0:
256,192,37180,5,0,0:0:0:0:
192,104,37555,2,0,B|192:144|192:144|160:192|192:240|192:240|192:288,1,180
320,280,38305,2,0,B|320:240|320:240|352:192|320:144|320:144|320:96,1,180
192,280,39055,1,0,0:0:0:0:
320,104,39430,1,0,0:0:0:0:
256,184,39805,5,0,0:0:0:0:
256,272,39992,1,0,0:0:0:0:
192,104,40180,1,0,0:0:0:0:
320,104,40367,1,0,0:0:0:0:
256,192,43180,5,0,0:0:0:0:
216,120,43555,2,0,B|256:96|256:96|312:136,3,90
296,264,44305,2,0,B|256:288|256:288|200:248,3,90
216,120,45055,1,0,0:0:0:0:
220,264,45242,1,0,0:0:0:0:
292,264,45430,1,0,0:0:0:0:
291,121,45617,1,0,0:0:0:0:
128,192,45805,2,0,L|248:192,1,90
384,192,46180,2,0,L|256:192,1,90
256,192,49180,5,0,0:0:0:0:
256,192,49555,2,0,L|192:192,2,45
136,192,49930,1,0,0:0:0:0:
136,104,50117,1,0,0:0:0:0:
176,104,50211,1,0,0:0:0:0:
216,104,50305,1,0,0:0:0:0:
256,104,50398,1,0,0:0:0:0:
296,104,50492,1,0,0:0:0:0:
376,104,50680,1,0,0:0:0:0:
376,192,50867,2,0,L|376:272,2,45
376,312,51242,1,0,0:0:0:0:
304,312,51430,2,0,L|200:312,1,90
136,312,51805,1,0,0:0:0:0:
136,208,51992,2,0,L|248:208,2,90
256,192,61555,12,8,67180,0:0:0:0:
144,112,67555,5,0,0:0:0:0:
176,192,67742,1,0,0:0:0:0:
224,112,67930,1,0,0:0:0:0:
256,192,68117,1,0,0:0:0:0:
256,192,68305,2,0,L|216:96,1,90
144,112,68680,2,0,L|184:208,1,90
224,280,69055,5,0,0:0:0:0:
224,112,69242,1,0,0:0:0:0:
256,192,69430,1,0,0:0:0:0:
256,192,69617,1,0,0:0:0:0:
320,112,69805,2,0,B|368:112|368:112|400:160,1,90
392,240,70180,2,0,B|368:280|368:280|304:280,1,90
392,148,70555,5,0,0:0:0:0:
324,280,70742,1,0,0:0:0:0:
392,152,70930,1,0,0:0:0:0:
324,280,71117,1,0,0:0:0:0:
232,280,71305,2,0,L|176:280,4,45
184,152,71867,1,0,0:0:0:0:
288,152,72055,6,0,B|288:104|288:104|336:72,1,90
392,152,72430,2,0,L|392:248,1,90
300,280,72805,1,0,0:0:0:0:
300,280,72898,1,0,0:0:0:0:
300,280,72992,1,0,0:0:0:0:
220,224,73180,2,0,B|184:196|184:196|184:120,1,90
232,72,73555,5,0,0:0:0:0:
288,152,73742,1,0,0:0:0:0:
344,72,73930,1,0,0:0:0:0:
392,152,74117,1,0,0:0:0:0:
384,240,74305,1,0,0:0:0:0:
344,264,74399,1,0,0:0:0:0:
288,280,74493,1,0,0:0:0:0:
232,272,74587,1,0,0:0:0:0:
184,248,74680,1,0,0:0:0:0:
288,152,74867,5,0,0:0:0:0:
392,152,75055,2,0,B|384:104|384:104|320:64,1,90
248,80,75430,2,0,B|208:104|208:104|192:168,1,90
192,224,75805,2,0,B|200:272|200:272|264:296,1,90
320,288,76180,2,0,B|368:272|368:272|400:208,1,90
256,144,76555,5,0,0:0:0:0:
192,192,76742,1,0,0:0:0:0:
256,240,76930,1,0,0:0:0:0:
320,192,77117,1,0,0:0:0:0:
184,112,77305,5,0,0:0:0:0:
184,272,77492,1,0,0:0:0:0:
328,272,77680,1,0,0:0:0:0:
328,112,77867,1,0,0:0:0:0:
176,200,78055,6,0,B|224:216|224:216|280:176,1,90,0|0,0:0|0:0,0:0:0:0:
336,200,78430,2,0,B|288:216|288:216|232:176,1,90,0|0,0:0|0:0,0:0:0:0:
255,193,78805,2,0,L|256:72,1,90
256,288,79180,1,0,0:0:0:0:
256,104,79367,1,0,0:0:0:0:
160,196,79555,5,0,0:0:0:0:
160,196,79742,1,0,0:0:0:0:
160,196,79930,2,0,L|232:292,1,90
308,268,80492,1,0,0:0:0:0:
308,268,80680,2,0,L|244:180,1,90
344,192,81242,1,0,0:0:0:0:
344,192,81336,1,0,0:0:0:0:
344,192,81430,2,0,L|408:280,1,90
308,268,81992,1,0,0:0:0:0:
308,268,82180,2,0,L|232:164,1,90
256,104,82742,5,0,0:0:0:0:
256,104,82930,2,0,L|256:200,1,90
220,256,83305,2,0,B|260:280|260:280|308:248,3,90
184,136,84055,2,0,L|264:200,1,90
324,136,84430,2,0,L|228:216,1,90
220,256,84805,1,0,0:0:0:0:
296,256,84992,1,0,0:0:0:0:
256,192,85180,1,0,0:0:0:0:
256,192,85367,1,0,0:0:0:0:
144,80,85742,6,0,B|160:192|240:104|264:208,1,180
372,308,86492,2,0,B|356:196|276:284|252:180,1,180
144,192,87242,1,0,0:0:0:0:
256,192,87430,1,0,0:0:0:0:
368,192,87617,1,0,0:0:0:0:
256,192,87992,1,0,0:0:0:0:
256,192,88180,2,0,L|256:96,1,90
256,102,88742,5,0,0:0:0:0:
368,304,88930,1,0,0:0:0:0:
152,304,89117,1,0,0:0:0:0:
256,192,89305,2,0,L|136:192,1,90
256,192,89680,2,0,L|384:192,1,90
256,72,90055,2,0,L|256:154,7,45
256,72,90805,1,0,0:0:0:0:
200,136,90992,1,0,0:0:0:0:
312,136,91180,1,0,0:0:0:0:
256,192,91367,1,0,0:0:0:0:
256,192,91555,6,0,L|256:256,3,45
256,252,91930,2,0,L|256:303,3,45
256,312,92305,2,0,P|192:296|176:232,1,135
176,200,92680,1,0,0:0:0:0:
160,168,92773,1,0,0:0:0:0:
136,144,92867,1,0,0:0:0:0:
96,80,93055,2,0,P|144:64|200:64,1,90
288,64,93430,2,0,P|320:72|344:120,1,90
344,200,93805,2,0,B|312:200|320:272|248:272,1,90
200,264,94180,1,0,0:0:0:0:
248,192,94367,1,0,0:0:0:0:
248,112,94555,2,0,P|232:88|192:88,2,45
128,80,94930,2,0,L|128:248,1,135.000005149842
128,328,95492,5,0,0:0:0:0:
256,256,95680,1,0,0:0:0:0:
368,328,95867,1,0,0:0:0:0:
368,192,96055,1,0,0:0:0:0:
368,192,96148,1,0,0:0:0:0:
368,192,96242,1,0,0:0:0:0:
368,192,96430,2,0,P|320:128|280:128,1,90
280,192,96805,2,0,P|224:152|224:112,1,90
224,64,97180,2,0,P|160:96|160:144,1,90
152,184,97555,5,0,0:0:0:0:
152,216,97648,1,0,0:0:0:0:
152,256,97742,1,0,0:0:0:0:
152,288,97836,1,0,0:0:0:0:
152,320,97930,2,0,L|320:320,1,135.000005149842
408,320,98492,1,0,0:0:0:0:
368,192,98680,1,0,0:0:0:0:
408,72,98867,1,0,0:0:0:0:
272,72,99055,2,0,B|224:72|224:72|192:104,1,90
277,162,99430,2,0,B|248:192|248:192|200:192,1,90
112,172,99992,2,0,L|112:108,1,45
112,192,100180,2,0,P|144:256|176:256,1,90
256,264,100555,5,0,0:0:0:0:
360,264,100742,1,0,0:0:0:0:
312,192,100930,1,0,0:0:0:0:
256,128,101117,1,0,0:0:0:0:
368,120,101305,2,0,B|352:80|352:80|288:48,1,90
208,64,101680,2,0,B|160:80|160:80|136:152,1,90
112,200,102055,1,0,0:0:0:0:
112,200,102148,1,0,0:0:0:0:
112,200,102242,1,0,0:0:0:0:
212,128,102430,1,0,0:0:0:0:
300,128,102617,1,0,0:0:0:0:
256,200,102804,1,0,0:0:0:0:
192,216,102992,2,0,P|280:264|320:192,1,180
256,112,103930,6,0,L|256:208,1,90
384,248,104492,5,0,0:0:0:0:
328,192,104680,1,0,0:0:0:0:
384,136,104867,1,0,0:0:0:0:
200,320,105242,5,0,0:0:0:0:
256,264,105430,1,0,0:0:0:0:
312,320,105617,1,0,0:0:0:0:
128,136,105992,5,0,0:0:0:0:
184,192,106180,1,0,0:0:0:0:
128,248,106367,1,0,0:0:0:0:
256,112,106742,6,0,L|256:64,1,45
256,128,106930,2,0,L|256:224,1,90
224,312,107492,6,0,P|256:288|288:328,2,90
224,72,108242,6,0,P|256:96|288:56,2,90
184,152,108992,5,0,0:0:0:0:
256,232,109180,1,0,0:0:0:0:
328,152,109367,1,0,0:0:0:0:
328,88,109555,2,0,B|280:88|280:88|248:128,1,90
256,120,109930,2,0,B|229:152|229:152|181:152,1,90
184,152,110305,2,0,B|151:178|151:178|151:226,1,90
152,224,110680,2,0,B|152:272|152:272|184:298,1,90
328,296,111055,5,0,0:0:0:0:
328,152,111242,1,0,0:0:0:0:
184,152,111430,1,0,0:0:0:0:
184,296,111617,1,0,0:0:0:0:
328,224,111805,1,0,0:0:0:0:
256,144,111992,1,0,0:0:0:0:
184,224,112180,1,0,0:0:0:0:
256,224,112367,1,0,0:0:0:0:
256,224,112555,2,0,L|256:296,4,45
192,72,113492,5,0,0:0:0:0:
128,96,113680,1,0,0:0:0:0:
112,160,113867,1,0,0:0:0:0:
136,224,114055,1,2,0:0:0:0:
160,256,114148,1,2,0:0:0:0:
192,280,114242,1,2,0:0:0:0:
232,296,114336,1,2,0:0:0:0:
272,296,114430,1,2,0:0:0:0:
312,288,114523,1,2,0:0:0:0:
344,264,114617,1,2,0:0:0:0:
368,232,114711,1,2,0:0:0:0:
384,192,114805,1,2,0:0:0:0:
376,152,114898,1,2,0:0:0:0:
352,120,114992,1,2,0:0:0:0:
312,112,115086,1,2,0:0:0:0:
280,136,115180,2,2,L|256:176,4,45
256,192,115930,5,0,0:0:0:0:
240,192,116117,1,0,0:0:0:0:
216,192,116305,1,0,0:0:0:0:
184,192,116492,1,0,0:0:0:0:
136,192,116680,1,0,0:0:0:0:
80,192,116867,1,0,0:0:0:0:
80,288,117055,2,0,L|144:288,2,45
216,288,117430,1,0,0:0:0:0:
312,288,117617,1,0,0:0:0:0:
432,192,117992,5,0,0:0:0:0:
352,192,118180,1,0,0:0:0:0:
312,192,118273,1,0,0:0:0:0:
272,192,118367,1,0,0:0:0:0:
232,192,118461,1,0,0:0:0:0:
192,192,118555,1,0,0:0:0:0:
104,192,118742,2,0,L|104:264,2,45
104,104,119117,1,2,0:0:0:0:
192,104,119305,2,0,L|248:104,4,45
328,104,119867,1,2,0:0:0:0:
328,192,120055,2,0,L|240:192,4,45
296,288,121180,6,2,P|208:288|200:280,2,90
160,136,121930,5,0,0:0:0:0:
256,80,122117,1,0,0:0:0:0:
352,136,122305,1,0,0:0:0:0:
256,192,122492,1,2,0:0:0:0:
160,272,122680,1,0,0:0:0:0:
352,272,122867,1,0,0:0:0:0:
256,320,123055,2,0,L|256:256,4,45
112,192,123992,5,0,0:0:0:0:
256,192,124180,1,0,0:0:0:0:
392,192,124367,1,0,0:0:0:0:
392,264,124555,5,0,0:0:0:0:
256,120,124742,1,0,0:0:0:0:
112,264,124930,1,0,0:0:0:0:
208,264,125117,2,0,L|312:264,3,90
392,264,125867,5,0,0:0:0:0:
392,264,126055,2,0,P|384:192|360:128,1,135
360,136,126430,2,0,P|304:88|208:72,1,135
248,72,126805,2,0,P|184:88|120:168,1,135
136,136,127180,2,0,P|114:194|106:266,1,135
104,264,127555,5,0,0:0:0:0:
256,192,128117,5,0,0:0:0:0:
368,192,128305,1,0,0:0:0:0:
360,152,128398,1,0,0:0:0:0:
336,112,128492,2,0,P|296:88|248:80,1,90
168,96,128867,1,0,0:0:0:0:
112,176,129055,1,0,0:0:0:0:
120,216,129148,1,0,0:0:0:0:
144,256,129242,2,0,P|184:288|224:296,1,90
304,280,129617,1,0,0:0:0:0:
328,184,129992,1,0,0:0:0:0:
256,128,130180,1,0,0:0:0:0:
192,192,130367,1,0,0:0:0:0:
256,192,130555,1,0,0:0:0:0:
256,192,130742,6,0,B|288:224|288:224|248:272,2,90
256,192,131492,2,0,B|288:160|288:160|336:200,2,90
256,192,132242,2,0,B|224:160|224:160|264:112,2,90
256,192,132805,1,0,0:0:0:0:
256,192,132992,2,0,B|224:224|224:224|176:184,1,90
189,195,133555,1,0,0:0:0:0:
324,276,133930,5,2,0:0:0:0:
256,96,134117,1,2,0:0:0:0:
188,276,134305,1,0,0:0:0:0:
348,172,134492,1,2,0:0:0:0:
156,172,134680,1,2,0:0:0:0:
256,192,134867,1,0,0:0:0:0:
256,192,135055,1,0,0:0:0:0:
256,192,135148,1,0,0:0:0:0:
256,192,135242,2,0,L|256:96,1,90
256,102,135617,1,2,0:0:0:0:
256,288,135992,5,0,0:0:0:0:
256,192,136180,1,0,0:0:0:0:
256,102,136367,1,0,0:0:0:0:
160,104,136555,2,0,P|200:144|216:144,3,45
216,160,136930,2,0,P|256:192|256:224,3,45
272,208,137305,2,0,P|312:248|328:248,3,45
328,264,137680,1,0,0:0:0:0:
184,264,137867,1,0,0:0:0:0:
256,80,138055,1,0,0:0:0:0:
256,80,138242,2,0,L|256:144,1,45
240,136,138430,2,0,L|240:200,1,45
256,192,138617,2,0,L|256:264,1,45
240,248,138805,2,0,L|240:304,6,45
376,272,139555,5,2,0:0:0:0:
304,104,139742,1,2,0:0:0:0:
216,272,139930,1,2,0:0:0:0:
136,104,140117,1,2,0:0:0:0:
136,272,140305,1,2,0:0:0:0:
216,104,140492,1,2,0:0:0:0:
296,272,140680,1,2,0:0:0:0:
384,104,140867,1,2,0:0:0:0:
344,192,141055,1,2,0:0:0:0:
344,192,141242,2,0,L|272:192,2,45
164,192,141617,1,2,0:0:0:0:
164,192,141992,1,2,0:0:0:0:
256,192,142180,1,2,0:0:0:0:
344,192,142367,1,2,0:0:0:0:
160,112,142555,5,2,0:0:0:0:
160,272,142742,1,2,0:0:0:0:
344,272,142930,1,2,0:0:0:0:
344,112,143117,1,2,0:0:0:0:
256,248,143305,2,0,L|256:296,2,45
344,112,143680,1,2,0:0:0:0:
160,112,143867,1,2,0:0:0:0:
256,160,144055,2,0,L|256:104,4,45
256,248,144992,5,0,0:0:0:0:
256,160,145180,1,2,0:0:0:0:
160,112,145367,1,2,0:0:0:0:
344,112,145555,1,0,0:0:0:0:
256,248,145742,2,0,L|256:176,2,45
344,112,146117,1,2,0:0:0:0:
160,112,146305,1,2,0:0:0:0:
256,248,146492,2,0,L|256:192,2,45
344,112,146867,1,2,0:0:0:0:
160,112,147055,1,2,0:0:0:0:
232,88,147242,2,0,L|304:88,6,45
256,248,147992,1,2,0:0:0:0:
344,112,148180,1,2,0:0:0:0:
160,112,148367,1,2,0:0:0:0:
256,203,149117,5,0,0:0:0:0:
256,224,149211,1,0,0:0:0:0:
256,248,149305,1,0,0:0:0:0:
144,296,149492,1,0,0:0:0:0:
256,296,149680,1,0,0:0:0:0:
368,296,149867,1,0,0:0:0:0:
256,128,150055,2,0,L|256:56,2,45
256,203,150430,1,0,0:0:0:0:
256,203,150617,1,0,0:0:0:0:
152,80,151180,5,0,0:0:0:0:
352,80,151555,1,0,0:0:0:0:
320,208,151742,1,0,0:0:0:0:
304,224,151836,1,0,0:0:0:0:
280,232,151930,1,0,0:0:0:0:
232,232,152117,1,0,0:0:0:0:
208,224,152211,1,0,0:0:0:0:
184,208,152305,1,0,0:0:0:0:
256,144,152492,2,0,L|256:99,6,45
176,48,153242,1,2,0:0:0:0:
256,96,153430,1,2,0:0:0:0:
336,48,153617,1,2,0:0:0:0:
256,264,153992,6,0,L|256:168,2,90
304,256,154555,5,2,0:0:0:0:
352,240,154742,1,2,0:0:0:0:
384,208,154930,1,2,0:0:0:0:
416,168,155117,1,2,0:0:0:0:
208,256,155492,5,2,0:0:0:0:
160,240,155679,1,2,0:0:0:0:
128,208,155867,1,2,0:0:0:0:
96,168,156054,1,2,0:0:0:0:
416,168,156805,1,2,0:0:0:0:
416,304,157555,2,0,P|104:304|88:328,1,360
416,312,159992,5,2,0:0:0:0:
408,232,160180,1,2,0:0:0:0:
376,160,160367,1,2,0:0:0:0:
328,96,160555,1,2,0:0:0:0:
248,72,160742,1,2,0:0:0:0:
168,88,160930,1,2,0:0:0:0:
104,136,161117,1,2,0:0:0:0:
104,216,161305,1,2,0:0:0:0:
160,272,161492,1,2,0:0:0:0:
240,264,161680,1,2,0:0:0:0:
264,184,161867,1,2,0:0:0:0:
272,192,162055,5,2,0:0:0:0:
280,200,162148,1,2,0:0:0:0:
288,208,162242,1,0,0:0:0:0:
296,216,162336,1,0,0:0:0:0:
304,224,162430,1,2,0:0:0:0:
312,232,162523,1,2,0:0:0:0:
320,240,162617,1,0,0:0:0:0:
328,248,162711,1,0,0:0:0:0:
336,256,162805,1,2,0:0:0:0:
344,264,162898,1,2,0:0:0:0:
352,272,162992,1,2,0:0:0:0:
360,280,163086,1,2,0:0:0:0:
368,288,163180,1,2,0:0:0:0:
368,288,163273,1,2,0:0:0:0:
376,296,163367,1,2,0:0:0:0:
384,304,163461,1,2,0:0:0:0:
392,312,163555,1,2,0:0:0:0:
192,64,175555,5,0,0:0:0:0:
240,64,175742,1,0,0:0:0:0:
288,64,175930,1,0,0:0:0:0:
336,64,176117,1,0,0:0:0:0:
336,64,176492,5,0,0:0:0:0:
312,104,176680,1,0,0:0:0:0:
272,128,176867,1,0,0:0:0:0:
272,128,177242,5,0,0:0:0:0:
232,152,177430,1,0,0:0:0:0:
192,168,177617,1,0,0:0:0:0:
192,168,177992,5,0,0:0:0:0:
224,200,178180,1,0,0:0:0:0:
256,224,178367,1,0,0:0:0:0:
256,224,178742,5,0,0:0:0:0:
296,248,178930,1,0,0:0:0:0:
344,256,179117,1,0,0:0:0:0:
344,256,179492,5,0,0:0:0:0:
376,224,179680,1,0,0:0:0:0:
400,184,179867,1,0,0:0:0:0:
400,184,180242,5,0,0:0:0:0:
392,136,180430,1,0,0:0:0:0:
376,96,180617,1,0,0:0:0:0:
376,96,180992,5,0,0:0:0:0:
336,80,181180,1,0,0:0:0:0:
288,72,181367,1,0,0:0:0:0:
288,72,181742,5,0,0:0:0:0:
240,80,181930,1,0,0:0:0:0:
200,96,182117,1,0,0:0:0:0:
200,96,182492,5,0,0:0:0:0:
160,120,182680,1,0,0:0:0:0:
136,160,182867,1,0,0:0:0:0:
136,160,183242,5,0,0:0:0:0:
136,208,183430,1,0,0:0:0:0:
152,248,183617,1,0,0:0:0:0:
152,248,183992,5,0,0:0:0:0:
184,280,184180,1,0,0:0:0:0:
224,304,184367,1,0,0:0:0:0:
224,304,184742,5,0,0:0:0:0:
264,320,184930,1,0,0:0:0:0:
312,336,185117,1,0,0:0:0:0:
312,336,185492,5,0,0:0:0:0:
360,336,185680,1,0,0:0:0:0:
408,320,185867,1,0,0:0:0:0:
448,304,186055,1,0,0:0:0:0:
480,272,186242,1,0,0:0:0:0:
496,232,186430,1,0,0:0:0:0:
504,184,186617,1,0,0:0:0:0:
496,160,186805,5,2,0:0:0:0:
480,144,186898,1,2,0:0:0:0:
464,128,186992,1,2,0:0:0:0:
448,120,187086,1,2,0:0:0:0:
424,112,187166,2,0,P|376:104|344:104,4,45
248,96,187915,5,0,0:0:0:0:
168,112,188103,1,0,0:0:0:0:
168,112,188291,2,0,P|120:136|88:176,1,90
96,256,188666,2,0,B|160:256|160:256|192:184|272:184,1,180
256,280,189228,1,0,0:0:0:0:
256,280,189322,1,0,0:0:0:0:
256,280,189416,1,0,0:0:0:0:
256,280,189603,1,0,0:0:0:0:
256,280,189791,2,0,B|304:280|304:280|328:240,1,90
328,152,190166,2,0,B|328:104|328:104|280:80,1,90
192,88,190541,2,0,B|192:136|192:136|240:168,1,90
176,232,190916,2,0,B|96:184|96:184|96:88,1,180
192,88,191478,1,0,0:0:0:0:
328,152,191666,1,0,0:0:0:0:
256,280,191853,1,0,0:0:0:0:
256,280,192041,2,0,L|336:280,2,45
328,152,192416,2,0,L|240:152,2,45
192,88,192791,2,0,L|272:88,2,45
192,88,193166,5,0,0:0:0:0:
144,176,193353,1,0,0:0:0:0:
240,176,193541,1,0,0:0:0:0:
240,176,193728,1,0,0:0:0:0:
240,176,193916,2,0,B|240:240|144:256|144:256|144:328,1,180
144,298,194478,1,0,0:0:0:0:
264,304,194666,2,0,P|304:288|320:224,1,90
336,152,195041,2,0,P|328:104|272:88,1,90
208,88,195416,2,0,P|160:144|128:144,1,90
148,145,195791,1,0,0:0:0:0:
144,298,195978,1,0,0:0:0:0:
144,298,196072,1,0,0:0:0:0:
144,296,196166,2,0,L|240:296,1,90
336,296,196541,1,0,0:0:0:0:
336,192,196916,5,0,0:0:0:0:
336,192,197103,1,0,0:0:0:0:
144,192,197478,1,0,0:0:0:0:
144,192,197666,1,0,0:0:0:0:
240,64,198041,2,0,L|240:120,3,45
240,144,198416,2,0,L|240:208,3,45
240,224,198791,1,0,0:0:0:0:
248,256,198884,1,0,0:0:0:0:
272,288,198978,1,0,0:0:0:0:
312,296,199072,1,0,0:0:0:0:
352,296,199166,1,0,0:0:0:0:
352,152,199541,6,0,L|352:56,1,90
352,64,199916,1,0,0:0:0:0:
240,64,200103,1,0,0:0:0:0:
136,64,200478,2,0,L|88:64,1,45
88,152,200666,1,0,0:0:0:0:
88,152,200853,1,0,0:0:0:0:
88,240,201041,2,0,B|136:240|136:240|168:192,1,90
248,160,201416,2,0,B|248:208|248:208|216:272,1,90
160,320,201791,2,0,L|72:320,6,45
115,320,202541,5,0,0:0:0:0:
112,232,202728,1,0,0:0:0:0:
112,144,202916,1,0,0:0:0:0:
384,64,203291,5,0,0:0:0:0:
384,152,203478,1,0,0:0:0:0:
384,240,203666,1,0,0:0:0:0:
256,320,204041,5,0,0:0:0:0:
256,288,204134,1,0,0:0:0:0:
256,256,204228,1,0,0:0:0:0:
256,224,204322,1,0,0:0:0:0:
256,192,204416,2,0,B|256:136|256:136|208:96,1,90
136,112,204791,2,0,B|136:160|136:160|176:184,1,90
224,248,205166,2,0,B|224:296|224:296|264:320,1,90
376,312,205541,5,0,0:0:0:0:
320,232,205729,1,0,0:0:0:0:
376,144,205916,1,0,0:0:0:0:
376,56,206103,1,0,0:0:0:0:
376,56,206197,1,0,0:0:0:0:
376,56,206291,2,0,B|320:56|320:56|280:112,1,90
240,152,206666,2,0,B|184:152|184:152|144:208,1,90
160,272,207041,6,0,B|216:272|216:272|264:216,2,90
156,180,207603,1,0,0:0:0:0:
156,180,207697,1,0,0:0:0:0:
156,180,207791,1,0,0:0:0:0:
160,176,207978,2,0,B|179:148|179:148|235:148,2,90
256,192,208541,12,0,209666,0:0:0:0:
376,232,210040,5,0,0:0:0:0:
376,232,210228,1,0,0:0:0:0:
304,152,210415,5,0,0:0:0:0:
304,152,210603,1,0,0:0:0:0:
216,232,210790,5,0,0:0:0:0:
216,232,210978,1,0,0:0:0:0:
144,152,211165,5,0,0:0:0:0:
144,152,211353,1,0,0:0:0:0:
144,256,211541,6,0,B|144:304|144:304|184:320,2,90
144,152,212104,1,0,0:0:0:0:
144,128,212197,1,0,0:0:0:0:
144,104,212291,2,0,B|176:72|176:72|224:72,1,90
392,72,212666,2,0,L|288:72,1,90
296,168,213041,1,0,0:0:0:0:
392,168,213228,1,0,0:0:0:0:
392,168,213416,1,0,0:0:0:0:
392,168,213603,2,0,L|392:232,2,45
392,168,213978,1,0,0:0:0:0:
256,168,214166,1,0,0:0:0:0:
120,168,214353,1,0,0:0:0:0:
120,272,214541,6,0,L|184:272,3,45
184,272,214916,2,0,L|267:272,3,45
248,272,215291,2,0,L|326:272,3,45
340,272,215666,1,0,0:0:0:0:
388,272,215853,1,0,0:0:0:0:
436,272,216041,1,0,0:0:0:0:
408,168,216228,2,0,L|360:168,1,45
344,168,216416,2,0,L|256:168,1,45
280,168,216603,2,0,L|200:168,1,45
216,168,216791,2,0,L|128:168,2,45
88,120,217166,1,0,0:0:0:0:
91,120,217353,1,0,0:0:0:0:
168,72,217541,5,0,0:0:0:0:
192,72,217634,2,0,B|256:72|256:72|304:112,1,90
296,104,217916,6,0,L|360:160,2,45
248,176,218291,1,0,0:0:0:0:
248,200,218384,1,0,0:0:0:0:
248,248,218572,2,0,L|248:328,3,45
368,280,219040,5,0,0:0:0:0:
368,256,219134,1,0,0:0:0:0:
368,232,219227,1,0,0:0:0:0:
368,208,219321,1,0,0:0:0:0:
368,184,219415,1,0,0:0:0:0:
368,96,219603,1,0,0:0:0:0:
368,96,219791,1,0,0:0:0:0:
256,96,219978,2,0,B|208:96|208:96|176:136,3,90
256,192,220916,6,0,B|240:232|240:232|160:232,1,90
256,192,221478,2,0,B|240:232|240:232|160:232,1,90
184,136,222041,6,0,L|184:72,3,45
264,112,222416,2,0,L|264:48,3,45
336,144,222791,2,0,L|336:200,4,45
264,88,223541,5,0,0:0:0:0:
264,88,223728,2,0,L|216:128,2,45
184,152,224103,1,0,0:0:0:0:
136,192,224291,1,0,0:0:0:0:
136,192,224478,2,0,L|168:232,2,45
200,264,224853,1,0,0:0:0:0:
248,312,225041,1,0,0:0:0:0:
368,200,225791,1,0,0:0:0:0:
260,80,226541,6,0,B|172:112|172:112|132:208,1,180
256,192,227103,1,0,0:0:0:0:
140,192,227291,2,0,B|172:280|172:280|268:320,1,180
256,192,227853,1,0,0:0:0:0:
252,312,228041,2,0,B|340:280|340:280|380:184,1,180
372,200,228603,1,0,0:0:0:0:
372,200,228697,1,0,0:0:0:0:
372,200,228791,2,0,B|340:112|340:112|244:72,1,180
260,78,229353,1,0,0:0:0:0:
256,78,229541,6,0,L|184:80,2,45
256,152,229916,2,0,L|328:152,2,45
256,208,230291,2,0,L|184:208,2,45
256,248,230666,2,0,L|312:248,2,45
256,272,231041,2,0,L|192:272,3,45
256,280,231416,2,0,L|320:280,4,45
256,280,231978,6,0,L|256:176,2,90
96,312,232541,5,0,0:0:0:0:
96,288,232634,1,0,0:0:0:0:
104,264,232728,1,0,0:0:0:0:
112,248,232822,1,0,0:0:0:0:
128,232,232916,1,0,0:0:0:0:
144,224,233009,1,0,0:0:0:0:
168,216,233103,1,0,0:0:0:0:
192,208,233197,1,0,0:0:0:0:
216,200,233291,1,0,0:0:0:0:
232,184,233384,1,0,0:0:0:0:
248,168,233478,1,0,0:0:0:0:
256,152,233572,1,0,0:0:0:0:
272,136,233666,1,0,0:0:0:0:
280,120,233759,1,0,0:0:0:0:
296,104,233853,1,0,0:0:0:0:
312,88,233947,1,0,0:0:0:0:
336,80,234041,2,0,P|384:72|400:88,3,45
400,80,234416,2,0,P|424:120|424:144,3,45
424,136,234791,2,0,L|424:216,8,45
256,192,235728,12,0,237791,0:0:0:0:
