osu file format v9

[General]
AudioFilename: felys_longmix.mp3
AudioLeadIn: 0
PreviewTime: 107019
Countdown: 0
SampleSet: Soft
StackLeniency: 0.7
Mode: 0
LetterboxInBreaks: 1

[Editor]
Bookmarks: 10686,21352,32019,42685,53352,64019,74685,85352,96019,107685,129019,150352,161019,171685,182352,193019
DistanceSpacing: 0.4
BeatDivisor: 4
GridSize: 16

[Metadata]
Title:felys -long remix-
Artist:onoken
Creator:Sharp
Version:Hyper
Source:
Tags:Natteke gowww lepidopodus

[Difficulty]
HPDrainRate:5
CircleSize:4
OverallDifficulty:5
ApproachRate:7
SliderMultiplier:1.6
SliderTickRate:1

[Events]
//Background and Video events
0,0,"BG.jpg"
//Break Periods
2,74718,84452
2,104219,106785
2,150552,160119
//Storyboard Layer 0 (Background)
//Storyboard Layer 1 (Fail)
//Storyboard Layer 2 (Pass)
//Storyboard Layer 3 (Foreground)
//Storyboard Sound Samples
//Background Colour Transformations
3,100,163,162,255

[TimingPoints]
10686,333.333333333333,4,2,1,39,1,0
32019,-100,4,2,1,60,0,0
51769,-200,4,2,1,0,0,0
52435,-100,4,2,1,60,0,0
85352,-200,4,2,1,40,0,0
96019,-133.333333333333,4,2,1,60,0,0
104019,-133.333333333333,4,2,1,0,0,0
107435,-100,4,2,1,60,0,0
107685,-100,4,2,1,50,0,1
128852,-100,4,2,1,0,0,1
129019,-100,4,2,1,50,0,1
149685,-200,4,2,1,60,0,0
171685,-100,4,2,1,60,0,0

[Colours]
Combo1 : 0,64,128
Combo2 : 128,128,255

[HitObjects]
128,320,10686,6,0,B|32:320,2,80
144,240,11186,2,0,B|64:240,2,80
160,160,11686,2,0,B|80:160,2,80
176,80,12186,2,0,B|96:80,2,80
256,64,12686,1,0
336,48,12852,1,0
416,64,13019,1,0
416,64,13102,1,0
416,64,13186,1,0
432,144,13352,6,0,B|432:240,2,80
352,160,13852,2,0,B|352:240,2,80
272,176,14352,2,0,B|272:272,2,80
192,192,14852,2,0,B|192:272,2,80
176,112,15352,5,0
64,96,15519,1,0
80,208,15685,1,0
80,208,15769,1,0
80,208,15852,1,0
160,224,16019,6,0,B|80:304,2,80
240,240,16519,2,0,B|208:336,2,80
320,240,17019,2,0,B|352:336,2,80
400,224,17519,2,0,B|464:288,2,80
384,144,18019,2,0,B|272:144,1,80
224,144,18352,2,0,B|176:144,2,40
240,64,18685,6,0,B|320:-16,2,80
256,144,19185,2,0,B|352:112,2,80
256,224,19685,2,0,B|352:256,2,80
240,304,20185,2,0,B|304:368,2,80
160,288,20685,5,0
64,256,20852,1,0
96,160,21019,1,0
64,64,21185,1,0
160,32,21352,6,0,B|240:48,1,80,2|0
320,64,21685,1,0
368,128,21852,2,0,B|288:144,1,80
208,160,22185,1,0
160,224,22352,2,0,B|240:240,1,80,2|0
320,256,22685,1,0
368,320,22852,2,0,B|288:336,1,80
208,352,23185,1,0
128,336,23352,1,2
128,48,23685,1,0
160,208,24019,6,0,B|64:208,2,80,2|0|0
240,208,24519,2,0,B|336:208,1,80
400,208,24852,1,0
384,128,25019,2,0,B|480:128,2,80,2|0|0
304,128,25519,2,0,B|208:128,1,80
144,128,25852,1,0
128,208,26019,5,2
256,208,26185,1,0
192,320,26352,2,0,B|192:368,2,40
192,192,26685,6,0,B|192:112|256:48,1,160,2|0
336,48,27185,2,0,B|448:48,2,80
320,128,27685,2,0,B|256:288,1,160,2|0
176,272,28185,2,0,B|240:96,1,160
256,48,28685,1,2
256,336,29019,1,0
160,224,29352,6,0,B|240:256|320:224,1,160,2|0
384,176,29852,2,0,B|416:144,2,40,0|0|0
304,144,30185,2,0,B|336:112,2,40,0|0|2
224,112,30519,2,0,B|48:160,1,160
64,240,31019,2,0,B|240:288,1,160,0|2
272,224,31519,1,0
320,160,31685,1,0
368,96,31852,1,0
416,32,32019,5,0
416,32,32519,1,0
416,32,33019,1,0
256,64,33352,6,0,B|176:64|112:128,1,160,0|2
113,126,33852,1,0
128,208,34019,2,0,B|224:208,1,80
192,288,34352,2,0,B|272:288,1,80,0|0
352,288,34685,5,2
352,288,35185,1,0
352,288,35685,1,0
400,224,35852,1,0
400,144,36019,1,0
352,80,36185,1,0
288,32,36352,2,0,B|208:16|128:32,1,160,0|2
64,80,36852,1,0
64,80,36935,1,0
64,80,37018,1,2
80,320,37352,6,0,B|240:320,1,160,0|2
256,240,37852,2,0,B|96:240,1,160
112,160,38352,2,0,B|288:160,1,160
352,160,38852,1,0
432,160,39019,1,0
432,160,39185,1,0
384,224,39352,2,0,B|288:224,1,80
224,224,39685,2,0,B|144:224,1,80
96,160,40019,6,0,B|112:80|112:80|192:32,1,160,2|0
256,16,40519,2,0,B|336:48|336:48|368:128,1,160
320,192,41019,2,0,B|240:272,1,80
192,208,41352,2,0,B|256:144,1,80
352,192,41685,2,0,B|288:256,1,80
160,208,42019,2,0,B|224:144,1,80
280,88,42352,1,0
280,88,42519,1,0
384,64,42685,5,2
128,64,43185,1,2
256,272,43685,1,2
368,224,44019,6,0,B|320:128,1,80
288,64,44352,2,0,B|240:160,1,80
208,224,44685,2,0,B|160:128,1,80
128,64,45019,2,0,B|80:160,1,80
48,224,45352,5,2
256,320,45852,1,2
464,224,46352,1,2
336,128,46685,5,0
176,128,47019,1,0
256,272,47352,2,0,B|352:320,1,80
256,272,47685,2,0,B|160:320,1,80
112,344,48019,5,2
24,192,48519,1,2
112,40,49019,1,2
200,192,49519,1,2
392,192,50019,1,2
176,96,50685,6,0,B|96:64|16:96,1,160
16,288,51185,2,0,B|96:320|176:288,1,160
336,192,51685,2,0,B|224:192,1,80
448,64,53352,6,4,B|368:48|288:64,1,160
208,80,53852,1,0
208,80,54185,1,0
208,80,54519,1,0
128,96,54685,2,0,B|80:96,4,40
144,176,55185,1,4
128,256,55352,2,0,B|80:256,4,40
208,272,55852,1,4
288,288,56019,6,0,B|384:240,1,80
304,192,56352,2,0,B|400:144,1,80
320,96,56685,2,0,B|240:80|160:96,1,160
208,160,57185,1,0
272,208,57352,1,4
288,208,57435,1,4
304,208,57519,1,4
320,208,57602,1,4
336,208,57685,1,4
448,320,58019,2,0,B|336:320,1,80
288,320,58352,2,0,B|208:320,1,80
128,304,58685,5,4
80,240,58852,1,4
144,192,59019,1,0
96,128,59185,1,4
208,240,59519,6,0,B|288:256|368:240,1,160
384,160,60019,1,4
368,160,60102,1,4
352,160,60185,1,4
336,160,60269,1,0
320,160,60352,2,0,B|256:160,2,40
272,96,60685,2,0,B|208:96|160:128,1,80
144,176,61019,2,0,B|192:208|240:208,1,80
288,224,61352,5,4
368,224,61519,1,4
416,288,61685,1,0
368,352,61852,1,4
288,352,62019,2,0,B|176:352,1,80
128,352,62352,1,0
256,256,62685,6,0,B|352:208,1,80
272,160,63019,2,0,B|368:112,1,80
208,96,63352,2,0,B|112:144,1,80
192,192,63685,2,0,B|96:240,1,80
64,288,64019,5,4
64,288,64102,1,4
64,288,64185,1,4
144,304,64352,1,0
224,320,64519,1,4
432,320,64852,6,0,B|432:224,1,80
432,160,65185,1,0
384,96,65352,2,0,B|288:48,1,80
272,128,65685,2,0,B|160:128,1,80
176,208,66019,1,4
192,208,66102,1,4
208,208,66185,1,4
224,208,66269,1,0
240,208,66352,2,0,B|288:208,2,40
336,272,66685,6,0,B|224:272,1,80
208,336,67019,2,0,B|304:336,1,80
176,128,68019,6,0,B|288:128,1,80
304,64,68353,2,0,B|208:64,1,80
160,160,68685,2,0,B|240:160,1,80
320,32,69019,2,0,B|224:32,1,80
160,32,69352,5,0
160,32,69435,1,0
160,32,69519,1,4
80,64,69685,1,4
64,144,69852,1,4
64,304,70185,5,4
64,304,70519,1,4
144,304,70685,1,4
160,304,70769,1,0
176,304,70852,1,0
192,304,70935,1,0
208,304,71019,1,0
224,304,71102,1,0
240,304,71185,1,0
256,304,71269,1,0
272,304,71352,2,0,B|320:304,6,40
336,224,72019,6,0,B|240:176,1,80
224,112,72352,2,0,B|320:160,1,80
160,240,72852,2,0,B|256:288,1,80
304,304,73185,1,0
384,288,73352,2,0,B|416:240,3,40
400,208,73685,2,0,B|368:160,3,40
384,128,74019,2,0,B|416:80,3,40
400,48,74352,2,0,B|352:16|304:16,1,80
64,96,85352,6,0,B|144:80|224:96,1,160
176,160,86352,1,0
128,224,86685,2,0,B|208:208|288:224,1,160
240,288,87685,1,0
320,304,88019,1,0
384,160,88685,1,0
240,96,89352,1,0
256,176,89685,1,0
272,256,90019,1,0
112,272,90685,2,0,B|96:192|112:112,1,160
128,32,91685,1,0
272,80,92352,6,0,B|288:160|272:240,1,160
256,320,93352,1,0
128,208,94019,1,0
176,144,94352,1,0
224,208,94685,1,0
272,144,95019,1,0
304,144,95185,1,0
352,144,95352,1,0
384,144,95519,1,0
384,144,95852,1,0
400,224,96019,6,2,B|384:288|320:304,1,119.999996423721
256,304,96519,1,0
192,304,96685,1,2
96,224,97019,1,2
160,224,97185,1,2
224,224,97352,2,2,B|288:208|304:144,1,119.999996423721
304,80,97852,1,0
304,16,98019,1,2
192,80,98352,1,2
128,192,98685,6,0,B|256:256,1,119.999996423721,2|0
296,264,99185,1,0
360,264,99352,1,2
416,160,99685,1,2
352,160,99852,1,0
240,160,100185,1,2
176,160,100352,2,0,B|96:160,1,59.9999982118607
48,160,100685,1,2
256,192,101352,12,0,104019
80,112,107685,5,2
160,96,107852,1,0
240,80,108019,2,4,B|320:64|400:80,1,160
480,96,108519,1,2
464,176,108685,2,0,B|416:272,1,80,0|2
368,192,109019,2,0,B|288:176|208:192,1,160
160,256,109519,2,0,B|240:272|320:256,1,160
400,240,110019,2,4,B|400:160,1,80,6|4
384,80,110352,2,0,B|304:64|224:80,1,160,4|0
144,96,110852,2,0,B|32:96,2,80,4|0|4
224,96,111352,2,2,B|320:96,1,80
257,161,111685,2,0,B|337:177,1,80,2|0
275,230,112019,2,0,B|371:278,1,80,2|0
275,301,112352,2,0,B|355:381,1,80,2|0
251,366,112685,1,2
96,112,113019,6,4,B|144:208,1,80,6|4
160,264,113352,2,0,B|240:280|320:264,1,160
336,184,113852,2,4,B|384:88,1,80
408,40,114185,1,2
408,40,114269,1,0
408,40,114352,1,0
336,16,114519,2,0,B|256:0|176:16,1,160
224,80,115019,1,2
80,192,115352,2,0,B|176:192,1,80
240,176,115685,6,0,B|160:336,1,160
96,288,116185,2,0,B|176:128,1,160
312,208,116685,2,0,B|232:368,1,160
240,351,117352,1,2
384,288,117685,2,2,B|480:240,1,80
400,192,118019,2,2,B|448:96,1,80
368,80,118352,6,4,B|304:80|304:80|272:96|272:96|208:96,1,160
144,144,118852,2,0,B|80:192,1,80,2|0
80,272,119185,2,0,B|144:320,1,80
224,336,119519,1,0
304,352,119685,2,4,B|384:368|464:352,1,160,6|4
448,272,120185,2,4,B|400:224|400:224|368:224|368:224|304:160,1,160
256,144,120685,2,0,B|192:80,1,80
128,48,121019,1,2
64,96,121185,1,2
80,176,121352,2,0,B|96:256,1,80
160,208,121685,2,0,B|240:288,1,80
240,192,122019,2,0,B|320:208,1,80
400,224,122352,5,6
400,224,122435,1,4
400,224,122519,1,4
336,80,122852,2,2,B|256:64|176:80,1,160
216,144,123352,2,4,B|256:136|312:144,1,80
336,304,123685,6,2,B|256:320|176:304,1,160
216,240,124185,2,4,B|256:248|312:240,1,80
352,192,124519,1,4
352,192,124685,1,4
352,192,124852,1,4
288,144,125019,2,2,B|208:128|128:144,1,160
80,208,125519,1,4
240,208,125852,1,4
400,208,126185,1,4
352,144,126352,2,0,B|192:64,1,160
144,128,126852,2,0,B|304:208,1,160
256,192,127352,12,0,128935
432,96,129019,5,4
416,176,129185,1,0
352,128,129352,1,4
336,208,129519,1,0
272,160,129685,1,4
256,240,129852,1,0
192,192,130019,2,4,B|176:272,1,80
96,288,130352,2,2,B|80:208|96:128,1,160
144,64,130852,2,2,B|224:48|304:64,1,160
368,112,131352,1,4
368,112,131519,1,4
352,192,131685,2,2,B|224:320,1,160
160,288,132185,2,0,B|272:176,1,160,2|0
192,160,132685,1,2
448,192,133019,5,4
256,352,133352,1,4
64,192,133685,1,4
256,32,134019,1,4
352,224,134352,6,0,B|272:240|192:224,1,160
256,176,134852,1,4
256,176,134935,1,4
256,176,135019,1,4
304,112,135185,2,2,B|384:112,1,80
464,112,135519,1,2
448,192,135685,6,0,B|400:288|288:272,1,160
240,272,136185,2,0,B|160:272|96:208,1,160,0|2
160,160,136685,2,4,B|256:160,1,80
320,144,137019,6,0,B|320:80|272:32|208:32,1,160,2|0
144,32,137519,1,2
144,32,137602,1,0
144,32,137685,1,0
144,352,138019,1,2
208,192,138352,6,0,B|128:192,1,80
256,144,138685,2,0,B|256:64,1,80
304,192,139019,2,0,B|384:192,1,80
256,240,139352,2,2,B|256:320,1,80
160,320,139685,5,2
160,320,139769,1,0
160,320,139852,2,0,B|144:240|160:160,1,160
176,80,140352,1,2
336,80,140685,2,0,B|240:80,1,80,2|0
176,80,141019,1,4
128,144,141185,1,4
112,224,141352,2,0,B|96:304,1,80,2|0
176,272,141685,2,0,B|192:192,1,80
256,240,142019,2,0,B|240:320,1,80,2|0
320,288,142352,6,0,B|352:128,1,160
400,192,142852,2,0,B|224:192,1,160
160,192,143352,1,0
80,192,143519,2,4,B|0:192,2,80
160,192,144019,1,0
240,192,144185,1,0
316,160,144352,2,4,B|412:112,1,80
316,224,144685,2,4,B|412:272,1,80
480,192,145019,5,2
256,192,145519,1,0
32,192,146019,1,2
144,80,146352,5,2
224,64,146519,1,0
304,80,146685,2,4,B|384:96|464:80,1,160
400,32,147185,1,0
384,112,147352,1,0
368,192,147519,1,0
352,272,147685,1,2
144,352,148185,1,2
48,160,148685,1,2
256,192,149019,12,0,150352
80,96,161019,6,0,B|160:80|240:96,1,160,2|0
192,160,162019,2,0,B|272:160,1,80,2|0
224,224,162685,2,0,B|304:224,2,80,2|0|2
432,288,163685,6,0,B|352:304|272:288,1,160,2|0
320,224,164685,2,0,B|272:224,1,40,2|0
240,160,165019,2,0,B|192:160,1,40,2|0
144,96,165352,2,0,B|192:80|240:96,2,80,2|2|2
96,192,166352,5,0
416,192,167019,1,0
288,288,167352,6,0,B|192:288,2,80,2|0|2
336,224,168352,2,0,B|352:144|336:64,1,160,2|0
256,32,169352,6,0,B|176:80,1,80,2|0
384,64,170019,2,0,B|304:112,1,80,2|4
272,126,170519,1,2
223,160,170685,1,2
168,214,170852,1,2
128,288,171019,1,6
240,288,171185,1,6
352,288,171352,1,6
432,80,171685,5,4
352,64,171852,1,4
272,48,172019,2,0,B|176:64|160:160,1,160,2|0
240,128,172519,1,0
304,176,172685,1,2
352,240,172852,1,0
352,320,173019,2,4,B|192:352,1,160,0|2
144,288,173519,2,4,B|304:256,1,160
256,192,174019,2,0,B|176:208,1,80,2|0
96,224,174352,1,2
256,48,174852,1,2
416,224,175352,1,2
352,288,175685,6,0,B|256:320,1,80,4|0
192,272,176019,2,0,B|288:240,1,80,4|0
192,208,176352,2,0,B|96:240,1,80
32,192,176686,2,4,B|128:160,1,80
160,96,177019,6,0,B|272:48|336:112,1,160,4|2
256,160,177519,2,0,B|336:224|416:144,1,160
464,96,178019,1,2
464,96,178185,1,0
384,80,178352,5,0
144,64,178685,1,2
128,304,179019,1,0
368,320,179352,1,2
288,112,179685,6,2,B|160:96|48:128,2,240
147,196,181019,5,6
152,211,181102,1,4
160,224,181185,1,4
173,234,181269,1,0
187,242,181352,1,2
201,250,181435,1,0
214,260,181519,1,0
224,272,181602,1,0
233,285,181685,2,4,B|245:307|242:328,4,40,6|4|6|4|6
400,256,182352,5,0
384,176,182519,1,0
304,160,182685,2,0,B|240:208|240:208|176:160,1,160,2|0
240,112,183185,1,0
304,64,183352,2,0,B|240:16|240:16|176:64,1,160,2|0
112,112,183852,1,0
96,192,184019,1,2
96,192,184102,1,0
96,192,184185,1,0
112,272,184352,2,0,B|184:336|256:272,1,160,0|2
304,208,184852,1,0
288,128,185019,6,0,B|208:128,2,80,0|0|2
288,48,185519,2,0,B|368:48,2,80
208,48,186019,1,2
128,48,186185,1,0
64,96,186352,2,0,B|127:182,1,80
187,155,186685,2,0,B|250:241,1,80,2|0
311,214,187019,2,0,B|374:300,1,80
436,273,187352,2,0,B|499:359,1,80,2|0
400,352,187685,5,2
112,352,188185,1,2
256,128,188685,1,2
400,192,189019,6,0,B|320:192,1,80
256,336,189352,2,0,B|256:240,1,80
112,192,189685,2,0,B|192:192,1,80
256,48,190019,2,0,B|256:128,1,80
400,112,190352,5,2
112,112,190852,1,2
256,336,191352,2,4,B|272:304|272:272,3,40,6|4|4|4
272,256,191685,2,0,B|272:224|256:208,3,40,6|0|0|0
256,176,192019,2,0,B|256:144|272:128,3,40,2|0|0|0
272,96,192352,2,0,B|272:64|256:48,3,40,2|0|0|0
240,16,192685,2,2,B|192:0|160:0,1,80
