osu file format v9

[General]
AudioFilename: felys_longmix.mp3
AudioLeadIn: 0
PreviewTime: 107019
Countdown: 0
SampleSet: Soft
StackLeniency: 0.7
Mode: 0
LetterboxInBreaks: 1

[Editor]
Bookmarks: 10686,21352,32019,42685,53352,64019,74685,85352,96019,107685,129019,150352,161019,171685,182352,193019
DistanceSpacing: 0.4
BeatDivisor: 4
GridSize: 16

[Metadata]
Title:felys -long remix-
Artist:onoken
Creator:Sharp
Version:Another
Source:
Tags:Natteke gowww lepidopodus

[Difficulty]
HPDrainRate:7
CircleSize:4
OverallDifficulty:7
ApproachRate:8
SliderMultiplier:2
SliderTickRate:1

[Events]
//Background and Video events
0,0,"BG.jpg"
//Break Periods
2,74718,84602
2,150551,160269
//Storyboard Layer 0 (Background)
//Storyboard Layer 1 (Fail)
//Storyboard Layer 2 (Pass)
//Storyboard Layer 3 (Foreground)
Sprite,Foreground,Centre,"teke.png",320,240 M,0,10019,,130,228 S,0,10019,,0.6 F,0,10019,10686,0,1 F,0,10686,21019,1 F,0,21019,21352,1,0 F,0,21352,31685,0 F,0,31685,32019,0,1 F,0,32019,42352,1 F,0,42352,42685,1,0 F,0,64019,74685,1 F,0,74685,76019,1,0 F,0,129019,150352,1 F,0,150352,150685,1,0 F,0,182352,192352,1 F,0,192352,,1 F,0,192352,193019,1,0 F,0,193019,,0
Sprite,Foreground,Centre,"shap.png",320,240 M,0,10019,,112,230 F,0,10019,,0 S,0,10019,,0.6 F,0,53352,63352,1 F,0,63352,,1 F,0,63352,64019,1,0 F,0,63352,64019,1,0 F,0,64019,84019,0 F,0,84019,,0 F,0,84019,85352,0,1 F,0,85352,96019,1 F,0,96019,96352,1,0 F,0,107685,128352,1 F,0,128352,129019,1,0 F,0,171685,182019,1 F,0,182019,,0 F,0,182019,182352,1,0
Sprite,Foreground,Centre,"go.png",320,240 M,0,10019,,132,230 S,0,10019,,0.6 F,0,21019,21352,0,1 F,0,21352,31685,1 F,0,31685,32019,1,0 F,0,32019,42352,0 F,0,42352,42685,0,1 F,0,42685,52019,1 F,0,52019,53352,1,0 F,0,96019,104019,1 F,0,104019,106685,1,0 F,0,106685,159685,0 F,0,159685,161019,0,1 F,0,161019,171019,1 F,0,171019,171685,1,0
//Storyboard Sound Samples
//Background Colour Transformations
3,100,163,162,255

[TimingPoints]
10686,333.333333333333,4,2,1,39,1,0
32019,-100,4,2,1,60,0,0
51769,-200,4,2,1,0,0,0
52435,-100,4,2,1,60,0,0
85352,-200,4,2,1,40,0,0
96019,-133.333333333333,4,2,1,60,0,0
104269,-133.333333333333,4,2,1,41,0,0
104602,-133.333333333333,4,2,1,30,0,0
104935,-133.333333333333,4,2,1,20,0,0
105102,-133.333333333333,4,2,1,0,0,0
107435,-100,4,2,1,60,0,0
107685,-100,4,2,1,50,0,1
128852,-100,4,2,1,0,0,1
129019,-100,4,2,1,50,0,1
149685,-200,4,2,1,60,0,0
150351,-100,4,2,1,60,0,0
150435,-100,4,2,1,60,0,0

[Colours]
Combo1 : 0,64,128
Combo2 : 128,128,255

[HitObjects]
40,192,10686,5,0
88,152,10852,1,0
144,152,11019,1,0
192,192,11186,1,0
192,248,11352,1,0
216,304,11519,1,0
256,344,11686,5,0
296,304,11852,1,0
320,248,12019,1,0
320,192,12186,1,0
368,152,12352,1,0
424,152,12519,1,0
472,192,12686,1,0
432,304,12852,1,0
400,232,13019,1,0
400,232,13102,1,0
400,232,13186,1,0
480,264,13352,5,0
432,304,13518,1,0
376,304,13685,1,0
328,264,13852,1,0
328,208,14018,1,0
304,152,14185,1,0
264,112,14352,5,0
224,152,14518,1,0
200,208,14685,1,0
200,264,14852,1,0
152,304,15018,1,0
96,304,15185,1,0
48,264,15352,1,0
88,152,15518,1,0
120,224,15685,1,0
120,224,15768,1,0
120,224,15852,1,0
136,96,16019,6,0,B|184:80|184:80|232:96,1,100
320,16,16352,2,0,B|273:31|273:31|225:15,1,100
320,96,16686,2,0,B|368:80|368:80|416:96,1,100,0|0
392,216,17019,6,0,B|344:232|344:232|296:216,1,100
208,296,17352,2,0,B|254:280|254:280|302:296,1,100
208,216,17686,2,0,B|160:232|160:232|112:216,1,100,0|0
160,104,18019,5,0
256,152,18186,1,0
352,104,18352,1,0
352,104,18435,1,0
352,104,18519,1,0
416,192,18685,6,0,B|440:240|408:296,1,100
300,288,19019,1,0
412,288,19185,1,0
300,288,19352,2,0,B|276:240|308:184,1,100,0|0
208,192,19685,6,0,B|236:144|212:96,1,100,0|0
100,96,20019,1,0
212,96,20185,1,0
99,95,20352,2,0,B|72:144|96:192,1,100
152,288,20685,1,0
256,336,20852,1,0
360,296,21019,1,0
256,248,21185,1,0
256,248,21352,5,0
256,136,21519,1,0
168,200,21685,1,0
160,88,21852,1,0
72,152,22019,2,0,B|48:200|56:280,1,100
256,136,22352,5,0
256,248,22519,1,0
344,184,22685,1,0
352,296,22852,1,0
440,232,23019,2,0,B|464:184|456:104,1,100
360,80,23352,5,0
152,80,23519,1,0
256,104,23685,1,0
256,104,23769,1,0
256,104,23852,1,0
192,192,24019,6,0,B|144:176|80:192,1,100
240,288,24352,2,0,B|192:272|128:288,1,100,0|0
144,104,24685,2,0,B|96:88|32:104,1,100
320,192,25019,6,0,B|368:176|432:192,1,100
272,288,25352,2,0,B|320:272|384:288,1,100,0|0
368,104,25685,2,0,B|416:88|480:104,1,100
296,40,26019,1,0
232,128,26185,1,0
320,192,26352,1,0
320,192,26435,1,0
320,192,26519,1,0
272,288,26685,6,0,B|224:320|176:328,1,100,0|0
232,232,27019,2,0,B|280:200|328:192,1,100,0|0
272,288,27352,2,0,B|224:320|176:328,1,100
240,96,27685,6,0,B|288:64|336:56,1,100
280,152,28019,2,0,B|232:184|184:192,1,100,0|0
240,96,28352,2,0,B|288:64|336:56,1,100
360,160,28685,5,0
152,224,28852,1,0
256,192,29019,1,0
256,192,29102,1,0
256,192,29185,1,0
432,240,29352,6,0,B|461:284|461:284|423:346,1,100
264,264,29685,2,0,B|235:308|235:308|273:370,1,100
96,272,30019,2,0,B|125:316|125:316|87:378,1,100,0|0
80,144,30352,6,0,B|51:100|51:100|89:38,1,100
248,120,30685,2,0,B|277:76|277:76|239:14,1,100
416,112,31019,2,0,B|387:68|387:68|425:6,1,100,0|0
344,192,31352,5,0
232,208,31519,1,0
184,312,31685,1,0
184,312,31769,1,0
184,312,31852,1,0
64,213,32019,6,4,B|80:312,1,100
152,232,32352,2,0,B|136:16,1,200,2|0
256,48,32852,1,4
374,32,33019,2,0,B|360:232,1,200,2|4
432,312,33519,6,0,B|448:208,1,100,4|2
328,216,33852,1,2
208,232,34019,1,0
112,304,34185,1,4
88,184,34352,1,2
88,184,34435,1,0
88,184,34519,1,4
184,302,34685,6,0,B|243:262|246:162|179:133,1,200,4|2
248,62,35185,2,0,B|276:126|376:123|416:64,1,200,0|4
464,176,35685,1,2
456,200,35769,2,4,B|416:328,1,100
408,304,36019,1,4
392,312,36102,1,4
376,320,36185,1,4
256,352,36352,5,2
208,272,36519,1,2
304,272,36685,1,0
320,176,36852,5,4
192,176,37019,1,4
320,176,37185,1,2
192,176,37352,5,4
256,24,37685,1,2
152,64,37852,2,0,B|80:72|40:152|72:224,1,200,0|4
160,296,38352,1,2
256,368,38519,1,4
352,296,38685,5,4
320,176,38852,1,0
192,176,39019,1,2
160,296,39185,1,0
256,312,39352,5,0
304,272,39519,1,4
288,216,39685,1,2
224,216,39852,1,4
200,272,40019,5,4
360,320,40352,1,2
360,320,40519,2,0,B|432:312|472:232|440:160,1,200,0|4
443,167,41019,2,4,B|336:168,1,100,4|0
68,167,41352,2,4,B|176:168,1,100
376,212,41685,2,0,B|276:213,1,100
131,212,42018,2,4,B|231:213,1,100
256,304,42352,1,4
256,192,42519,5,0
256,80,42685,1,4
256,80,43019,6,0,B|144:80,1,100,2|0
208,176,43352,2,0,B|336:176,1,100,0|0
360,272,43685,2,0,B|232:272,1,100,2|0
152,272,44019,1,6
56,224,44185,1,0
112,128,44352,1,2
208,176,44519,1,0
152,272,44685,5,4
152,272,44769,1,0
152,272,44852,1,0
56,224,45019,1,2
112,128,45185,1,4
48,40,45352,6,0,B|128:24|232:40|256:56,1,200,4|2
320,128,45852,2,0,B|320:184|344:240,1,100,4|0
448,248,46185,2,0,B|448:192|424:136,1,100,0|2
392,48,46519,1,0
320,128,46685,5,2
392,48,46852,1,0
280,32,47019,1,6
392,48,47185,1,0
208,120,47352,1,0
160,176,47519,1,0
216,224,47685,1,6
264,168,47852,1,0
208,120,48019,6,0,B|176:72|80:56|56:56|0:72,1,200,4|2
80,160,48519,1,4
24,256,48685,2,0,B|32:304|56:352,1,100,0|0
112,256,49019,2,0,B|120:304|144:352,1,100,6|0
208,256,49352,5,4
208,256,49435,1,0
208,256,49519,2,0,B|216:208|240:160,1,100,0|2
256,144,49769,1,0
272,128,49852,1,0
368,72,50019,5,4
448,152,50185,1,0
352,200,50352,1,6
272,128,50519,1,0
184,56,50685,2,0,B|128:80|72:168|64:216,1,200,4|0
328,328,51185,2,0,B|384:304|440:216|448:168,1,200,4|0
360,104,51685,1,6
256,56,51852,6,0,B|256:208,1,150
80,288,53352,5,2
80,288,53435,1,2
80,288,53519,2,6,B|160:288|160:288|208:256|208:256|272:256,1,200
368,224,54019,1,0
400,128,54185,1,6
368,32,54352,1,0
272,64,54519,1,6
240,160,54685,1,6
243,179,54769,1,4
251,197,54852,1,4
262,213,54935,1,4
276,227,55019,1,6
291,239,55102,1,0
308,248,55185,1,4
327,254,55269,1,0
346,257,55352,1,2
365,257,55435,1,0
385,256,55519,1,6
404,254,55602,1,0
423,251,55685,2,0,B|451:242|473:229,3,50,6|0|2|0
480,192,56019,6,2,B|400:112,1,100,6|2
288,192,56352,2,2,B|192:96,1,100,2|2
32,192,56685,2,0,B|128:288,1,100,0|0
224,192,57019,2,0,B|320:288,1,100,4|0
416,336,57352,5,6
416,336,57435,1,6
416,336,57519,1,6
304,336,57685,2,2,B|224:336|192:304,1,100
112,192,58019,1,6
108,172,58102,1,0
107,152,58185,1,4
109,131,58269,1,0
116,112,58352,1,6
127,95,58435,1,0
141,81,58519,1,4
157,69,58602,1,0
176,64,58685,6,6,B|256:64|256:64|304:96|304:96|368:96,1,200
480,208,59185,2,0,B|480:256,2,50,4|0|0
336,288,59519,2,0,B|336:336,2,50,4|0|0
336,128,59852,1,6
224,96,60019,1,6
224,96,60102,1,0
224,96,60185,1,0
112,64,60352,1,6
112,80,60435,1,4
112,96,60519,1,4
112,112,60602,1,4
112,128,60685,1,6
112,144,60769,1,0
112,160,60852,1,2
112,176,60935,1,0
112,192,61019,2,0,B|112:240,3,50,6|0|2|0
112,272,61352,5,6
208,336,61519,1,2
320,336,61685,1,0
416,272,61852,1,2
112,208,62185,1,2
208,272,62352,1,0
320,272,62519,1,2
416,208,62685,1,6
416,208,62769,1,4
416,208,62852,1,4
352,112,63019,1,6
352,112,63102,1,4
352,112,63185,1,4
256,48,63352,2,2,B|192:48|192:48|144:80,1,100,2|0
128,192,63685,2,2,B|192:192|192:192|240:224,1,100
416,360,64019,5,4
472,256,64185,1,4
472,136,64352,1,2
408,40,64519,1,0
104,40,64852,5,4
40,136,65019,1,2
40,256,65186,1,4
137,332,65352,6,0,B|96:360,3,50,4|0|4|0
88,245,65685,2,0,B|40:256,3,50,2|0|0|0
88,146,66019,2,0,B|40:136,3,50,0|0|4|0
145,67,66352,2,0,B|104:40,3,50,2|0|4|0
120,96,66685,5,4
184,192,66852,1,0
296,168,67019,1,2
232,72,67185,1,0
248,288,67519,5,4
184,192,67685,1,2
296,168,67852,1,4
360,264,68019,5,4
376,256,68102,1,4
392,248,68185,1,4
408,240,68269,1,0
416,224,68352,5,2
424,208,68435,1,0
432,192,68519,1,0
440,176,68602,1,0
432,160,68685,5,0
424,144,68769,1,0
416,128,68852,1,4
408,112,68935,1,0
392,104,69019,2,0,B|344:80,4,50,0|0|2|0|4
256,128,69519,5,4
192,192,69685,1,2
256,256,69852,1,2
168,96,70185,5,0
64,192,70352,1,2
168,288,70519,1,4
288,192,70685,6,0,B|344:192,2,50,2|2|0
272,104,71019,1,2
288,96,71102,1,2
304,88,71185,1,0
272,280,71352,1,2
288,288,71435,1,2
304,296,71518,1,0
376,192,71685,2,2,B|480:192,1,100,2|4
496,56,72019,5,4
376,56,72185,1,0
472,120,72352,1,2
352,120,72519,1,0
16,328,72852,5,4
136,328,73018,1,2
40,264,73185,1,0
160,264,73352,2,0,B|176:216,3,50,4|0|0|0
216,256,73685,2,0,B|259:229,3,50,2|0|4|0
256,288,74019,2,0,B|306:295,3,50,0|0|4|0
256,336,74352,2,2,B|360:376,1,100
112,96,85352,6,0,B|224:96,1,100
400,96,85852,2,0,B|288:96,1,100
256,160,86352,1,0
256,208,86519,1,0
256,256,86685,1,0
80,192,87019,5,0
112,224,87185,1,0
144,256,87352,1,0
176,288,87519,2,0,B|208:320|208:320|272:320,1,100
400,288,88019,2,0,B|336:288|336:288|304:256,1,100
288,160,88519,2,0,B|288:96|288:96|256:64,1,100
160,48,89019,2,0,B|96:48,1,50
144,160,89352,6,0,B|256:160,1,100
304,288,89852,2,0,B|192:288,1,100
128,224,90352,1,0
176,224,90519,1,0
224,224,90685,1,0
432,224,91019,5,0
400,192,91185,1,0
368,160,91352,1,0
336,128,91519,2,0,B|304:96|304:96|240:96,1,100
128,96,92019,2,0,B|80:96|80:96|32:144,1,100
176,160,92519,2,0,B|224:160|224:160|272:208,1,100
296,232,93019,1,0
328,264,93185,1,0
360,296,93352,1,0
432,192,93685,6,0,B|432:128|432:128|400:96,1,100
288,96,94185,2,0,B|224:112|224:112|192:144,1,100
256,256,94685,2,0,B|320:256|320:256|352:240,1,100
432,160,95185,1,0
384,160,95352,1,0
336,160,95519,2,0,B|224:160,1,100
232,96,96019,6,0,B|176:80|160:112|64:96,1,149.999995529652,4|2
32,176,96519,2,0,B|48:216,1,37.4999988824129
72,248,96685,2,0,B|88:288|128:312,2,74.9999977648259,0|0|2
120,176,97185,1,0
176,248,97352,2,0,B|256:248,1,74.9999977648259,4|0
288,168,97685,2,0,B|208:168,1,74.9999977648259,2|0
176,88,98019,2,0,B|256:88,1,74.9999977648259
344,88,98352,1,2
344,88,98519,1,0
432,64,98685,6,0,B|464:96|480:168|456:216,1,149.999995529652,4|2
472,296,99185,2,0,B|440:328|368:344|320:320,1,149.999995529652,0|0
240,320,99685,2,0,B|200:352,2,37.4999988824129,2|0|0
152,288,100019,6,0,B|96:248,1,37.4999988824129,0|0
144,224,100185,2,0,B|96:184,1,37.4999988824129
144,160,100352,2,0,B|88:120,1,37.4999988824129,2|0
136,96,100518,2,0,B|88:56,1,37.4999988824129
136,32,100685,2,0,B|96:0,2,37.4999988824129,2|0|0
136,32,101185,5,0
136,32,101352,2,0,B|224:32,1,74.9999977648259,0|0
272,104,101685,2,0,B|368:104,2,74.9999977648259,2|0|0
272,104,102352,1,2
440,168,102685,6,0,B|440:216|424:272,1,74.9999977648259
392,328,103019,2,0,B|336:320|304:320,1,74.9999977648259,2|0
272,240,103352,2,0,B|216:248|184:248,2,74.9999977648259,0|0|2
328,64,104019,6,0,B|256:64|168:64,1,149.999995529652,0|0
32,168,104685,1,0
144,312,105019,1,0
88,240,105185,6,0,B|152:120|280:128|280:288|440:160,1,374.999988824129
256,192,106185,12,0,107352
96,128,107685,6,0,B|160:96|256:96|320:144,1,200,4|2
384,192,108185,1,4
384,192,108269,1,4
384,192,108352,1,4
368,304,108519,1,2
256,320,108685,2,0,B|177:304|145:268,1,100,0|2
112,160,109019,6,0,B|192:80,1,100,4|0
192,208,109352,2,0,B|272:128,1,100,4|0
272,256,109685,2,0,B|352:176,1,100,4|0
352,304,110018,2,0,B|432:224,1,100,4|0
448,112,110352,1,6
448,112,110519,1,6
448,112,110685,1,2
336,80,110852,2,0,B|272:48|208:48|128:96,1,200
64,160,111352,1,2
112,240,111519,1,4
192,288,111685,1,4
208,288,111769,1,4
224,288,111852,1,4
240,288,111935,1,4
256,288,112019,1,0
352,288,112185,2,2,B|464:288,2,100
352,288,112685,1,4
288,80,113019,5,0
288,80,113102,1,0
288,80,113185,2,0,B|224:80|160:128,1,100,4|2
144,176,113519,1,0
128,256,113685,1,0
208,240,113852,2,0,B|304:208,1,100,4|2
384,192,114185,1,4
416,288,114352,5,4
416,288,114435,1,4
320,320,114602,1,4
320,320,114685,1,4
224,336,114852,1,4
128,320,115019,2,2,B|64:304|32:256,1,100
192,240,115352,1,0
256,160,115519,1,0
320,80,115685,6,0,B|256:48|192:48|128:80,1,200,4|0
128,304,116185,2,0,B|192:336|256:336|320:304,1,200,4|0
448,128,116685,2,0,B|384:96|320:96|256:128,1,200,4|0
176,192,117185,1,2
144,272,117352,1,0
144,272,117435,1,0
144,272,117519,1,0
256,336,117685,5,4
256,192,117852,1,4
256,48,118019,1,4
448,272,118352,5,4
352,304,118519,1,4
256,336,118685,1,0
160,304,118852,2,0,B|144:256|144:256|160:192,1,100,4|2
352,80,119185,2,0,B|368:128|368:128|352:192,1,100,4|2
256,192,119519,1,4
152,176,119685,1,4
152,160,119769,1,4
152,144,119852,1,4
152,128,119935,1,4
152,112,120019,1,4
48,96,120185,1,0
32,192,120352,1,0
48,288,120519,2,4,B|64:336|64:336|112:352,1,100,4|6
216,352,120852,1,0
320,352,121019,6,0,B|384:352|432:336,1,100,2|0
336,288,121352,2,0,B|381:242|403:197,1,100,2|0
296,237,121685,2,0,B|296:173|280:125,1,100,2|0
234,225,122019,2,0,B|188:179|143:157,1,100,2|0
112,272,122352,2,0,B|304:176,1,200,0|2
400,128,122852,1,4
400,128,122935,1,0
400,128,123019,1,0
416,224,123185,1,4
400,224,123269,1,4
384,224,123352,1,4
368,224,123435,1,4
352,224,123519,1,4
256,224,123685,6,0,B|192:272|128:272|64:224,1,200,0|2
160,192,124185,1,4
256,160,124352,2,0,B|320:112|384:112|448:160,1,200,0|2
352,192,124852,1,4
256,224,125019,5,0
225,339,125185,1,4
287,236,125352,1,0
287,356,125519,1,4
320,241,125685,1,0
352,356,125852,1,4
353,235,126019,1,0
414,337,126185,1,4
480,240,126352,2,0,B|480:128|400:64,1,200,4|2
32,144,126852,2,0,B|32:256|112:320,1,200,4|2
256,192,127352,12,0,128852
416,304,129019,6,0,B|448:208,2,100,4|4|2
304,344,129519,5,0
304,344,129602,1,0
304,344,129685,2,0,B|272:248,1,100,0|4
320,136,130019,2,0,B|352:232,1,100,2|4
240,184,130352,6,0,B|176:208|96:152|112:64,1,200,4|2
232,56,130852,2,0,B|448:40,2,200,0|4|4
328,128,131685,2,0,B|448:120,1,100,4|0
192,120,132019,2,0,B|184:0,1,100,2|0
184,256,132352,2,0,B|64:264,1,100,0|4
320,264,132685,2,0,B|328:384,1,100,2|0
440,320,133019,5,4
448,304,133102,1,4
456,288,133185,2,0,B|480:232,2,50,0|0|2
410,85,133519,5,0
402,101,133602,1,0
392,120,133685,1,4
384,136,133768,1,4
376,152,133851,2,0,B|352:208,2,50,0|0|2
264,160,134185,1,0
264,272,134352,6,0,B|208:312|112:288|104:208,2,200,4|2|0
376,248,135185,2,0,B|408:344,2,100,4|2|4
296,176,135685,6,0,B|104:56,1,200,4|2
24,120,136185,2,0,B|208:232,1,200,0|4
224,328,136685,1,2
328,304,136852,1,4
304,200,137019,5,4
136,56,137352,1,2
304,200,137685,1,0
416,200,137852,1,4
448,304,138019,1,2
448,304,138102,1,4
328,304,138269,1,4
328,304,138352,6,4,B|216:344,1,100
191,276,138685,2,0,B|256:200,1,100,2|0
136,160,139019,2,0,B|114:276,1,100,4|4
41,262,139352,2,0,B|8:168,1,100,4|0
64,72,139685,6,0,B|176:48|240:136,1,200,4|2
136,160,140185,2,0,B|200:248|312:224,1,200,0|4
400,160,140685,1,2
416,272,140852,1,4
296,120,141019,5,4
384,56,141185,1,4
400,160,141352,1,2
112,200,141685,1,2
112,200,141852,1,4
256,304,142019,1,2
256,304,142185,1,4
144,304,142352,5,4
208,216,142519,1,0
208,216,142602,1,0
208,216,142685,2,0,B|232:160|216:112,1,100,2|0
312,32,143019,2,0,B|288:88|304:136,1,100,0|4
336,232,143352,1,2
336,232,143435,1,4
384,328,143602,1,4
384,328,143685,6,0,B|480:264|448:128,1,200,4|2
312,32,144185,1,0
312,32,144269,1,0
312,32,144352,2,0,B|288:88|304:136,1,100,0|4
384,328,144685,2,0,B|408:272|392:224,1,100,2|4
296,280,145019,6,0,B|200:304,2,100,4|4|2
368,200,145519,1,0
264,184,145685,2,0,B|144:176,2,100,0|4|2
368,152,146185,1,4
280,88,146352,6,0,B|176:64,2,100,4|4|2
368,152,146852,1,0
264,184,147019,2,0,B|144:176,2,100,0|4|2
368,200,147519,1,4
440,280,147685,6,0,B|424:328|368:352,1,100,4|0
304,264,148019,2,0,B|208:224|112:280,2,200,2|0|2
368,176,148852,1,0
368,176,148935,1,0
368,176,149019,6,4,B|400:128|384:72,1,100,4|0
144,128,149352,2,4,B|112:176|128:232,1,100,2|4
256,344,149685,6,0,B|208:264|320:240|240:128,1,200,0|2
160,344,161019,6,0,B|104:320,3,50,6|0|0|0
64,296,161352,2,0,B|32:240,1,50
32,200,161519,2,0,B|32:160|40:112|64:80,2,100,0|2|0
136,160,162019,6,0,B|184:168|240:168,1,100,0|0
344,176,162352,1,2
424,96,162519,2,0,B|376:88|320:88,1,100
432,72,162852,2,0,B|384:64|328:64,1,100,0|2
440,40,163185,2,0,B|392:32|336:32,1,100
232,64,163519,1,0
120,48,163685,5,2
120,48,163769,1,0
120,48,163852,2,0,B|80:104|72:152,1,100
176,176,164185,2,0,B|232:216|336:232|408:216,1,200
376,328,164685,2,0,B|416:272|432:168|416:96,1,200,0|2
344,56,165185,5,0
344,56,165352,1,0
240,96,165519,1,0
240,96,165685,1,2
136,56,165852,1,0
136,56,166019,1,0
40,112,166185,2,0,B|32:168|40:216,1,100,0|6
39,211,166435,1,0
39,211,166519,1,0
88,312,166685,6,0,B|128:264|176:240,1,100
163,246,167019,1,4
424,72,167352,6,0,B|384:120|336:144,1,100
248,176,167686,1,0
256,72,167852,1,0
256,72,168019,1,4
144,56,168185,1,0
56,128,168352,2,0,B|40:176|40:232,2,100,6|0|0
160,160,168852,6,0,B|192:208|216:256,1,100,0|6
210,246,169102,1,0
210,246,169185,1,0
210,246,169269,1,0
210,246,169352,1,0
304,296,169519,2,0,B|368:256|432:208|464:144,1,200
408,64,170019,6,0,B|304:64,1,100,4|0
104,64,170352,2,0,B|208:64,1,100,6|0
256,160,170685,1,4
256,272,170852,1,4
256,160,171019,2,4,B|256:112,3,50
256,56,171352,2,4,B|256:272,1,200
320,128,171852,5,4
192,176,172019,1,2
320,224,172185,1,0
320,224,172269,1,0
320,224,172352,1,0
272,352,172519,2,0,B|160:352,1,100,4|2
256,240,172852,1,4
384,288,173019,5,2
448,208,173185,1,0
448,112,173352,1,0
384,32,173519,1,0
288,32,173685,2,4,B|192:80,1,100
256,160,174019,2,4,B|160:208,1,100
64,256,174352,1,2
64,256,174435,1,0
64,256,174519,1,0
192,272,174685,1,0
320,288,174852,1,0
400,112,175185,5,2
384,112,175269,1,0
368,112,175352,1,0
352,112,175435,1,0
336,112,175519,1,0
320,112,175602,1,0
304,112,175685,2,0,B|272:112|256:96,3,50,2|0|0|0
240,96,176018,2,0,B|208:96|192:112,3,50,2|0|0|0
176,112,176352,2,0,B|144:112|128:96,3,50,2|0|0|0
112,96,176685,2,0,B|80:96|64:112,3,50,2|0|0|0
48,128,177019,5,4
80,240,177185,1,4
160,320,177352,1,0
272,352,177519,1,2
80,240,177852,1,4
160,320,178019,1,4
272,352,178186,1,4
384,320,178352,5,0
272,288,178518,1,0
192,208,178685,1,0
160,96,178852,1,2
272,64,179019,2,0,B|336:64|384:128,1,100
240,320,179352,2,0,B|176:320|128:256,1,100
256,112,179685,2,0,B|320:112|368:176,1,100
256,272,180018,2,0,B|192:272|144:208,1,100
240,160,180352,2,0,B|304:160|352:224,1,100
272,224,180685,2,0,B|208:224|160:160,1,100
144,80,181019,5,6
144,80,181102,1,4
144,80,181185,1,4
320,128,181352,5,6
304,144,181435,1,4
288,160,181519,1,4
272,176,181602,1,4
256,192,181685,1,6
240,208,181769,1,0
224,224,181852,1,4
208,240,181935,1,0
192,256,182019,2,0,B|144:304,2,50,6|0|4
48,96,182352,5,4
48,96,182519,1,4
104,192,182685,2,0,B|104:304,1,100,2|4
200,344,183019,2,4,B|296:296|400:352,1,200,0|2
360,240,183519,1,4
472,264,183685,6,4,B|420:167|468:71,2,200,4|2|0
360,248,184519,1,4
232,224,184685,1,2
104,192,184852,1,4
48,96,185019,5,4
160,80,185185,1,0
224,176,185352,1,2
432,104,185685,1,0
464,320,186019,1,2
360,360,186185,1,0
368,248,186352,5,4
352,232,186435,1,4
336,224,186519,1,4
320,224,186602,1,0
304,224,186685,1,2
288,232,186769,1,0
272,240,186852,1,0
256,248,186935,1,0
240,256,187019,5,0
224,264,187103,1,0
208,264,187186,1,4
192,264,187269,1,0
176,264,187352,2,4,B|128:248,4,50,4|4|4|4|4
152,144,187852,5,4
240,64,188019,1,2
344,128,188185,1,0
248,200,188352,1,0
248,200,188435,1,0
248,200,188519,1,4
240,64,188685,1,2
344,128,188852,1,4
152,144,189019,6,0,B|136:40,1,100,4|0
344,128,189352,2,0,B|360:232,1,100,2|0
96,280,189685,1,2
416,280,190019,1,2
216,312,190352,6,0,B|192:256|224:208,1,100,4|0
288,120,190685,2,0,B|315:160|291:216,1,100,2|0
200,136,191019,2,0,B|104:88|-8:144,1,200,0|2
32,288,191518,1,0
48,272,191602,1,4
64,256,191685,1,4
80,240,191768,1,4
96,224,191852,1,4
112,208,191935,1,0
128,192,192019,6,0,B|200:160,3,50,2|0|4|0
112,168,192352,2,0,B|146:97,3,50,0|0|4|0
64,168,192685,2,2,B|56:40,1,100
