osu file format v6

[General]
AudioFilename: Onoken - Quinine.mp3
AudioLeadIn: 1015
PreviewTime: 18538
Countdown: 0
SampleSet: Soft
StackLeniency: 0.6
Mode: 0
LetterboxInBreaks: 1

[Editor]
Bookmarks: 18538,29204,39871,50538,65674,71008,73341,85204,95871,106538
DistanceSpacing: 0.800000011920929
BeatDivisor: 4
GridSize: 8

[Metadata]
Title:Quinine -A2D SIDE-
Artist:onoken
Creator:tsukamaete
Version:Standard
Source:
Tags:Ever17 MAD Dr_dy ignorethis

[Difficulty]
HPDrainRate:3
CircleSize:4
OverallDifficulty:4
SliderMultiplier:1.2
SliderTickRate:2

[Events]
//Background and Video events
0,0,"quinine-bg.png"
Video,0,"Strangeness.avi"
//Break Periods
2,29370,38517
//Storyboard Layer 0 (Background)
//Storyboard Layer 1 (Fail)
//Storyboard Layer 2 (Pass)
//Storyboard Layer 3 (Foreground)
//Storyboard Sound Samples
//Background Colour Transformations
3,100,163,162,255

[TimingPoints]
-1496,333.333333333333,4,1,0,0,1,0
1163,-200,4,1,0,10,0,0
2502,-200,4,1,0,20,0,0
3669,-200,4,1,0,20,0,0
8835,-200,4,1,0,30,0,0
11668,-200,4,1,0,50,0,0
14168,-200,4,1,0,40,0,0
17008,-200,4,1,0,50,0,0
17341,-200,4,2,0,40,0,0
18002,-200,4,1,0,51,0,0
18252,-100,4,1,0,80,0,0
18502,-100,4,1,0,100,0,0
19008,-100,4,2,0,80,0,0
19341,-100,4,1,0,100,0,0
20341,-100,4,2,0,80,0,0
20841,-100,4,1,0,100,0,0
24341,-100,4,2,0,80,0,0
24675,-100,4,1,0,100,0,0
25675,-100,4,2,0,80,0,0
26008,-100,4,1,0,100,0,0
29085,-100,4,2,0,80,0,0
39508,-100,4,2,1,60,0,0
40341,-100,4,1,1,70,0,0
41091,-100,4,2,1,60,0,0
41674,-100,4,1,1,70,0,0
42424,-100,4,2,1,60,0,0
43008,-100,4,1,1,70,0,0
43758,-100,4,2,1,60,0,0
44341,-100,4,1,1,70,0,0
45091,-100,4,2,1,60,0,0
45841,-100,4,1,1,70,0,0
46424,-100,4,2,1,60,0,0
47174,-100,4,1,1,70,0,0
47758,-100,4,2,1,60,0,0
48341,-100,4,1,1,70,0,0
49008,-100,4,2,1,60,0,0
49674,-100,4,1,1,70,0,0
50008,-100,4,2,1,60,0,0
50418,-100,4,2,0,80,0,0
50674,-100,4,1,0,40,0,0
50758,-100,4,2,0,80,0,0
51174,-100,4,1,0,40,0,0
51258,-100,4,2,0,80,0,0
51424,-100,4,2,0,60,0,0
51922,-100,4,2,0,80,0,0
52335,-100,4,1,0,10,0,0
52502,-100,4,1,0,29,0,0
52668,-100,4,1,0,46,0,0
52835,-100,4,1,0,65,0,0
53002,-100,4,1,0,82,0,0
53168,-100,4,1,0,100,0,0
72561,-100,4,1,0,100,0,0
74508,-100,4,2,0,100,0,0
74591,-100,4,1,1,100,0,0
75841,-100,4,2,0,0,0,0
76008,-100,4,1,1,100,0,0
76675,-100,4,2,0,0,0,0
77008,-100,4,1,1,100,0,0
78508,-100,4,2,0,0,0,0
78675,-100,4,1,1,100,0,0
79341,-100,4,2,0,0,0,0
79675,-100,4,1,1,100,0,0
80341,-100,4,1,1,100,0,0
81008,-100,4,2,0,0,0,0
81341,-100,4,1,1,100,0,0
82008,-100,4,2,0,0,0,0
82341,-100,4,1,1,100,0,0
83341,-100,4,2,0,51,0,0
83925,-100,4,2,1,71,0,0
84175,-100,4,1,1,60,0,0
84258,-100,4,2,1,71,0,0
85168,-200,4,2,0,100,0,0
89008,-100,4,1,0,70,0,0
89675,-100,4,2,1,71,0,0
90341,-200,4,2,1,71,0,0
94175,-200,4,1,0,70,0,0
95008,-200,4,2,1,71,0,0
95675,-200,4,1,0,41,0,0
96008,-100,4,2,1,71,0,0
96175,-200,4,1,0,40,0,0
96835,-200,4,2,0,79,0,0
98341,-200,4,1,0,40,0,0
98675,-100,4,2,1,70,0,0
98841,-200,4,1,0,40,0,0
99508,-100,4,2,1,59,0,0
101008,-200,4,1,0,39,0,0
101341,-200,4,2,1,59,0,0
101508,-200,4,1,0,40,0,0
102341,-100,4,2,1,50,0,0
103675,-200,4,1,0,30,0,0
104008,-100,4,2,1,50,0,0
104175,-200,4,1,0,30,0,0
106508,-100,4,2,0,0,0,0

[Colours]
Combo1 : 208,208,208
Combo2 : 128,255,255
Combo3 : 0,128,255

[HitObjects]
360,88,1170,2,0,B|360:48,7,30
376,96,2504,2,0,L|376:168|352:184,1,90
152,88,3837,2,0,B|152:40,7,30
136,104,5170,2,0,L|136:176|152:208,1,90
104,328,6503,6,0,L|136:328,7,30
104,328,7837,2,0,L|208:328,1,90
416,328,9170,2,0,L|368:328,7,30
416,328,10504,2,0,L|304:328,1,90
184,80,11837,6,0,L|136:80,7,30
200,104,13170,2,0,L|200:208,1,90
328,304,14504,2,0,L|368:304,7,30
312,280,15837,2,0,L|312:176,1,90
256,32,17170,6,0,L|256:72,1,30,0|8
256,112,17504,2,0,L|256:160,1,30,2|8
256,192,17837,2,0,L|256:248,1,30,0|8
256,272,18170,2,0,L|256:320,1,30
256,352,18504,6,0,L|331:351|376:293,1,120,0|8
360,216,19170,1,8
360,216,19504,1,8
360,120,19837,2,0,L|320:68|245:67,1,120,0|8
240,160,20503,2,0,L|96:160,1,120,8|8
72,248,21170,6,0,L|111:299|186:300,1,120,0|8
248,352,21837,2,0,L|392:352,1,120,0|8
400,264,22503,2,0,L|464:232|464:160,1,120,0|8
464,88,23170,1,0
464,88,23503,1,8
368,72,23837,6,0,L|288:72|248:104,1,120,0|8
256,192,24503,1,8
256,192,24837,1,8
256,288,25170,2,0,L|236:307|125:307,1,120,0|8
64,256,25837,1,8
64,256,26170,1,8
64,160,26503,6,0,L|64:16,1,120,0|8
136,104,27170,2,0,L|280:104,1,120,0|8
256,208,27837,12,4,29170
176,104,39837,6,0,L|120:144|120:224,1,120,2|8
120,288,40504,1,4
200,240,40837,2,0,L|264:240,1,60,8|0
312,240,41170,2,0,L|360:208|360:120,1,120,2|8
360,48,41837,1,4
272,96,42170,2,0,L|200:96,1,60,8|0
216,96,42504,6,0,L|272:144|272:208,1,120,2|8
272,288,43170,1,4
176,288,43504,2,0,L|176:360,1,60,8|0
176,288,43837,2,0,L|120:248|120:176,1,120,2|8
120,104,44504,1,4
200,56,44837,2,0,L|272:56,1,60,8|0
312,56,45170,5,2
392,112,45504,2,0,L|392:248,1,120,8|4
352,320,46170,2,0,L|272:320,1,60,8|0
240,320,46504,1,2
152,280,46837,2,0,L|152:144,1,120,8|4
232,104,47504,2,0,L|232:184,1,60,8|0
264,200,47837,5,2
360,200,48170,1,8
456,200,48504,1,4
408,288,48837,1,8
312,288,49170,1,0
216,288,49504,1,8
120,288,49837,1,4
160,200,50170,1,8
192,112,50504,6,0,L|272:112,1,60,2|0
304,112,50837,1,2
280,152,51004,2,0,L|240:221,1,60,2|0
224,248,51337,1,8
272,248,51504,2,0,L|352:248,1,60,6|0
384,248,51837,1,2
256,208,52004,12,4,53170
136,64,53670,5,0
136,64,53837,2,2,L|256:64|168:136|296:136|296:72,1,420,2|0
344,72,55170,2,0,L|456:72,2,90
344,120,55837,2,2,L|400:168|400:256|400:288,1,180
368,312,56504,2,2,L|256:312|304:232|208:232,1,300
160,232,57504,2,0,L|32:232,1,120
40,184,58004,2,0,L|40:96,2,60
88,184,58504,6,2,L|128:120|248:120,1,180
280,120,59170,2,2,L|400:120|344:200|232:200|176:280,1,420
152,312,60504,2,0,L|48:312,2,90
184,352,61170,2,2,L|320:352|368:304|472:304|424:232|328:232|328:176,1,540
328,136,62837,2,0,L|328:64,1,60
288,48,63170,2,0,L|200:48,3,60
176,48,63837,6,2,L|96:48|48:136,1,180
96,136,64504,2,2,L|272:136|216:216|136:216|80:288,1,420
96,320,65837,2,0,L|96:368|32:368,2,90
144,320,66504,2,2,L|216:272|336:272,1,180
360,272,67170,2,2,L|424:224|424:128|360:88|360:144,1,300
328,168,68170,2,0,L|208:168,1,120
160,168,68670,2,0,L|88:168,2,60
160,120,69170,6,2,L|200:72|344:72,1,180
320,120,69837,2,2,L|320:200|368:256|368:336|296:336|208:336|176:336,1,420
136,336,71170,2,0,L|32:336,2,90
136,288,71837,2,2,L|64:288|104:208|48:208|96:128|208:128|152:192|208:192,1,540
320,136,73837,2,2,L|320:216,1,60
304,240,74170,2,2,L|304:328,1,60
304,352,74504,5,2
208,352,74837,1,0
112,352,75170,1,8
48,280,75504,2,0,L|48:152,1,120
112,88,76170,1,0
208,88,76504,1,8
304,88,76837,1,0
384,144,77170,5,0
304,192,77504,1,0
384,248,77837,1,8
304,304,78170,2,0,L|184:304,1,120
104,248,78837,1,0
104,248,79170,1,8
104,248,79503,1,0
184,200,79837,6,0,L|312:200,1,120
376,136,80503,1,8
376,136,80837,1,0
376,136,81170,1,0
312,64,81503,2,0,L|168:64,1,120,0|8
112,120,82170,1,0
112,216,82503,1,0
200,168,82837,1,0
200,264,83170,1,8
280,216,83503,1,0
280,312,83837,1,8
328,312,84003,6,2,L|416:312,1,60,2|0
416,272,84337,2,2,L|416:192,1,60
384,176,84670,2,2,L|312:176,1,60
296,136,85003,2,0,L|296:64,1,60,2|4
200,80,85837,5,8
128,144,86503,1,0
128,192,86837,1,0
128,240,87170,1,8
208,296,87837,5,0
304,296,88503,1,8
360,224,89170,1,0
360,176,89503,1,0
360,128,89837,1,8
360,80,90170,1,0
320,48,90503,6,0,L|176:48,1,120,0|8
168,136,91837,1,0
120,136,92170,1,0
72,136,92503,1,8
104,224,93170,2,0,L|240:224,1,120,0|8
264,312,94503,1,0
312,312,94837,1,0
360,312,95170,1,8
408,312,95503,1,0
456,312,95837,6,0,L|488:312,3,30,0|0|0|0
408,224,97170,5,2
360,224,97503,1,0
312,224,97837,1,2
264,224,98170,1,0
216,224,98503,2,0,L|160:224,3,30,0|0|0|0
120,120,99837,5,2
168,120,100170,1,0
216,120,100503,1,2
264,120,100837,1,0
312,120,101170,2,0,L|368:120,3,30,0|0|0|0
256,200,102503,5,2
296,224,102837,1,0
280,272,103170,1,2
232,272,103503,1,0
216,232,103837,2,0,L|168:232,3,30,0|0|0|0
256,208,105170,12,4,106503
