osu file format v7

[General]
AudioFilename: 05 - K8107.MP3
AudioLeadIn: 0
PreviewTime: 30649
Countdown: 0
SampleSet: Soft
StackLeniency: 0.7
Mode: 0
LetterboxInBreaks: 0

[Editor]
Bookmarks: 6649,27982,30649,41315,51982,57315,67982,78316,79982,90982,101649,112316
DistanceSpacing: 1.20000004768372
BeatDivisor: 4
GridSize: 16

[Metadata]
Title:K8107
Artist:onoken
Creator:tsukamaete
Version:Lunatic
Source:o2jam
Tags:ignorethis v2b Dr_dy

[Difficulty]
HPDrainRate:6
CircleSize:4
OverallDifficulty:7
SliderMultiplier:1.3
SliderTickRate:1

[Events]
//Background and Video events
0,0,"K8107.jpg"
//Break Periods
2,80182,84688
//Storyboard Layer 0 (Background)
//Storyboard Layer 1 (Fail)
//Storyboard Layer 2 (Pass)
//Storyboard Layer 3 (Foreground)
Sprite,Foreground,Centre,"black.png",320,240 F,0,113586,114920,0,1 M,0,113586,117586,320,240 F,0,117586,118919,1,0
Sprite,Foreground,Centre,"dif\lunatic.png",320,240 M,0,113586,114920,456,396 F,0,113586,114920,0,1 M,0,114920,117586,456,396 F,0,114920,117586,1,0.9955022
//Storyboard Sound Samples
//Background Colour Transformations
3,100,163,162,255

[TimingPoints]
1316,333.333333333333,4,1,1,70,1,0
51899,-100,4,2,1,41,0,0
51982,-100,4,2,1,70,0,0
57315,-100,4,1,1,70,0,0
84191,333.333333333333,4,2,1,70,1,0
85588,333.333333333333,4,1,1,70,1,0
114587,-100,4,2,1,0,0,0

[Colours]
Combo1 : 0,255,255
Combo2 : 255,0,0
Combo3 : 255,128,128

[HitObjects]
256,48,6649,1,0
48,192,6982,1,0
464,192,7315,1,2
256,336,7649,1,0
176,288,7815,1,0
336,288,7982,1,0
208,208,8149,1,0
304,208,8315,1,0
204,48,8649,2,0,B|256:120|316:40,1,130,2|0
64,320,9315,5,0
256,272,9649,1,0
448,320,9982,1,2
144,64,10315,1,0
176,144,10482,1,0
256,192,10649,1,0
336,144,10815,1,0
368,64,10982,1,0
192,336,11315,2,0,B|256:288|330:343,1,130,2|0
464,192,11982,6,0,B|304:192,2,130,0|0|2
96,304,12982,1,0
192,272,13149,1,0
256,192,13315,1,0
320,112,13482,1,0
416,80,13649,1,0
80,96,13982,2,0,B|224:64,1,130,2|0
432,288,14649,6,0,B|368:320|288:304,1,130
256,64,15315,1,2
112,80,15649,1,0
160,160,15815,1,0
256,192,15982,1,0
352,224,16149,1,0
400,304,16315,1,0
80,272,16649,2,0,B|224:320,1,130,2|0
400,80,17315,6,0,B|288:96,1,97.5,0|0
192,80,17815,1,2
64,96,18149,2,0,B|32:144|80:176,1,65
112,208,18482,1,0
176,256,18649,2,0,B|224:288|288:256,1,97.5
368,224,19149,1,2
400,64,19482,2,0,B|480:64,2,65
304,48,19982,6,0,B|256:32|192:48,1,97.5
112,64,20482,1,2
32,160,20815,2,0,B|16:208|32:240,1,65
64,288,21149,1,0
144,320,21315,2,0,B|192:288|240:304,1,97.5
352,320,21815,1,2
448,160,22149,2,0,B|368:160,1,65
304,144,22482,1,0
224,176,22649,6,0,B|176:144|128:160,1,97.5
48,192,23149,1,2
144,320,23482,2,0,B|176:304|240:320,1,65
288,320,23815,1,0
368,304,23982,2,0,B|416:256|384:208,1,97.5
368,128,24482,1,2
240,32,24815,2,0,B|176:48,1,65
96,96,25149,1,0
48,176,25315,6,0,B|16:224|48:288,1,97.5
96,336,25815,1,2
176,320,25982,2,0,B|224:304|272:304,1,65
320,288,26315,2,0,B|400:272,1,65
464,240,26649,2,0,B|496:192|464:128,2,97.5,0|0|2
432,320,27315,1,0
432,320,27482,1,0
432,320,27649,1,0
432,320,27815,1,0
256,192,27982,12,0,30315
64,64,30649,5,4
96,144,30815,1,0
112,176,30899,1,0
128,208,30982,1,4
144,240,31065,1,0
160,272,31149,1,0
208,336,31315,2,0,B|256:256,1,65
288,208,31649,2,0,B|320:144,1,65,4|0
368,96,31982,5,0
432,160,32149,1,0
448,192,32232,1,0
464,224,32315,1,4
448,256,32399,1,0
432,288,32482,1,0
352,336,32649,2,0,B|288:304,1,65
224,272,32983,2,0,B|160:240,1,65,4|0
96,208,33315,6,0,B|64:176|96:144,1,65
112,128,33565,1,0
144,112,33649,1,4
176,96,33732,1,0
208,80,33815,1,0
288,48,33982,2,0,B|352:80,1,65
416,112,34315,2,0,B|480:144,1,65,4|0
464,224,34649,6,0,B|432:256|384:224,1,65
368,224,34899,1,0
336,208,34982,1,4
304,224,35066,1,0
272,240,35149,1,0
208,288,35315,2,0,B|144:336,1,65
80,320,35649,2,4,B|32:272,1,65
48,192,35982,6,0,B|64:144|128:160,1,65
128,176,36232,1,0
160,192,36315,1,4
192,176,36399,1,0
224,160,36482,1,0
208,80,36649,2,0,B|288:32,1,65
320,96,36982,2,0,B|400:48,1,65,4|0
432,128,37315,6,0,B|448:160|432:208,1,65
432,224,37565,1,0
416,256,37649,1,4
389,278,37732,1,0
356,289,37815,1,0
272,320,37982,2,0,B|192:288,1,65
128,304,38315,2,0,B|48:272,1,65,4|0
48,208,38649,6,0,B|16:176|48:128,1,65
64,128,38899,1,0
96,112,38982,1,4
128,128,39065,1,0
160,144,39149,1,0
208,80,39315,2,0,B|288:128,1,65
304,48,39649,2,0,B|368:80,1,65,4|0
448,96,39982,6,0,B|464:144|448:192,1,65
448,192,40232,1,0
432,224,40315,1,4
400,240,40399,1,0
368,224,40482,1,0
304,176,40649,2,0,B|256:160|240:208,1,65
192,256,40982,2,0,B|160:304|112:256,1,65,4|0
64,224,41315,6,0,B|80:160,1,65
48,128,41565,1,0
48,80,41649,2,0,B|144:80,1,65,4|0
176,32,41982,2,0,B|256:48,1,65
272,80,42232,1,0
320,80,42315,2,0,B|400:112,1,65,4|0
448,176,42649,6,0,B|384:224,1,65
352,224,42899,1,0
304,240,42982,2,0,B|240:288,1,65,4|0
144,304,43315,2,0,B|128:240,1,65
80,224,43565,1,0
32,208,43649,2,0,B|16:144,1,65,4|0
80,64,43982,5,0
160,80,44149,1,0
160,80,44232,1,0
160,80,44315,1,4
160,80,44399,1,0
160,80,44482,1,0
224,32,44649,2,0,B|304:32,1,65
320,96,44982,2,0,B|400:96,1,65,4|0
448,144,45315,5,0
400,224,45482,1,0
400,224,45565,1,0
400,224,45649,1,4
400,224,45732,1,0
400,224,45815,1,0
320,192,45982,2,0,B|272:272,1,65
208,256,46315,2,0,B|192:336,1,65,4|0
96,288,46649,6,0,B|80:208,1,65
48,160,46982,1,4
48,160,47065,1,0
80,80,47232,1,0
80,80,47315,2,0,B|160:64,1,65
192,128,47649,2,0,B|272:112,1,65,4|0
336,80,47982,6,0,B|352:160,1,65
432,176,48315,1,4
432,176,48399,2,0,B|448:224|416:256,1,65
400,256,48649,2,0,B|384:288|416:336,1,65
336,336,48982,2,0,B|256:336,1,65,4|0
192,320,49315,6,0,B|192:224,1,65
112,256,49649,1,4
112,256,49815,1,0
160,192,49982,2,0,B|144:144,1,32.5
48,176,50232,2,0,B|32:128,1,32.5
80,80,50482,1,0
80,80,50649,6,0,B|160:80,1,65
224,64,50982,1,4
224,64,51149,1,0
304,48,51315,2,0,B|352:48,1,32.5
416,80,51565,2,0,B|384:112,1,32.5
320,128,51815,1,0
336,192,51982,6,0,B|432:192,1,65,0|2
448,272,52315,2,0,B|352:272,1,65,0|2
320,320,52649,2,0,B|240:320,1,65,0|2
176,288,52982,2,0,B|96:288,1,65,0|2
64,208,53315,6,0,B|144:208,1,65,0|2
160,128,53649,2,0,B|256:128,1,65,0|2
288,80,53982,2,0,B|368:80,1,65,0|2
416,160,54315,2,0,B|320:160,1,65,0|2
272,224,54649,5,0
272,224,54815,1,8
304,336,55149,1,8
192,304,55482,1,8
80,352,55815,1,8
96,224,56149,1,8
48,96,56482,1,8
176,128,56815,1,8
144,16,57149,1,0
144,16,57315,6,0,B|224:16,1,65
209,16,57649,1,0
209,16,57982,1,0
305,50,58149,1,0
304,144,58315,1,0
208,176,58482,1,0
149,101,58649,1,0
209,16,58815,1,0
305,50,58982,1,0
305,50,59315,1,0
384,0,59482,1,0
384,96,59649,1,0
384,96,59982,5,0
464,144,60149,1,0
384,192,60315,1,0
384,192,60649,1,0
288,176,60815,1,0
246,268,60982,1,0
323,334,61149,1,0
399,284,61315,1,0
384,192,61482,1,0
288,176,61649,1,0
288,176,61982,1,0
208,128,62149,1,0
208,224,62315,1,0
208,224,62649,6,0,B|128:256,2,65
208,48,63315,2,0,B|288:16,1,65
304,96,63649,2,0,B|384:64,1,65
400,144,63982,2,0,B|480:112,2,65
208,288,64649,2,0,B|128:320,1,65
73,342,64982,1,0
64,96,65315,6,0,B|128:112,1,65
127,111,65649,2,0,B|272:148,1,130
320,80,66149,1,0
400,128,66315,1,0
412,223,66482,1,0
341,283,66649,1,0
261,235,66815,1,0
253,145,66982,1,0
144,240,67315,2,0,B|64:240,2,65
112,336,67982,6,0,C|192:336,1,65
256,320,68315,2,0,B|304:256|272:192,1,130
240,112,68815,2,0,B|336:112,2,65
160,96,69315,2,0,B|80:96,1,65
112,16,69649,2,0,B|192:16,1,65
256,32,69982,2,0,B|400:32,1,130
384,192,70649,6,0,B|480:192,2,65
304,160,71149,1,0
224,176,71315,2,0,B|144:176,2,65
160,224,71815,1,0
96,288,71982,2,0,B|32:240|64:144,1,130
96,96,72482,1,0
96,96,72649,2,0,B|144:32|240:64,1,130
352,112,73315,6,0,B|336:192,1,65
384,256,73649,2,0,B|320:304|256:272,1,130
192,240,74149,1,0
112,224,74315,2,0,B|80:288,1,65
32,224,74649,2,0,B|0:160|64:80,1,130
128,80,75149,1,0
128,80,75315,2,0,B|192:112|256:64,1,130
432,176,75982,6,0,B|416:256,1,65
416,320,76315,2,0,B|352:288|272:320,1,130
208,320,76815,1,0
208,320,76982,2,0,B|112:320,1,65
64,320,77315,2,0,B|32:256|80:176,1,130
128,128,77815,1,0
128,128,77982,2,0,B|176:64|256:64,1,130
256,192,78482,12,0,79982
48,64,85588,6,0,B|256:64,1,195
320,64,86254,2,0,B|368:128|320:208,1,130
331,186,86754,1,0
240,208,86921,2,0,B|128:192|48:272,1,195
59,261,87588,1,0
128,320,87754,2,0,B|176:272|256:288,1,130
320,320,88254,6,0,B|384:272|368:176,1,130
352,128,88754,1,0
352,128,88921,2,0,B|320:64|224:64,1,130
160,64,89421,1,0
160,64,89588,2,0,B|80:48|32:112,1,130
32,176,90088,1,0
64,240,90254,2,0,B|32:272,3,32.5
112,256,90588,2,0,B|144:224,3,32.5
128,304,90921,5,0
208,288,91088,1,0
288,320,91254,1,4
368,304,91421,1,0
448,336,91588,2,0,B|512:288|464:208,1,130,0|4
400,176,92088,1,0
304,192,92254,6,0,B|192:176,1,97.5
207,178,92588,1,4
128,192,92754,1,0
48,176,92921,2,0,B|32:96|96:48,1,130,0|4
160,64,93421,1,0
240,48,93587,6,0,B|400:48,1,130,0|4
432,96,94087,1,0
384,160,94254,2,0,B|432:224|368:288,1,130,0|4
320,336,94754,1,0
240,320,94921,6,0,B|176:288|96:320,1,130,0|4
32,288,95421,1,0
80,208,95587,1,0
64,176,95671,1,0
80,144,95754,1,0
96,112,95837,1,0
80,80,95921,1,4
160,32,96087,1,0
240,80,96254,6,0,B|304:128|384:80,1,130,0|4
432,48,96754,1,0
432,128,96921,2,0,B|384:192|432:272,1,130,0|4
464,320,97421,1,0
384,336,97587,2,0,B|320:288|240:336,1,130,0|4
176,304,98087,1,0
96,288,98254,2,0,B|32:240|96:144,1,130,0|4
112,96,98754,1,0
192,64,98921,6,0,B|288:64,1,65
336,80,99254,1,4
320,112,99337,1,0
304,144,99421,2,0,B|368:144,1,32.5
384,144,99587,2,0,B|416:208|352:272,1,130,0|4
304,320,100087,1,0
224,304,100254,6,0,B|160:256|96:288,1,130,0|4
32,256,100754,1,0
80,192,100921,1,0
96,160,101004,1,0
112,128,101087,1,0
128,96,101171,1,0
144,64,101254,1,4
224,48,101421,1,0
304,80,101587,6,0,B|368:112|432:80,1,130,0|12
429,81,102087,1,0
432,176,102254,2,0,B|416:272,1,65
368,304,102587,1,12
336,288,102671,1,0
304,272,102754,1,0
272,256,102837,1,0
240,240,102921,6,0,B|160:224|96:256,1,130,0|12
48,288,103421,1,0
32,208,103587,1,0
32,176,103671,1,0
32,144,103754,1,0
32,112,103837,1,0
32,80,103921,1,4
112,48,104087,1,0
128,128,104254,6,0,B|192:176|272:112,1,130,0|12
320,80,104754,1,0
368,144,104921,1,0
384,176,105004,1,0
400,208,105087,1,0
416,240,105170,1,0
432,272,105253,1,4
352,320,105420,1,0
256,288,105587,6,0,B|192:256|112:288,1,130,0|4
48,288,106087,1,0
48,256,106171,1,0
48,224,106254,1,0
128,176,106421,1,0
128,144,106504,1,0
128,112,106587,1,4
208,64,106754,1,0
208,64,106921,6,0,B|272:112|240:208,1,130,0|4
224,256,107421,1,0
224,256,107587,2,0,B|224:336|320:320,1,130,0|4
336,240,108087,1,0
320,144,108254,2,0,B|448:112,2,130,0|4|0
256,80,109087,1,0
256,80,109171,1,0
256,80,109254,1,4
192,144,109421,1,0
192,144,109587,6,0,B|64:112,2,130,0|4|0
128,208,110421,1,0
192,272,110587,1,4
256,208,110754,1,0
256,208,110921,2,0,B|400:256,2,130,0|4|0
256,208,111754,1,0
256,208,111921,1,4
256,208,112087,1,0
256,208,112254,1,0
256,192,112337,12,0,114587
256,192,114921,5,0
