osu file format v7

[General]
AudioFilename: 05 - K8107.MP3
AudioLeadIn: 0
PreviewTime: 30649
Countdown: 0
SampleSet: Normal
StackLeniency: 0.7
Mode: 0
LetterboxInBreaks: 0

[Editor]
Bookmarks: 27982,30649,41315,51982,57315,67982,78316,79982,90982,101649,112316
DistanceSpacing: 1.60000002384186
BeatDivisor: 2
GridSize: 8

[Metadata]
Title:K8107
Artist:onoken
Creator:tsukamaete
Version:Beginner
Source:o2jam
Tags:ignorethis v2b Dr_dy

[Difficulty]
HPDrainRate:2
CircleSize:4
OverallDifficulty:3
SliderMultiplier:0.4
SliderTickRate:1

[Events]
//Background and Video events
0,0,"K8107.jpg"
//Break Periods
2,27515,29209
2,51848,55875
//Storyboard Layer 0 (Background)
//Storyboard Layer 1 (Fail)
//Storyboard Layer 2 (Pass)
//Storyboard Layer 3 (Foreground)
Sprite,Foreground,Centre,"black.png",320,240 F,0,113586,114920,0,1 M,0,113586,117586,320,240 F,0,117586,118919,1,0
Sprite,Foreground,Centre,"dif\beginner.png",320,240 M,0,113586,114920,456,396 F,0,113586,114920,0,1 M,0,114920,117586,456,396 F,0,114920,117586,1,0.9955022
//Storyboard Sound Samples
//Background Colour Transformations
3,100,163,162,255

[TimingPoints]
1316,333.333333333333,4,1,0,70,1,0
6315,-100,4,1,1,70,0,0
30316,-100,4,1,0,70,0,0
56982,-100,4,1,1,70,0,0
84191,333.333333333333,4,2,0,70,1,0
84857,-100,4,1,0,70,0,0
85588,333.333333333333,4,1,1,70,1,0
90754,-100,4,1,1,70,0,0
96088,-100,4,1,0,70,0,0
112088,-100,4,2,0,70,0,0

[Colours]
Combo1 : 0,255,255
Combo2 : 255,0,0
Combo3 : 255,128,128

[HitObjects]
384,136,6649,6,0,B|336:136|304:104,1,80,0|8
310,109,7982,2,0,B|288:160|240:168,1,80,0|8
128,160,9316,6,0,B|96:192|96:240,1,80,0|8
96,232,10649,2,0,B|96:280,2,40,0|0|8
216,272,11983,6,0,B|264:280|288:320,1,80,0|8
283,311,13316,2,0,B|332:304|370:268,1,80,0|8
432,176,14650,6,0,B|408:144|368:128,1,80,0|8
369,129,15982,2,0,B|328:130,2,40,0|0|8
280,216,17315,6,0,L|264:256|216:256,1,80,0|2
96,256,18648,2,0,L|48:256,2,40,0|0|2
128,200,19649,1,0
160,144,19981,6,0,L|160:104|200:80,1,80,0|2
320,80,21315,2,0,L|368:80,2,40,0|0|2
232,168,22648,6,0,B|232:216|272:256,1,80,0|2
368,304,23981,1,0
368,304,24315,1,0
368,304,24648,1,2
416,264,24982,1,0
432,200,25315,6,0,B|384:192|368:152,1,80,0|2
256,88,26648,1,0
256,88,26981,1,0
256,88,27315,1,2
96,152,30649,6,2,B|96:248,1,80,2|0
96,296,31649,1,8
96,296,31982,2,2,B|192:296,1,80
240,296,32982,1,8
240,296,33315,6,2,B|304:232,1,80
344,192,34315,1,8
344,192,34649,2,2,B|280:128,1,80,2|0
240,88,35649,1,8
176,88,35982,6,0,B|128:88,2,40,2|2|0
176,152,36982,1,8
216,200,37315,6,0,B|176:240,2,40,2|2|0
280,224,38315,1,0
344,224,38649,6,0,B|344:272,2,40,2|2|0
344,160,39649,1,8
344,96,39982,2,0,B|344:48,2,40,2|2|0
344,160,40982,1,8
408,160,41315,6,2,B|416:232|360:280,1,120
312,296,42649,2,0,B|312:344,2,40
248,288,43649,1,0
192,256,43982,6,2,B|112:256|112:168,1,120
104,120,45315,2,0,B|48:120,2,40
128,64,46315,1,0
192,64,46649,6,2,L|248:64|296:112,1,120
336,160,47982,1,0
376,208,48315,2,0,B|376:264,1,40
376,312,48982,1,0
312,312,49315,6,2,L|256:312|208:264,1,120
168,216,50649,2,2,B|136:184,1,40
184,136,51315,2,2,B|216:104,1,40
336,272,57315,6,0,B|240:272,1,80,0|8
128,272,58649,2,0,B|128:320,2,40,0|0|8
128,208,59649,1,0
128,144,59982,6,0,B|216:144,1,80,0|8
336,144,61315,2,0,B|336:96,2,40,0|0|8
336,208,62315,1,0
296,256,62649,5,0
208,312,63315,2,0,B|160:312,1,40,8|0
112,288,63982,1,0
64,248,64315,1,0
112,208,64649,2,0,B|112:152,1,40,8|0
112,104,65315,5,0
232,48,65982,2,0,B|272:88,1,40,8|0
320,56,66649,1,0
376,80,66982,1,0
400,136,67315,2,0,B|400:184,1,40,8|0
352,216,67982,6,0,B|352:264,1,40,2|0
392,304,68649,1,8
264,304,69315,2,0,B|208:304,1,40
160,304,69982,1,0
160,304,70315,1,0
120,256,70649,5,2
120,192,70982,1,0
152,136,71315,1,8
272,112,71982,1,0
336,112,72315,1,0
400,112,72649,2,0,B|400:168,1,40,8|0
400,216,73315,6,0,B|344:216,1,40,2|0
296,216,73982,1,8
192,288,74649,2,0,B|248:288,1,40
296,288,75315,1,8
296,288,75649,1,0
344,248,75982,6,0,B|344:192,1,40,2|0
344,144,76649,1,8
216,144,77315,1,0
152,144,77649,1,0
152,144,77982,1,8
216,144,78315,5,4
56,312,79982,6,0,B|152:312,1,80,0|4
200,312,80982,1,0
200,248,81315,6,0,B|288:248,1,80,0|4
344,248,82315,1,0
344,248,82649,6,0,L|344:200,1,40
344,144,83427,2,0,B|376:144,2,26.6666666666667,4|0|0
344,144,84191,6,0,B|256:144,1,80
200,144,85191,1,0
120,144,85588,6,0,B|184:208,1,80,0|4
224,248,86588,1,0
224,312,86921,6,0,B|288:248,1,80,0|4
328,208,87921,1,0
376,160,88254,6,0,B|424:160,1,40,0|4
456,104,88921,2,0,B|496:104,2,20,0|0|4
400,72,89588,6,0,B|376:72|344:72,1,40,4|4
296,72,90254,2,0,B|272:72|240:72,1,40,4|4
192,72,90921,5,0
192,72,91254,5,4
120,176,91921,1,0
192,280,92588,1,4
264,176,93254,1,0
336,72,93921,1,4
408,176,94587,1,0
336,280,95254,1,4
264,176,95921,1,0
224,224,96254,5,2
184,272,96587,1,2
144,224,96921,2,0,B|112:184,1,40,0|2
80,144,97587,1,2
120,96,97921,1,2
160,48,98254,2,0,B|192:88,1,40,0|2
224,128,98921,6,2,L|248:160,1,40
288,208,99587,2,0,B|312:184|328:168,1,40,0|2
360,136,100254,2,0,B|400:176,1,40,0|2
432,208,100921,2,0,B|416:224|392:248,1,40,2|2
360,280,101587,6,2,B|320:328|240:328,1,120,2|0
192,328,102921,1,2
144,288,103254,1,0
192,248,103587,1,0
144,208,103921,1,2
192,168,104254,6,2,B|248:128|304:128,1,120,2|0
360,160,105587,1,2
312,200,105921,1,0
360,240,106254,1,0
312,280,106587,1,2
360,320,106921,6,2,B|312:264|248:272,1,120,2|0
192,272,108254,2,0,B|192:328,2,40,2|0|0
144,224,109254,1,2
144,160,109587,6,2,B|168:96|248:112,1,120,2|0
304,112,110921,2,2,B|352:112,1,40
408,112,111587,2,2,L|408:168,1,40
408,216,112254,5,0
408,216,114921,5,0
