osu file format v7

[General]
AudioFilename: 05 - K8107.MP3
AudioLeadIn: 0
PreviewTime: 30649
Countdown: 0
SampleSet: Normal
StackLeniency: 0.6
Mode: 0
LetterboxInBreaks: 0

[Editor]
Bookmarks: 27982,30649,41315,51982,57315,67982,78316,79982,90982,101649,112316
DistanceSpacing: 0.800000011920929
BeatDivisor: 4
GridSize: 8

[Metadata]
Title:K8107
Artist:onoken
Creator:tsukamaete
Version:Another
Source:o2jam
Tags:ignorethis v2b Dr_dy

[Difficulty]
HPDrainRate:7
CircleSize:5
OverallDifficulty:8
SliderMultiplier:1.8
SliderTickRate:1

[Events]
//Background and Video events
0,0,"K8107.jpg"
//Break Periods
//Storyboard Layer 0 (Background)
//Storyboard Layer 1 (Fail)
//Storyboard Layer 2 (Pass)
//Storyboard Layer 3 (Foreground)
Sprite,Foreground,Centre,"black.png",320,240 F,0,113586,114920,0,1 M,0,113586,117586,320,240 F,0,117586,118919,1,0
Sprite,Foreground,Centre,"dif\another.png",320,240 M,0,113586,114920,456,396 F,0,113586,114920,0,1 M,0,114920,117586,456,396 F,0,114920,117586,1,0.9955022
//Storyboard Sound Samples
//Background Colour Transformations
3,100,163,162,255

[TimingPoints]
1316,333.333333333333,4,1,0,70,1,0
6482,-200,4,1,1,70,0,0
12815,-100,4,2,0,70,0,0
13149,-100,4,1,1,70,0,0
14149,-100,4,2,0,70,0,0
14482,-200,4,1,1,70,0,0
15482,-100,4,2,0,70,0,0
15815,-100,4,1,1,70,0,0
16816,-100,4,2,0,70,0,0
17315,-100,4,1,1,61,0,0
27815,-100,4,1,1,0,0,0
30482,-100,4,1,0,80,0,0
38565,-100,4,1,0,70,0,0
38815,-100,4,2,0,70,0,0
38899,-100,4,1,0,70,0,0
39149,-100,4,2,0,70,0,0
39232,-100,4,1,0,70,0,0
39482,-100,4,2,0,70,0,0
39565,-100,4,1,0,70,0,0
39815,-100,4,2,0,70,0,0
39899,-100,4,1,0,70,0,0
40149,-100,4,2,0,70,0,0
40232,-100,4,1,0,70,0,0
40482,-100,4,2,0,70,0,0
40565,-100,4,1,0,70,0,0
40815,-100,4,2,0,70,0,0
41149,-100,4,2,0,70,0,0
41232,-100,4,1,0,80,0,0
47232,-200,4,1,0,80,0,0
47649,-100,4,1,0,80,0,0
48649,-200,4,1,0,80,0,0
48982,-100,4,1,0,80,0,0
49482,-100,4,2,0,70,0,0
49565,-100,4,1,0,70,0,0
49815,-100,4,2,0,70,0,0
49899,-100,4,1,0,70,0,0
50149,-100,4,2,0,70,0,0
50232,-100,4,1,0,70,0,0
50482,-100,4,2,0,70,0,0
50565,-100,4,1,0,70,0,0
50815,-100,4,2,0,70,0,0
50899,-100,4,1,0,70,0,0
51149,-100,4,2,0,70,0,0
51232,-100,4,1,0,70,0,0
51482,-100,4,2,0,70,0,0
51815,-100,4,2,0,70,0,0
51982,-100,4,2,0,0,0,0
54982,-100,4,2,0,0,0,0
57149,-200,4,1,1,70,0,0
62482,-200,4,1,1,70,0,0
63232,-100,4,1,1,70,0,0
65232,-200,4,1,1,70,0,0
65649,-100,4,1,1,70,0,0
67815,-100,4,2,0,100,0,0
68315,-100,4,2,0,100,0,0
68399,-100,4,1,0,70,0,0
68899,-100,4,2,0,100,0,0
69315,-100,4,1,0,70,0,0
69565,-100,4,2,0,100,0,0
69732,-100,4,1,0,70,0,0
70232,-100,4,2,0,70,0,0
70482,-100,4,2,0,100,0,0
70982,-100,4,2,0,70,0,0
71065,-100,4,1,0,70,0,0
71565,-100,4,2,0,100,0,0
71982,-100,4,1,0,70,0,0
72232,-100,4,2,0,100,0,0
72482,-100,4,1,0,70,0,0
72899,-100,4,2,0,70,0,0
73149,-100,4,2,0,100,0,0
73649,-100,4,2,0,70,0,0
73732,-100,4,1,0,70,0,0
74232,-100,4,2,0,100,0,0
74649,-100,4,1,0,70,0,0
74899,-100,4,2,0,100,0,0
75149,-100,4,1,0,70,0,0
75649,-100,4,2,0,70,0,0
75815,-100,4,2,0,100,0,0
76315,-100,4,2,0,70,0,0
76399,-100,4,1,0,70,0,0
76899,-100,4,2,0,100,0,0
77315,-100,4,1,0,70,0,0
77565,-100,4,2,0,100,0,0
77732,-100,4,1,0,70,0,0
77899,-100,4,2,0,100,0,0
78315,-50,4,1,1,70,0,0
78482,-100,4,2,0,0,0,0
79982,-100,4,2,0,70,0,0
80315,-100,4,1,1,70,0,0
81232,-100,4,2,0,70,0,0
81649,-100,4,1,1,70,0,0
82566,-200,4,2,0,70,0,0
83482,-100,4,1,0,50,0,0
83732,-100,4,2,0,70,0,0
83899,-100,4,1,0,50,0,0
84066,-100,4,1,0,70,0,0
84191,333.333333333333,4,2,0,70,1,0
84524,-100,4,1,1,50,0,0
85587,333.333333333333,4,1,0,70,1,0
85921,-100,4,1,1,66,0,0
88171,-100,4,1,1,51,0,0
88504,-100,4,1,1,66,0,0
88838,-100,4,1,1,82,0,0
89171,-100,4,1,1,100,0,0
89504,-50,4,1,0,80,0,0
90920,-100,4,1,0,81,0,0
99088,-100,4,2,0,81,0,0
99254,-100,4,1,0,81,0,0
99421,-100,4,2,0,81,0,0
99588,-100,4,1,0,81,0,0
99754,-100,4,2,0,81,0,0
99921,-100,4,1,0,81,0,0
100088,-100,4,2,0,81,0,0
100171,-100,4,1,0,81,0,0
100421,-100,4,2,0,81,0,0
100588,-100,4,1,0,81,0,0
100754,-100,4,2,0,81,0,0
100921,-100,4,1,0,81,0,0
101088,-100,4,2,0,81,0,0
101254,-100,4,1,0,81,0,0
101421,-100,4,2,0,81,0,0
101504,-100,4,1,0,81,0,0
107586,-200,4,1,0,81,0,0
107920,-100,4,1,0,81,0,0
108920,-200,4,1,0,81,0,0
109253,-100,4,1,0,81,0,0
109754,-100,4,2,0,81,0,0
109838,-100,4,1,0,81,0,0
110088,-100,4,2,0,81,0,0
110171,-100,4,1,0,81,0,0
110421,-100,4,2,0,81,0,0
110504,-100,4,1,0,81,0,0
110754,-100,4,2,0,81,0,0
110838,-100,4,1,0,81,0,0
111088,-100,4,2,0,81,0,0
111171,-100,4,1,0,81,0,0
111421,-100,4,2,0,81,0,0
111504,-100,4,1,0,81,0,0
112253,5333.33333333333,4,2,0,59,1,0

[Colours]
Combo1 : 0,255,255
Combo2 : 255,0,0
Combo3 : 255,128,128

[HitObjects]
432,192,6649,2,0,B|496:208|496:320|432:328,1,180,0|8
256,328,7982,1,0
344,328,8315,1,0
432,328,8649,1,8
80,192,9315,2,0,B|16:208|16:320|80:328,1,180,0|8
256,328,10648,1,0
168,328,10981,1,0
80,328,11315,1,8
24,88,11982,6,0,B|216:88,1,180,0|8
480,192,12982,1,0
392,192,13315,1,0
320,136,13649,1,0
232,136,13982,1,8
144,136,14315,1,0
488,296,14649,6,0,B|296:296,1,180,0|8
32,192,15649,1,0
120,192,15982,1,0
192,248,16316,1,0
280,248,16649,1,8
368,248,16982,1,0
448,40,17315,5,0
360,104,17565,1,0
272,40,17815,1,0
208,80,17982,1,2
144,48,18149,1,0
208,80,18315,1,0
208,152,18482,1,0
144,184,18649,5,0
232,248,18899,1,0
320,184,19149,1,0
392,184,19316,1,2
464,184,19482,1,0
392,184,19649,1,0
424,120,19816,1,0
344,120,19982,5,0
256,184,20232,1,0
344,248,20482,1,0
400,288,20649,1,2
456,248,20816,1,0
400,288,20982,1,0
400,360,21149,1,0
344,320,21316,5,0
264,248,21566,1,0
184,320,21816,1,0
112,320,21982,1,2
40,320,22149,1,0
112,320,22316,1,0
64,40,22649,5,0
152,104,22899,1,0
240,40,23149,1,0
304,80,23316,1,2
368,48,23483,1,0
304,80,23649,1,0
304,152,23816,1,0
368,184,23983,5,0
448,256,24233,1,0
368,328,24483,1,0
304,288,24650,1,2
232,288,24816,1,0
160,288,24983,1,0
232,288,25150,1,0
192,224,25316,5,0
256,136,25566,1,0
192,48,25816,1,0
128,88,25983,1,2
56,64,26150,1,0
128,88,26316,1,0
128,160,26483,1,0
128,232,26650,5,0
224,288,26900,1,0
320,232,27150,1,0
368,288,27315,1,2
440,288,27483,1,0
368,288,27650,1,0
256,192,27982,12,0,30315
56,64,30649,6,0,B|160:64,1,90,2|2
104,144,30982,2,0,B|216:144,1,90,8|2
296,96,31315,1,0
324,103,31398,1,0
352,110,31481,1,2
384,120,31565,1,0
352,136,31648,1,10
324,154,31731,1,0
297,172,31815,1,0
456,320,31982,6,2,B|352:320,1,90
408,240,32315,2,0,B|296:240,1,90,8|2
216,288,32648,1,0
188,281,32731,1,0
160,274,32814,1,2
133,266,32898,1,0
160,248,32981,1,10
188,230,33064,1,0
215,212,33148,1,0
288,168,33315,5,2
288,80,33482,1,2
208,120,33649,1,8
208,32,33815,1,2
128,80,33982,2,0,B|128:168,1,45,0|0
128,160,34149,2,0,B|128:240,1,45,2|0
128,240,34315,1,10
128,240,34399,1,0
128,240,34482,1,0
224,216,34649,5,0
224,304,34816,1,2
304,264,34983,1,8
304,352,35149,1,2
384,304,35316,2,0,B|384:216,1,45,0|0
384,224,35483,2,0,B|384:144,1,45,2|0
384,144,35649,1,10
384,144,35733,1,0
384,144,35816,1,0
328,72,35982,6,2,B|256:16,1,90,2|2
255,16,36315,2,0,B|184:72,1,90,0|2
80,192,36649,2,0,L|136:240|184:184,1,135,2|0
215,192,36982,2,0,L|312:192,1,90,2|0
184,312,37315,6,2,B|256:368,1,90,2|2
256,367,37648,2,0,B|328:312,1,90,0|2
432,192,37982,2,0,L|376:144|328:200,1,135,2|0
297,192,38315,2,0,L|200:192,1,90,2|0
256,72,38649,6,0,L|256:24,2,45
152,252,38982,2,0,L|110:276,2,45
359,252,39315,2,0,L|401:276,2,45
256,72,39649,2,0,L|256:200,1,90
256,352,39982,6,0,L|256:304,1,45
256,72,40232,1,0
256,72,40315,2,0,L|320:40|376:72,1,135
376,88,40649,1,0
376,104,40732,2,0,L|376:144,10,22.5
448,144,41315,5,2
392,200,41482,1,2
392,280,41648,1,8
392,200,41815,1,2
320,240,41982,2,0,B|263:183,1,45,0|0
264,240,42149,2,0,B|207:296,1,45,2|0
208,240,42315,2,0,B|151:183,1,45,10|0
160,240,42482,6,0,L|48:240,1,90,0|2
120,184,42816,1,2
120,104,42982,1,8
120,184,43149,1,2
192,144,43316,2,0,B|248:200,1,45
248,144,43483,2,0,B|304:87,1,45,2|0
304,144,43649,2,0,B|360:200,1,45,10|0
360,144,43816,1,0
464,192,43982,6,2,L|424:216|384:192,1,90
336,312,44315,2,2,L|296:288|256:312,1,90,8|2
160,216,44649,2,0,L|160:280,1,45
120,280,44815,2,0,L|120:224,1,45,2|0
88,216,44982,2,0,L|88:272,1,45,10|0
48,280,45149,2,0,L|48:224,1,45
48,192,45315,6,2,L|88:168|128:192,1,90,0|2
176,72,45648,2,2,L|216:96|256:72,1,90,8|2
312,192,45982,2,0,L|312:128,1,45
352,128,46148,2,0,L|352:184,1,45,2|0
384,192,46315,2,0,L|384:136,1,45,10|0
424,128,46482,2,0,L|424:184,1,45
424,224,46649,6,0,L|456:256|456:320,1,90,2|2
392,352,46982,2,0,L|360:320|360:256,1,90,0|2
288,288,47316,2,0,L|216:288,1,67.5,2|0
184,288,47649,2,0,L|85:288,1,90,2|0
88,160,47982,6,0,L|56:128|56:64,1,90,2|2
120,32,48315,2,0,L|152:64|152:128,1,90,0|2
224,96,48649,2,0,L|296:96,1,67.5,2|0
328,96,48982,2,0,L|427:96,1,90,2|0
400,128,49315,5,0
400,128,49399,1,0
400,128,49482,1,0
296,160,49649,1,0
296,160,49733,1,0
296,160,49816,1,0
192,192,49982,1,0
192,192,50066,1,0
192,192,50149,1,0
88,224,50315,6,0,L|88:344|136:312,1,135
136,320,50649,2,0,L|184:320,1,45
248,272,50899,1,0
280,280,50982,2,0,L|376:280,1,90
392,296,51232,1,0
392,296,51315,2,0,L|416:296,12,22.5
392,296,51982,5,0
256,192,54982,12,0,56982
48,352,57315,6,0,B|48:256,1,90,0|8
112,192,57815,1,0
176,128,57982,1,2
240,192,58149,1,0
176,256,58315,1,8
456,64,58649,1,2
456,152,58815,1,0
456,240,58982,1,8
56,320,59315,1,2
56,232,59481,1,0
56,144,59648,1,8
456,64,59982,6,0,B|360:64,1,90,0|8
296,128,60482,1,0
232,192,60649,1,2
296,256,60816,1,0
360,192,60982,1,8
488,320,61315,1,2
424,256,61482,1,0
360,320,61649,1,8
24,64,61982,1,2
88,128,62149,1,0
152,64,62316,1,8
96,288,62649,6,0,B|208:288,1,90,0|8
256,344,63149,1,0
186,288,63315,2,0,B|186:177,1,90,2|0
256,144,63649,1,8
96,56,63982,2,0,B|96:168,1,90,2|0
176,104,64315,1,8
416,328,64649,2,0,B|416:216,1,90,2|0
336,280,64982,1,8
296,56,65315,6,0,L|392:56,1,90,0|8
464,104,65816,1,0
384,152,65982,2,0,L|272:152,1,90,2|0
224,208,66316,1,8
88,320,66649,2,0,L|88:216,1,90,2|0
88,230,66982,1,8
424,64,67316,2,0,L|424:168,1,90,2|0
424,154,67649,1,8
256,88,67982,6,0,L|192:88|152:136|96:136,1,180,4|8
96,224,68482,1,0
96,312,68649,2,0,L|96:222,1,90
176,264,68982,2,0,L|368:264,1,180,8|0
416,192,69482,1,0
416,104,69649,1,8
336,144,69816,1,0
264,96,69982,2,0,L|144:96,1,90
96,144,70316,1,8
472,304,70649,6,0,L|432:352|272:352,1,180,4|8
240,304,71149,1,0
312,248,71316,2,0,L|312:152,1,90
424,72,71649,2,0,L|424:125|472:165|472:229,1,180,8|0
392,192,72149,1,0
312,152,72316,2,0,L|216:152,1,90,8|0
38,152,72649,2,0,L|128:152,1,90
176,80,72982,1,8
392,192,73316,6,0,L|392:252|432:280|432:376,1,180,4|8
254,328,73816,2,0,L|344:328,1,90
160,328,74149,1,0
88,272,74316,2,0,L|88:56,1,180,8|0
160,40,74816,1,0
298,112,74982,2,0,L|208:112,1,90,8|0
208,200,75316,2,0,L|298:200,2,90,0|0|8
456,64,75982,6,0,L|456:184|408:240,1,180,4|8
344,288,76482,1,0
280,352,76649,2,0,L|168:352,1,90
232,272,76982,2,0,L|232:80,1,180,8|0
160,40,77482,1,0
80,88,77649,1,8
80,176,77816,1,0
160,216,77982,1,2
240,176,78149,1,0
240,88,78316,6,0,L|440:88,1,180,4|0
96,136,79982,6,0,L|96:104,7,22.5
96,136,80316,2,0,L|96:256,1,90,2|0
176,352,80649,1,4
176,264,80816,1,0
176,176,80982,1,4
176,88,81149,1,0
416,88,81316,6,0,L|448:88,7,22.5
416,88,81650,2,0,L|296:88,1,90,2|0
472,176,81983,1,4
368,176,82149,1,0
256,176,82316,1,4
152,176,82482,1,0
88,264,82649,6,0,L|56:264,3,22.5
88,264,82982,2,0,L|152:264,1,56.25,2|0
128,344,83399,1,0
184,344,83607,1,0
240,344,83816,1,0
296,344,84024,1,0
376,232,84191,6,0,L|376:272,7,22.5
376,232,84524,2,0,L|376:120,1,90,2|0
456,280,84857,1,4
456,192,85024,1,0
456,104,85191,1,4
96,136,85587,6,0,L|96:104,7,22.5
96,136,85921,2,0,L|96:256,1,90,2|0
176,352,86254,1,4
176,264,86421,1,0
176,176,86587,1,4
176,88,86754,1,0
416,48,86920,6,0,L|448:48,7,22.5
416,48,87253,2,0,L|296:48,1,90,2|0
472,136,87588,1,4
368,136,87754,1,0
256,136,87921,1,4
152,136,88087,1,0
96,344,88253,6,0,L|64:344,7,22.5
96,344,88586,2,0,L|216:344,1,90,2|0
40,256,88921,1,4
144,256,89087,1,0
256,256,89254,1,4
360,256,89420,1,0
256,320,89587,6,0,L|288:352,6,45
216,336,89920,2,0,B|104:320|112:176,1,180
256,64,90253,2,0,L|224:32,6,45
296,48,90586,2,0,B|408:64|400:208,1,180
456,320,90920,6,0,B|352:320,1,90,2|2
408,240,91253,2,0,B|296:240,1,90,8|2
216,288,91586,1,0
188,281,91669,1,0
160,274,91752,1,2
128,264,91836,1,0
160,248,91919,1,10
188,230,92002,1,0
215,212,92086,1,0
56,64,92253,6,2,B|160:64,1,90
104,144,92586,2,0,B|216:144,1,90,8|2
296,96,92919,1,0
324,103,93002,1,0
352,110,93085,1,2
379,118,93169,1,0
352,136,93252,1,10
324,154,93335,1,0
297,172,93419,1,0
224,216,93586,5,2
224,304,93753,1,2
304,264,93920,1,0
304,352,94086,1,2
384,304,94253,2,0,B|384:216,1,45,0|0
384,224,94420,1,2
384,224,94503,1,0
384,224,94586,1,2
384,224,94670,2,0,B|384:144,1,45
288,168,94920,5,0
288,80,95087,1,2
208,120,95254,1,0
208,32,95420,1,2
128,80,95586,2,0,B|128:168,1,45,0|0
128,160,95753,1,2
128,160,95836,1,0
128,160,95919,1,2
128,160,96003,2,0,B|128:240,1,45
144,336,96253,6,2,L|256:336,1,90,2|2
368,336,96586,2,0,L|368:224,1,90,0|2
376,152,96920,2,0,B|312:96|248:160,1,135,2|0
256,192,97253,2,0,B|256:296,1,90,2|0
368,48,97586,6,2,L|256:48,1,90
144,48,97919,2,0,L|144:160,1,90,0|2
136,232,98253,2,0,B|200:288|264:224,1,135,2|0
256,192,98586,2,0,B|256:88,1,90,2|0
144,48,98920,5,0
144,48,99003,2,0,L|88:88,1,45
108,164,99253,1,0
108,164,99336,2,0,L|144:190,1,45
224,144,99586,1,0
224,144,99669,2,0,L|280:184,1,45
260,260,99919,1,0
260,260,100002,2,0,L|223:286,1,45
360,341,100253,6,0,L|360:296,1,45
360,192,100503,1,0
360,192,100586,2,0,L|296:160|240:192,1,135
224,192,100920,1,0
208,192,101003,2,0,L|168:192,10,22.5
64,240,101586,5,2
120,184,101753,1,2
120,104,101919,1,8
120,184,102086,1,2
192,144,102253,2,0,B|248:200,1,45,0|0
248,144,102420,2,0,B|304:87,1,45,2|0
304,144,102586,2,0,B|360:200,1,45,2|0
358,144,102753,6,0,L|448:144,1,90,0|2
392,200,103087,1,2
392,280,103253,1,8
392,200,103420,1,2
320,240,103587,2,0,B|263:183,1,45
264,240,103754,2,0,B|207:296,1,45,2|0
208,240,103920,2,0,B|151:183,1,45,2|0
152,240,104087,1,0
48,192,104253,6,2,L|88:168|128:192,1,90
176,72,104586,2,2,L|216:96|256:72,1,90,0|2
352,168,104920,2,0,L|352:104,1,45
392,104,105086,2,0,L|392:160,1,45,2|0
424,168,105253,2,0,L|424:112,1,45,2|0
464,104,105420,2,0,L|464:160,1,45
464,192,105586,6,2,L|424:216|384:192,1,90,0|2
336,312,105919,2,2,L|296:288|256:312,1,90,0|2
200,192,106253,2,0,L|200:256,1,45
160,256,106419,2,0,L|160:200,1,45,2|0
128,192,106586,2,0,L|128:248,1,45,2|0
88,256,106753,2,0,L|88:200,1,45
88,160,106920,6,0,L|56:128|56:64,1,90,2|2
120,32,107253,2,0,L|152:64|152:128,1,90,0|2
224,96,107587,2,0,L|296:96,1,67.5,2|0
328,96,107920,2,0,L|427:96,1,90,2|0
424,224,108253,6,0,L|456:256|456:320,1,90,2|2
392,352,108586,2,0,L|360:320|360:256,1,90,0|2
288,288,108920,2,0,L|216:288,1,67.5,2|0
184,288,109253,2,0,L|85:288,1,90,2|0
40,112,109586,6,0,L|128:48,1,90
113,60,109836,1,0
113,60,109920,2,0,L|200:128,1,90
185,116,110253,2,0,L|273:52,1,90
258,64,110503,1,0
258,64,110587,2,0,L|345:132,1,90
472,272,110920,6,0,L|384:336,1,90
399,324,111170,1,0
399,324,111254,2,0,L|311:255,1,90
327,268,111587,2,0,L|239:332,1,90
254,320,111920,1,0
254,320,112003,1,0
254,320,112086,1,0
254,320,112170,1,0
254,320,112253,6,0,L|166:251,1,90,0|2
