osu file format v14

[General]
AudioFilename: Onoken - Izayoi -INST-.mp3
AudioLeadIn: 1000
PreviewTime: 321048
Countdown: 1
SampleSet: Normal
StackLeniency: 0.4
Mode: 0
LetterboxInBreaks: 1
CountdownOffset: 3
WidescreenStoryboard: 1

[Editor]
DistanceSpacing: 2
BeatDivisor: 8
GridSize: 16
TimelineZoom: 4.099998

[Metadata]
Title:Izayoi -INST-
TitleUnicode:十六夜月 -INST-
Artist:onoken
ArtistUnicode:onoken
Creator:cmn_891127
Version:Moonlight
Source:
Tags:BEST axsword 16
BeatmapID:598811
BeatmapSetID:247580

[Difficulty]
HPDrainRate:6.5
CircleSize:4
OverallDifficulty:8
ApproachRate:9
SliderMultiplier:2.3
SliderTickRate:1

[Events]
//Background and Video events
0,0,"BG.jpg",0,0
//Break Periods
2,15015,26415
2,126549,135192
2,213574,222222
//Storyboard Layer 0 (Background)
//Storyboard Layer 1 (Fail)
//Storyboard Layer 2 (Pass)
//Storyboard Layer 3 (Foreground)
//Storyboard Sound Samples

[TimingPoints]
755,746.268656716418,4,2,4,60,1,0
10083,869.565217391304,4,2,4,60,1,0
10517,1132.07547169811,4,2,4,60,1,0
11083,983.606557377049,4,2,4,60,1,0
11574,-100,4,2,1,60,0,0
11943,800,4,2,4,60,1,0
12043,740.740740740741,4,2,1,60,1,0
14265,750,4,2,1,60,1,0
15015,750,4,2,4,60,1,0
27015,-100,4,1,2,40,0,0
38265,-100,4,1,41,40,0,0
38452,-100,4,1,1,40,0,0
38640,-100,4,1,43,40,0,0
39015,-100,4,1,44,40,0,0
39390,-100,4,1,2,40,0,0
40140,-100,4,1,48,40,0,0
40390,-100,4,1,1,40,0,0
40515,-100,4,1,46,40,0,0
40765,-100,4,1,1,40,0,0
40890,-100,4,1,2,40,0,0
41265,-100,4,1,43,40,0,0
41640,-100,4,1,2,40,0,0
42015,-100,4,1,44,40,0,0
42390,-100,4,1,2,40,0,0
42765,-100,4,1,43,40,0,0
43015,-100,4,1,1,40,0,0
43140,-100,4,1,41,40,0,0
43390,-100,4,1,1,40,0,0
43515,-100,4,1,36,40,0,0
43890,-100,4,1,2,40,0,0
44265,-100,4,1,41,40,0,0
44452,-100,4,1,2,40,0,0
44640,-100,4,1,43,40,0,0
44827,-100,4,1,2,40,0,0
45015,-100,4,1,44,40,0,0
45265,-100,4,1,1,40,0,0
45390,-100,4,1,2,40,0,0
46140,-100,4,1,48,40,0,0
46327,-100,4,1,1,40,0,0
46515,-100,4,1,46,40,0,0
46765,-100,4,1,1,40,0,0
47265,-100,4,1,39,40,0,0
47640,-100,4,1,2,40,0,0
48015,-100,4,1,39,40,0,0
48265,-100,4,1,1,40,0,0
48390,-100,4,1,2,40,0,0
49140,-100,4,1,41,40,0,0
49890,-100,4,1,2,40,0,0
50265,-100,4,1,41,40,0,0
50452,-100,4,1,1,40,0,0
50640,-100,4,1,43,40,0,0
50827,-100,4,1,1,40,0,0
51015,-100,4,1,44,40,0,0
51265,-100,4,1,1,40,0,0
51390,-100,4,1,2,40,0,0
52140,-100,4,1,48,40,0,0
52327,-100,4,1,2,40,0,0
52515,-100,4,1,46,40,0,0
52765,-100,4,1,1,40,0,0
52890,-100,4,1,2,40,0,0
53265,-100,4,1,43,40,0,0
53640,-100,4,1,2,40,0,0
54015,-100,4,1,44,40,0,0
54390,-100,4,1,2,40,0,0
54765,-100,4,1,43,40,0,0
55015,-100,4,1,1,40,0,0
55140,-100,4,1,41,40,0,0
55390,-100,4,1,1,40,0,0
55515,-100,4,1,36,40,0,0
55890,-100,4,1,2,40,0,0
56265,-100,4,1,41,40,0,0
56452,-100,4,1,2,40,0,0
56640,-100,4,1,43,40,0,0
56827,-100,4,1,2,40,0,0
57015,-100,4,1,44,40,0,0
57265,-100,4,1,1,40,0,0
57390,-100,4,1,2,40,0,0
58140,-100,4,1,48,40,0,0
58327,-100,4,1,2,40,0,0
58515,-100,4,1,46,40,0,0
58765,-100,4,1,1,40,0,0
58890,-100,4,1,2,40,0,0
59265,-100,4,1,39,40,0,0
59640,-100,4,1,2,40,0,0
60015,-100,4,1,39,40,0,0
60390,-100,4,1,2,40,0,0
61140,-100,4,1,41,40,0,0
61327,-100,4,1,2,40,0,0
61515,-100,4,1,41,40,0,0
61749,-100,4,1,2,40,0,0
62265,-100,4,1,41,40,0,0
62452,-100,4,1,2,40,0,0
62640,-100,4,1,43,40,0,0
62765,-100,4,1,2,40,0,0
62952,-100,4,1,1,40,0,0
63015,-100,4,1,44,40,0,0
63390,-100,4,1,43,40,0,0
63640,-100,4,1,1,40,0,0
63765,-100,4,1,44,40,0,0
64015,-100,4,1,1,40,0,0
64140,-100,4,1,48,40,0,0
64515,-100,4,1,46,40,0,0
65140,-100,4,1,1,40,0,0
65265,-100,4,1,43,40,0,0
65515,-100,4,1,1,40,0,0
65640,-100,4,1,2,40,0,0
65890,-100,4,1,1,40,0,0
66015,-100,4,1,44,40,0,0
66390,-100,4,1,41,40,0,0
66765,-100,4,1,43,40,0,0
67015,-100,4,1,1,40,0,0
67140,-100,4,1,41,40,0,0
67390,-100,4,1,1,40,0,0
67515,-100,4,1,36,40,0,0
67890,-100,4,1,2,40,0,0
68265,-100,4,1,41,40,0,0
68452,-100,4,1,2,40,0,0
68640,-100,4,1,43,40,0,0
68765,-100,4,1,2,40,0,0
68952,-100,4,1,1,40,0,0
69015,-100,4,1,44,40,0,0
69265,-100,4,1,1,40,0,0
69390,-100,4,1,43,40,0,0
69765,-100,4,1,44,40,0,0
69952,-100,4,1,2,40,0,0
70140,-100,4,1,48,40,0,0
70390,-100,4,1,1,40,0,0
70515,-100,4,1,46,40,0,0
70765,-100,4,1,1,40,0,0
70890,-100,4,1,2,40,0,0
71265,-100,4,1,39,40,0,0
71640,-100,4,1,2,40,0,0
72015,-100,4,1,39,40,0,0
72265,-100,4,1,1,40,0,0
72390,-100,4,1,36,40,0,0
72640,-100,4,1,1,40,0,0
72765,-100,4,1,39,40,0,0
73015,-100,4,1,1,40,0,0
73140,-100,4,1,41,40,0,0
73327,-100,4,1,2,40,0,0
73515,-100,4,1,41,40,0,0
73749,-100,4,1,2,40,0,0
74265,-100,4,1,41,40,0,0
74390,-100,4,1,43,45,0,0
74515,-100,4,1,44,50,0,0
74640,-100,4,1,46,55,0,0
74765,-100,4,1,48,60,0,0
74890,-100,4,1,51,65,0,0
75015,-100,4,1,53,70,0,0
75140,-100,4,1,41,60,0,0
75390,-100,4,1,2,60,0,0
75640,-100,4,1,1,60,0,0
75765,-100,4,1,2,60,0,0
76140,-100,4,1,48,60,0,0
76390,-100,4,1,1,60,0,0
76515,-100,4,1,46,60,0,0
76952,-100,4,1,1,60,0,0
77077,-100,4,1,2,60,0,0
77265,-100,4,1,43,60,0,0
77640,-100,4,1,2,60,0,0
78015,-100,4,1,44,60,0,0
78265,-100,4,1,1,60,0,0
78390,-100,4,1,41,55,0,0
78640,-100,4,1,1,55,0,0
78765,-100,4,1,43,50,0,0
79140,-100,4,1,41,45,0,0
79515,-100,4,1,36,40,0,0
79890,-100,4,1,2,40,0,0
80140,-100,4,1,1,40,0,0
80265,-100,4,1,41,40,0,0
80640,-100,4,1,43,40,0,0
81015,-100,4,1,44,40,0,0
81390,-100,4,1,43,40,0,0
81765,-100,4,1,44,40,0,0
82140,-100,4,1,48,40,0,0
82515,-100,4,1,46,40,0,0
83265,-100,4,1,39,40,0,0
84265,-100,4,1,1,40,0,0
84390,845.070422535211,4,1,36,60,1,0
84812,923.076923076923,4,1,39,60,1,0
85273,1153.84615384615,4,1,41,60,1,0
85849,1000,4,1,41,60,1,0
86974,697.674418604651,4,2,3,60,1,0
87322,800,4,2,3,60,1,0
87522,857.142857142857,4,2,3,60,1,0
87736,1052.63157894737,4,2,3,60,1,0
87999,600,4,2,3,60,1,0
88449,-100,4,2,1,50,0,0
88599,-100,4,2,3,50,0,0
97300,510.63829787234,4,2,3,60,1,0
97555,648.648648648649,4,2,3,60,1,0
98041,600,4,2,3,60,1,0
98191,600,4,2,3,60,1,0
99991,600,4,2,3,60,1,0
104191,558.139534883721,4,2,3,60,1,0
104749,600,4,3,1,60,1,0
106149,-100,4,2,1,60,0,0
106249,-100,4,3,1,60,0,0
106449,-100,4,2,1,60,0,0
106549,-100,4,3,1,60,0,0
117249,-100,4,1,1,60,0,0
117349,-100,4,3,1,60,0,0
126349,629.590766002099,4,1,2,60,1,0
135792,-100,4,2,53,40,0,0
136107,-100,4,2,60,40,0,0
136422,600,4,2,60,60,1,0
137022,-100,4,2,53,45,0,0
137322,-100,4,2,60,45,0,0
137622,-100,4,2,58,45,0,0
137922,-100,4,2,56,45,0,0
138222,-100,4,2,55,45,0,0
138522,-100,4,2,51,45,0,0
138822,-100,4,2,53,45,0,0
139122,-100,4,2,56,45,0,0
139422,-100,4,2,55,45,0,0
139722,-100,4,2,51,45,0,0
140022,-100,4,2,48,45,0,0
140322,-100,4,2,4,45,0,0
140622,-100,4,2,53,45,0,0
140922,-100,4,2,60,45,0,0
141422,-100,4,2,1,45,0,0
141522,-100,4,2,4,45,0,0
141822,-100,4,2,53,45,0,0
142122,-100,4,2,60,45,0,0
142422,-100,4,2,58,45,0,0
142622,-100,4,2,1,45,0,0
142722,-100,4,2,56,45,0,0
143022,-100,4,2,55,45,0,0
143322,-100,4,2,51,45,0,0
143622,-100,4,2,53,45,0,0
143922,-100,4,2,56,45,0,0
144122,-100,4,2,1,45,0,0
144222,-100,4,2,55,45,0,0
144522,-100,4,2,51,45,0,0
144822,-100,4,2,53,45,0,0
145722,-100,4,2,60,45,0,0
145872,-100,4,2,4,45,0,0
146022,-100,4,2,60,45,0,0
146322,-100,4,2,4,45,0,0
146622,-100,4,2,53,45,0,0
146822,-100,4,2,1,45,0,0
146922,-100,4,2,60,45,0,0
147122,-100,4,2,1,45,0,0
147222,-100,4,2,58,45,0,0
147522,-100,4,2,56,45,0,0
147622,-100,4,2,58,45,0,0
147722,-100,4,2,56,45,0,0
147822,-100,4,2,55,45,0,0
148122,-100,4,2,51,45,0,0
148422,-100,4,2,53,45,0,0
148622,-100,4,2,1,45,0,0
148722,-100,4,2,56,45,0,0
148922,-100,4,2,1,45,0,0
149022,-100,4,2,55,45,0,0
149322,-100,4,2,51,45,0,0
149622,-100,4,2,48,45,0,0
149922,-100,4,2,4,45,0,0
150122,-100,4,2,1,45,0,0
150222,-100,4,2,53,45,0,0
150522,-100,4,2,60,45,0,0
151022,-100,4,2,1,45,0,0
151122,-100,4,2,4,45,0,0
151322,-100,4,2,1,45,0,0
151422,-100,4,2,53,45,0,0
151722,-100,4,2,60,45,0,0
152022,-100,4,2,58,45,0,0
152322,-100,4,2,56,45,0,0
152422,-100,4,2,58,45,0,0
152522,-100,4,2,56,45,0,0
152622,-100,4,2,55,45,0,0
152822,-100,4,2,1,45,0,0
152922,-100,4,2,51,45,0,0
153122,-100,4,2,1,45,0,0
153222,-100,4,2,53,45,0,0
153522,-100,4,2,56,45,0,0
153822,-100,4,2,55,45,0,0
154022,-100,4,2,1,45,0,0
154122,-100,4,2,51,45,0,0
154422,-100,4,2,53,45,0,0
155022,-100,4,2,53,45,0,0
155322,-100,4,2,55,45,0,0
155472,-100,4,2,4,45,0,0
155622,-100,4,2,56,45,0,0
155822,-100,4,2,1,45,0,0
155922,-100,4,2,53,45,0,0
156122,-100,4,2,1,45,0,0
156222,-100,4,2,55,45,0,0
156522,-100,4,2,53,45,0,0
156822,-100,4,2,60,45,0,0
157122,-100,4,2,4,45,0,0
157422,-100,4,2,53,45,0,0
157622,-100,4,2,1,45,0,0
157722,-100,4,2,55,45,0,0
157922,-100,4,2,1,45,0,0
158022,-100,4,2,56,45,0,0
158222,-100,4,2,1,45,0,0
158322,-100,4,2,53,45,0,0
158522,-100,4,2,1,45,0,0
158622,-100,4,2,55,45,0,0
158922,-100,4,2,53,45,0,0
159222,-100,4,2,48,45,0,0
159522,-100,4,2,4,45,0,0
159822,-100,4,2,53,45,0,0
160022,-100,4,2,1,45,0,0
160122,-100,4,2,55,45,0,0
160422,-100,4,2,56,45,0,0
160722,-100,4,2,55,45,0,0
160922,-100,4,2,1,45,0,0
161022,-100,4,2,56,45,0,0
161322,-100,4,2,60,45,0,0
161622,-100,4,2,58,45,0,0
161922,-100,4,2,4,45,0,0
162222,-100,4,2,51,45,0,0
162422,-100,4,2,1,45,0,0
162522,-100,4,2,4,45,0,0
162722,-100,4,2,1,45,0,0
162822,-100,4,2,51,45,0,0
163122,-100,4,2,48,45,0,0
163422,-100,4,2,51,45,0,0
163722,-100,4,2,53,45,0,0
164322,-100,4,2,4,45,0,0
164622,-100,4,2,53,45,0,0
164922,-100,4,2,55,45,0,0
165122,-100,4,2,1,45,0,0
165222,-100,4,2,56,45,0,0
165422,-100,4,2,1,45,0,0
165522,-100,4,2,53,45,0,0
165822,-100,4,2,55,45,0,0
166122,-100,4,2,53,45,0,0
166422,-100,4,2,60,45,0,0
166722,-100,4,2,4,45,0,0
166922,-100,4,2,1,45,0,0
167022,-100,4,2,53,45,0,0
167222,-100,4,2,1,45,0,0
167322,-100,4,2,55,45,0,0
167622,-100,4,2,56,45,0,0
167922,-100,4,2,53,45,0,0
168222,-100,4,2,63,45,0,0
168522,-100,4,2,58,45,0,0
168722,-100,4,2,1,45,0,0
168822,-100,4,2,60,45,0,0
169122,-100,4,2,4,45,0,0
169422,-100,4,2,53,45,0,0
169722,-100,4,2,55,45,0,0
170022,-100,4,2,56,45,0,0
170222,-100,4,2,1,45,0,0
170322,-100,4,2,55,45,0,0
170522,-100,4,2,1,45,0,0
170622,-100,4,2,53,45,0,0
170922,-100,4,2,4,45,0,0
171222,-100,4,2,51,45,0,0
171522,-100,4,2,4,45,0,0
171722,-100,4,2,1,45,0,0
171822,-100,4,2,48,45,0,0
172122,-100,4,2,4,45,0,0
172422,-100,4,2,53,45,0,0
172722,-100,4,2,48,45,0,0
173022,-100,4,2,51,45,0,0
173322,-100,4,2,53,45,0,0
173922,-100,4,2,4,45,0,0
174222,-100,4,2,53,45,0,0
174522,-100,4,2,60,45,0,0
174822,-100,4,2,60,50,0,0
175122,-100,4,2,48,50,0,0
175322,-100,4,2,1,50,0,0
175422,-100,4,2,53,50,0,0
175722,-100,4,2,60,50,0,0
176022,-100,4,2,58,50,0,0
176222,-100,4,2,1,50,0,0
176322,-100,4,2,56,50,0,0
176422,-100,4,2,58,50,0,0
176522,-100,4,2,56,50,0,0
176622,-100,4,2,55,50,0,0
176822,-100,4,2,1,50,0,0
176922,-100,4,2,51,50,0,0
177222,-100,4,2,53,50,0,0
177522,-100,4,2,56,50,0,0
177722,-100,4,2,1,50,0,0
177822,-100,4,2,55,50,0,0
178122,-100,4,2,51,50,0,0
178422,-100,4,2,48,50,0,0
178722,-100,4,2,4,50,0,0
179022,-100,4,2,53,50,0,0
179322,-100,4,2,60,50,0,0
179522,-100,4,2,1,50,0,0
179622,-100,4,2,60,50,0,0
179822,-100,4,2,1,50,0,0
179922,-100,4,2,48,50,0,0
180122,-100,4,2,1,50,0,0
180222,-100,4,2,53,50,0,0
180522,-100,4,2,60,50,0,0
180822,-100,4,2,58,50,0,0
181022,-100,4,2,1,50,0,0
181122,-100,4,2,56,50,0,0
181222,-100,4,2,58,50,0,0
181322,-100,4,2,56,50,0,0
181422,-100,4,2,55,50,0,0
181622,-100,4,2,1,50,0,0
181722,-100,4,2,51,50,0,0
182022,-100,4,2,53,50,0,0
182322,-100,4,2,56,50,0,0
182622,-100,4,2,55,50,0,0
182922,-100,4,2,51,50,0,0
183222,-100,4,2,53,50,0,0
183522,-100,4,2,4,50,0,0
183822,-100,4,2,53,50,0,0
184122,-100,4,2,60,50,0,0
184272,-100,4,2,4,50,0,0
184422,-100,4,2,60,50,0,0
184722,-100,4,2,48,50,0,0
185022,-100,4,2,53,50,0,0
185222,-100,4,2,1,50,0,0
185322,-100,4,2,60,50,0,0
185522,-100,4,2,1,50,0,0
185622,-100,4,2,58,50,0,0
185922,-100,4,2,56,50,0,0
186022,-100,4,2,58,50,0,0
186122,-100,4,2,56,50,0,0
186222,-100,4,2,55,50,0,0
186522,-100,4,2,51,50,0,0
186822,-100,4,2,53,50,0,0
187122,-100,4,2,55,50,0,0
187222,-100,4,2,56,50,0,0
187322,-100,4,2,58,50,0,0
187422,-100,4,2,55,50,0,0
187622,-100,4,2,1,50,0,0
187722,-100,4,2,51,50,0,0
188022,-100,4,2,48,50,0,0
188322,-100,4,2,4,50,0,0
188622,-100,4,2,53,50,0,0
188922,-100,4,2,60,50,0,0
189122,-100,4,2,1,50,0,0
189222,-100,4,2,60,50,0,0
189522,-100,4,2,48,50,0,0
189822,-100,4,2,53,50,0,0
190022,-100,4,2,1,50,0,0
190122,-100,4,2,60,50,0,0
190422,-100,4,2,58,50,0,0
190722,-100,4,2,56,50,0,0
190822,-100,4,2,58,50,0,0
190922,-100,4,2,56,50,0,0
191022,-100,4,2,55,50,0,0
191222,-100,4,2,1,50,0,0
191322,-100,4,2,51,50,0,0
191622,-100,4,2,53,50,0,0
191922,-100,4,2,55,50,0,0
192022,-100,4,2,56,50,0,0
192122,-100,4,2,55,50,0,0
192222,-100,4,2,53,50,0,0
192522,-100,4,2,51,50,0,0
192822,-100,4,2,53,50,0,0
193122,-100,4,2,4,50,0,0
193422,-100,4,2,53,50,0,0
193722,-100,4,2,55,50,0,0
193872,-100,4,2,4,50,0,0
194022,-100,4,2,56,50,0,0
194222,-100,4,2,56,50,0,0
194422,-100,4,2,53,50,0,0
194622,-100,4,2,55,50,0,0
194922,-100,4,2,53,50,0,0
195222,-100,4,2,60,50,0,0
195522,-100,4,2,1,50,0,0
195822,-100,4,2,53,50,0,0
196022,-100,4,2,1,50,0,0
196122,-100,4,2,55,50,0,0
196422,-100,4,2,56,50,0,0
196622,-100,4,2,58,50,0,0
196822,-100,4,2,56,50,0,0
197022,-100,4,2,55,50,0,0
197222,-100,4,2,1,50,0,0
197322,-100,4,2,53,50,0,0
197622,-100,4,2,48,50,0,0
197922,-100,4,2,1,50,0,0
198222,-100,4,2,53,50,0,0
198422,-100,4,2,1,50,0,0
198522,-100,4,2,55,50,0,0
198822,-100,4,2,56,50,0,0
199122,-100,4,2,55,50,0,0
199322,-100,4,2,1,50,0,0
199422,-100,4,2,56,50,0,0
199822,-100,4,2,60,50,0,0
200022,-100,4,2,58,50,0,0
200322,-100,4,2,1,50,0,0
200622,-100,4,2,51,50,0,0
200922,-100,4,2,1,50,0,0
201222,-100,4,2,51,50,0,0
201422,-100,4,2,1,50,0,0
201522,-100,4,2,48,50,0,0
201822,-100,4,2,51,50,0,0
202222,-100,4,2,53,50,0,0
202622,-100,4,2,1,50,0,0
202722,-100,4,2,4,50,0,0
203022,-100,4,2,53,50,0,0
203322,-100,4,2,55,50,0,0
203622,-100,4,2,56,50,0,0
204022,-100,4,2,53,50,0,0
204222,-100,4,2,55,50,0,0
204422,-100,4,2,1,50,0,0
204522,-100,4,2,53,50,0,0
204722,-100,4,2,1,50,0,0
204822,-100,4,2,60,50,0,0
205122,-100,4,2,1,50,0,0
205272,-100,4,2,4,50,0,0
205422,-100,4,2,53,50,0,0
205622,-100,4,2,1,50,0,0
205722,-100,4,2,55,50,0,0
206022,-100,4,2,56,50,0,0
206172,-100,4,2,4,50,0,0
206222,-100,4,2,58,50,0,0
206272,-100,4,2,1,50,0,0
206322,-100,4,2,4,50,0,0
206372,-100,4,2,1,50,0,0
206422,-100,4,2,60,50,0,0
206472,-100,4,2,4,50,0,0
206522,-100,4,2,1,50,0,0
206622,-100,4,2,63,50,0,0
206772,-100,4,2,4,50,0,0
206922,-100,4,2,58,50,0,0
207072,-100,4,2,4,50,0,0
207222,-100,4,2,60,50,0,0
207522,-100,4,2,1,50,0,0
207822,-100,4,2,53,50,0,0
208122,-100,4,2,55,50,0,0
208322,-100,4,2,1,50,0,0
208422,-100,4,2,56,50,0,0
208722,-100,4,2,55,50,0,0
209022,-100,4,2,53,50,0,0
209222,-100,4,2,55,50,0,0
209422,-100,4,2,53,50,0,0
209622,-100,4,2,51,50,0,0
209922,-100,4,2,4,50,0,0
210222,-100,4,2,48,50,0,0
210522,-100,4,2,1,50,0,0
210822,-100,4,2,53,50,0,0
210872,-100,4,2,1,50,0,0
210972,-100,4,2,4,50,0,0
211022,-100,4,2,1,50,0,0
211122,-100,4,2,48,50,0,0
211172,-100,4,2,1,50,0,0
211272,-100,4,2,4,50,0,0
211322,-100,4,2,1,50,0,0
211422,-100,4,2,51,50,0,0
211822,-100,4,2,53,50,0,0
212322,-100,4,2,4,50,0,0
213222,-100,4,2,4,50,0,0
222822,-100,4,3,1,50,0,0
261222,-100,4,1,2,50,0,0
261372,-100,4,1,1,50,0,0
268722,600,4,2,4,60,1,0
269022,621.11801242236,4,2,4,60,1,0
269332,666.666666666667,4,2,4,60,1,0
269665,684.931506849315,4,2,4,40,1,0
270007,731.707317073171,4,2,4,40,1,0
270372,1071.42857142857,4,2,4,40,1,0
270372,-66.6666666666667,4,2,4,40,0,0
270907,1121.4953271028,4,2,4,40,1,0
272028,1000,4,2,4,40,1,0
272528,845.070422535211,4,2,4,40,1,0
272950,722.89156626506,4,2,4,40,1,0
273311,697.674418604651,4,2,4,40,1,0
273659,631.578947368421,4,2,4,40,1,0
273974,618.556701030928,4,2,4,40,1,0
274283,588.235294117647,4,2,4,40,1,0
274430,652.173913043478,4,2,4,40,1,0
274593,600,4,2,4,40,1,0
274743,652.173913043478,4,2,4,40,1,0
274904,530.973451327434,4,2,4,40,1,0
275036,645.161290322581,4,2,4,40,1,0
275197,631.578947368422,4,2,4,40,1,0
275512,678.733031674208,4,2,4,40,1,0
276190,731.707317073171,4,2,4,40,1,0
276921,731.707317073171,4,2,4,40,1,0
277103,833.333333333333,4,2,4,40,1,0
277311,789.473684210526,4,2,4,40,1,0
277508,952.380952380952,4,2,4,40,1,0
277746,674.157303370787,4,2,4,40,1,0
277914,674.157303370787,4,2,4,40,1,0
278418,645.161290322581,4,2,4,40,1,0
279063,625,4,2,4,40,1,0
280313,594.059405940594,4,2,4,40,1,0
280907,588.235294117647,4,2,4,40,1,0
281201,631.578947368421,4,2,4,40,1,0
281516,588.235294117647,4,2,4,40,1,0
281810,652.173913043478,4,2,4,40,1,0
282136,722.89156626506,4,2,4,40,1,0
282497,797.34219269103,4,2,4,40,1,0
282696,937.5,4,2,4,40,1,0
282930,666.666666666667,4,2,4,40,1,0
283096,722.89156626506,4,2,4,40,1,0
283457,769.230769230769,4,2,4,40,1,0
283649,666.666666666667,4,2,4,40,1,0
284315,606.060606060606,4,2,4,40,1,0
284921,576.923076923077,4,2,4,40,1,0
285353,722.89156626506,4,2,4,40,1,0
285533,500,4,2,4,40,1,0
285658,600,4,2,4,40,1,0
285958,631.578947368421,4,2,4,40,1,0
286115,588.235294117647,4,2,4,40,1,0
286409,566.037735849057,4,2,4,40,1,0
286550,689.655172413793,4,2,4,40,1,0
286722,652.173913043478,4,2,4,40,1,0
287048,666.666666666667,4,2,4,40,1,0
287214,789.473684210526,4,2,4,40,1,0
287411,750,4,2,4,40,1,0
287598,800,4,2,4,40,1,0
287798,800,4,2,4,40,1,0
287998,983.606557377049,4,2,4,40,1,0
288243,674.157303370787,4,2,4,40,1,0
289085,659.34065934066,4,2,4,40,1,0
289579,625,4,2,4,40,1,0
290047,645.161290322581,4,2,4,40,1,0
290208,631.578947368421,4,2,4,40,1,0
290681,674.157303370787,4,2,4,40,1,0
290849,582.52427184466,4,2,4,40,1,0
291140,594.059405940594,4,2,4,40,1,0
291437,594.059405940594,4,2,4,40,1,0
291734,631.578947368421,4,2,4,40,1,0
291891,659.340659340659,4,2,4,40,1,0
292055,638.297872340426,4,2,4,40,1,0
292374,697.674418604651,4,2,4,40,1,0
292722,789.473684210526,4,2,4,40,1,0
292919,666.666666666667,4,2,4,40,1,0
293085,833.333333333333,4,2,4,40,1,0
293293,983.606557377049,4,2,36,40,1,0
293538,645.161290322581,4,1,39,75,1,0
293538,-133.333333333333,4,1,39,75,0,0
293860,-133.333333333333,4,2,41,75,0,0
294183,611.620795107034,4,1,36,75,1,0
294183,-133.333333333333,4,1,36,75,0,0
294488,-133.333333333333,4,2,43,75,0,0
294794,612.244897959184,4,1,41,75,1,0
294794,-133.333333333333,4,1,41,75,0,0
295100,582.52427184466,4,1,1,75,1,0
295391,612.244897959184,4,1,2,75,1,0
295391,-133.333333333333,4,1,2,75,0,0
295646,-133.333333333333,4,2,1,75,0,0
295697,625,4,2,44,75,1,0
295697,-133.333333333333,4,2,44,75,0,0
296009,-133.333333333333,4,1,43,75,0,0
296322,582.52427184466,4,2,41,75,1,0
296322,-133.333333333333,4,2,41,75,0,0
296613,612.244897959184,4,1,39,75,1,0
296613,-133.333333333333,4,1,39,75,0,0
296919,600,4,2,36,75,1,0
296919,-133.333333333333,4,2,36,75,0,0
297219,618.556701030928,4,1,41,75,1,0
297219,-133.333333333333,4,1,41,75,0,0
297528,600,4,2,1,75,1,0
297528,-133.333333333333,4,2,1,75,0,0
297828,618.556701030928,4,1,36,75,1,0
297828,-133.333333333333,4,1,36,75,0,0
298137,681.818181818182,4,2,39,75,1,0
298137,-133.333333333333,4,2,39,75,0,0
298477,582.52427184466,4,1,41,75,1,0
298622,598.503740648379,4,1,2,50,1,0
299519,606.060606060606,4,1,2,50,1,0
299822,652.173913043478,4,1,2,50,1,0
299985,560.747663551402,4,1,2,50,1,0
300125,631.578947368421,4,1,2,50,1,0
300284,631.578947368421,4,1,41,75,1,0
300441,-100,4,1,2,75,0,0
300599,731.707317073171,4,1,43,75,1,0
300599,-90.9090909090909,4,1,43,75,0,0
300781,833.333333333333,4,2,1,75,1,0
300989,638.297872340426,4,1,44,75,1,0
301148,-100,4,1,2,50,0,0
302266,625,4,1,2,50,1,0
303203,-100,4,1,39,75,0,0
303516,571.428571428571,4,1,41,75,1,0
303516,-133.333333333333,4,1,41,75,0,0
303801,-133.333333333333,4,2,48,75,0,0
304087,612.244897959184,4,1,39,75,1,0
304087,-133.333333333333,4,1,39,75,0,0
304393,600,4,2,41,75,1,0
304393,-133.333333333333,4,2,41,75,0,0
304593,-133.333333333333,4,2,1,75,0,0
304693,600,4,1,41,75,1,0
304693,-133.333333333333,4,1,41,75,0,0
304993,-133.333333333333,4,2,1,75,0,0
305293,-133.333333333333,4,1,2,75,0,0
305593,638.297872340426,4,2,58,75,1,0
305593,-133.333333333333,4,2,48,75,0,0
305805,-133.333333333333,4,2,1,75,0,0
305912,582.52427184466,4,1,46,75,1,0
305912,-133.333333333333,4,1,46,75,0,0
306154,-133.333333333333,4,2,1,75,0,0
306203,588.235294117647,4,2,43,75,1,0
306203,-133.333333333333,4,2,43,75,0,0
306497,-133.333333333333,4,1,41,75,0,0
306791,612.244897959184,4,2,43,75,1,0
306791,-133.333333333333,4,2,43,75,0,0
307097,600,4,1,39,75,1,0
307097,-133.333333333333,4,1,39,75,0,0
307397,600,4,2,39,75,1,0
307397,-133.333333333333,4,2,39,75,0,0
307597,-133.333333333333,4,2,1,75,0,0
307697,600,4,1,41,75,1,0
307697,-133.333333333333,4,1,41,75,0,0
307897,-133.333333333333,4,2,1,75,0,0
307997,638.297872340426,4,2,43,75,1,0
307997,-100,4,2,43,75,0,0
308156,-133.333333333333,4,2,43,20,0,0
308316,500,4,1,44,75,1,0
308441,631.578947368421,4,1,2,50,1,0
308598,603.015075376884,4,1,2,50,1,0
309653,638.297872340426,4,1,2,50,1,0
309812,625,4,1,2,50,1,0
309968,638.297872340426,4,1,2,50,1,0
310127,645.161290322581,4,1,43,75,1,0
310127,-133.333333333333,4,1,43,75,0,0
310449,666.666666666667,4,2,44,75,1,0
310615,769.230769230769,4,2,44,20,1,0
310807,500,4,1,46,75,1,0
310932,594.059405940594,4,1,2,60,1,0
311386,588.235294117647,4,1,2,60,1,0
311974,600,4,1,2,60,1,0
312574,612.244897959184,4,1,44,85,1,0
312574,-133.333333333333,4,1,44,85,0,0
312880,-133.333333333333,4,2,46,85,0,0
313034,681.818181818182,4,2,46,30,1,0
313204,545.454545454546,4,1,48,85,1,0
313340,588.235294117647,4,1,2,60,1,0
314222,638.297872340426,4,1,2,60,1,0
314860,666.666666666667,4,1,2,60,1,0
315026,638.297872340426,4,1,47,90,1,0
315185,697.674418604651,4,2,1,90,1,0
315359,-100,4,2,48,90,0,0
315533,937.5,4,2,48,35,1,0
315767,727.272727272727,4,2,50,90,1,0
315767,-200,4,2,50,90,0,0
316494,1200,4,3,1,48,1,0
316794,1071.42857142857,4,3,1,49,1,0
317061,952.380952380952,4,3,1,50,1,0
317299,895.522388059701,4,3,1,51,1,0
317522,779.220779220779,4,3,1,52,1,0
317716,731.707317073171,4,3,1,53,1,0
317898,666.666666666667,4,3,1,53,1,0
318064,645.161290322581,4,3,1,55,1,0
318225,594.059405940594,4,3,1,56,1,0
318225,-94.3396226415094,4,3,1,56,0,0
318373,526.315789473684,4,3,1,57,1,0
318504,535.714285714286,4,3,1,58,1,0
318637,545.454545454546,4,3,1,59,1,0
318773,530.973451327434,4,3,1,60,1,0
318905,-100,4,3,1,61,0,0
319038,-100,4,3,1,62,0,0
319171,504.201680672269,4,3,1,63,1,0
319297,-100,4,3,1,64,0,0
319423,521.739130434783,4,3,1,65,1,0
319553,-100,4,3,1,66,0,0
319683,465.116279069767,4,3,1,67,1,0
319799,545.454545454546,4,3,1,68,1,0
319934,480,4,3,1,69,1,0
320054,-100,4,3,1,70,0,0
320174,-100,4,3,1,71,0,0
320294,-100,4,3,1,72,0,0
320414,-100,4,3,1,73,0,0
320534,-100,4,3,1,74,0,0
320654,600,4,3,1,75,1,0
320804,461.538461538462,4,3,1,68,1,0
320861,600,4,3,1,66,1,0
320936,-100,4,3,1,64,0,0
321011,-100,4,3,1,62,0,0
321086,600,4,3,1,60,1,0
323686,-100,4,1,1,60,0,0
323786,-100,4,3,1,60,0,0
325486,-100,4,1,1,60,0,0
325586,-100,4,3,1,60,0,0
325786,-100,4,1,1,60,0,0
325886,-100,4,3,1,60,0,0
326686,-100,4,1,1,60,0,0
326786,-100,4,3,1,60,0,0
327886,-100,4,1,1,60,0,0
327986,-100,4,3,1,60,0,0
328186,-100,4,1,1,60,0,0
328286,-100,4,3,1,60,0,0
330586,-100,4,1,1,60,0,0
330686,-100,4,3,1,60,0,0
331486,-100,4,1,1,60,0,0
331586,-100,4,3,1,60,0,0
333286,-100,4,1,1,60,0,0
333386,-100,4,3,1,60,0,0
333586,-100,4,1,1,60,0,0
333686,-100,4,3,1,60,0,0
335986,-100,4,1,1,60,0,0
336086,-100,4,3,1,60,0,0
337186,-100,4,1,1,60,0,0
337286,-100,4,3,1,60,0,0
339236,-200,4,3,1,75,0,0
339686,-100,4,3,1,75,0,0
339986,-100,4,3,1,75,0,0
340286,-200,4,3,1,75,0,0
342386,-100,4,3,1,75,0,0
342686,-200,4,3,1,75,0,0
344486,-100,4,3,1,75,0,0
345086,-200,4,3,1,75,0,0
348686,-100,4,3,1,75,0,0
349886,-200,4,3,1,75,0,0
354086,-100,4,3,1,75,0,0
354686,-200,4,3,1,75,0,0
357236,-100,4,3,1,75,0,0
358286,-200,4,3,1,75,0,0
358886,-100,4,3,48,75,0,0
359036,-100,4,3,1,75,0,0
359186,-100,4,3,50,75,0,0
359336,-100,4,3,1,75,0,0
359486,-200,4,2,51,100,0,0
360386,-100,4,2,55,100,0,0
360686,-100,4,2,53,100,0,0
361136,-100,4,2,1,100,0,0
361286,585.365853658537,4,2,50,100,1,0
361286,-200,4,2,50,100,0,0
361871,600,4,3,51,100,1,0
362171,-100,4,3,1,100,0,0
362371,-100,4,2,1,100,0,0
362471,-100,4,3,50,100,0,0
362671,-100,4,1,1,100,0,0
362771,-100,4,3,48,100,0,0
363071,-100,4,3,43,100,0,0
363221,-100,4,3,1,100,0,0
363671,-100,4,3,48,100,0,0
363821,-100,4,3,1,100,0,0
363971,-100,4,3,50,100,0,0
364171,-100,4,1,1,100,0,0
364271,-100,4,3,51,100,0,0
364571,-100,4,3,1,100,0,0
365171,-100,4,3,55,100,0,0
365321,-100,4,3,1,100,0,0
365471,-100,4,3,53,100,0,0
365621,-100,4,3,1,100,0,0
366071,-100,4,3,46,100,0,0
366371,-100,4,3,1,100,0,0
366671,-100,4,3,46,100,0,0
366871,-100,4,1,1,100,0,0
366971,-100,4,3,43,100,0,0
367271,-100,4,3,46,100,0,0
367571,-100,4,3,48,100,0,0
367721,-100,4,3,1,100,0,0
367871,-100,4,3,48,100,0,0
368021,-100,4,3,1,100,0,0
368471,-100,4,3,48,100,0,0
368621,-100,4,3,1,100,0,0
368771,-100,4,3,50,100,0,0
368921,-100,4,3,1,100,0,0
369071,-100,4,3,51,100,0,0
369371,-100,4,3,50,100,0,0
369671,-100,4,3,51,100,0,0
369821,-100,4,3,1,100,0,0
369971,-100,4,3,55,100,0,0
370121,-100,4,3,1,100,0,0
370271,-100,4,3,53,100,0,0
370571,-100,4,3,1,100,0,0
370871,-100,4,3,50,100,0,0
371021,-100,4,3,1,100,0,0
371471,-100,4,3,51,100,0,0
371671,-100,4,1,1,100,0,0
371771,-100,4,3,48,100,0,0
371971,-100,4,1,1,100,0,0
372071,-100,4,3,50,100,0,0
372221,-100,4,3,1,100,0,0
372371,-100,4,3,48,100,0,0
372521,-100,4,3,1,100,0,0
372671,-100,4,3,43,100,0,0
372971,-100,4,3,1,100,0,0
373271,-100,4,3,48,100,0,0
373421,-100,4,3,1,100,0,0
373571,-100,4,3,50,100,0,0
373721,-100,4,3,1,100,0,0
373871,-100,4,3,51,100,0,0
374071,-100,4,1,1,100,0,0
374171,-100,4,3,50,100,0,0
374371,-100,4,1,1,100,0,0
374471,-100,4,3,51,100,0,0
374771,-100,4,3,55,100,0,0
375071,-100,4,3,53,100,0,0
375221,-100,4,3,1,100,0,0
375671,-100,4,3,46,100,0,0
375871,-100,4,1,1,100,0,0
375971,-100,4,3,1,100,0,0
376271,-100,4,3,46,100,0,0
376571,-100,4,3,43,100,0,0
376721,-100,4,3,1,100,0,0
376871,-100,4,3,46,100,0,0
377021,-100,4,3,1,100,0,0
377171,-100,4,3,48,100,0,0
377371,-100,4,1,1,100,0,0
377471,-100,4,3,48,100,0,0
377621,-100,4,3,1,100,0,0
378071,-100,4,3,48,100,0,0
378371,-100,4,3,50,100,0,0
378521,-100,4,3,1,100,0,0
378671,-100,4,3,51,100,0,0
378871,-100,4,3,48,100,0,0
379071,-100,4,3,50,100,0,0
379271,-100,4,3,51,100,0,0
379471,-100,4,3,53,100,0,0
379671,-100,4,3,55,100,0,0
379871,-100,4,3,53,100,0,0
380171,-100,4,3,1,100,0,0
380471,-100,4,3,50,100,0,0
380621,-100,4,3,1,100,0,0
381071,-100,4,3,51,100,0,0
381271,-100,4,1,1,100,0,0
381371,-100,4,3,48,100,0,0
381571,-100,4,1,1,100,0,0
381671,-100,4,3,50,100,0,0
381971,-100,4,3,48,100,0,0
382271,-100,4,3,43,100,0,0
382421,-100,4,3,1,100,0,0
382871,-100,4,3,48,100,0,0
383021,-100,4,3,1,100,0,0
383171,-100,4,3,50,100,0,0
383321,-100,4,3,1,100,0,0
383471,-100,4,3,51,100,0,0
383671,-100,4,3,48,100,0,0
383871,-100,4,3,50,100,0,0
384071,-100,4,3,51,100,0,0
384271,-100,4,3,53,100,0,0
384471,-100,4,3,55,100,0,0
384671,-100,4,3,53,100,0,0
384871,-100,4,1,1,100,0,0
384971,-100,4,3,1,100,0,0
385271,-100,4,3,46,100,0,0
385421,-100,4,3,1,100,0,0
385871,-100,4,3,46,100,0,0
386171,-100,4,3,43,100,0,0
386471,-100,4,3,46,100,0,0
386621,-100,4,3,1,100,0,0
386771,-100,4,3,48,100,0,0
386971,-100,4,1,1,100,0,0
387071,-100,4,3,48,100,0,0
387371,-100,4,3,1,100,0,0
387671,-100,4,3,48,100,0,0
387821,-100,4,3,1,100,0,0
387971,-100,4,3,50,100,0,0
388271,-100,4,3,51,100,0,0
388471,-100,4,3,48,100,0,0
388671,-100,4,3,50,100,0,0
388871,-100,4,3,51,100,0,0
389071,-100,4,3,53,100,0,0
389271,-100,4,3,55,100,0,0
389471,-100,4,3,53,100,0,0
389621,-100,4,3,1,100,0,0
390071,-100,4,3,50,100,0,0
390221,-100,4,3,1,100,0,0
390671,-100,4,3,51,100,0,0
390871,-100,4,3,48,100,0,0
391071,-100,4,3,50,100,0,0
391271,-100,4,3,51,100,0,0
391471,-100,4,3,53,100,0,0
391671,-100,4,3,55,100,0,0
391871,-100,4,3,48,100,0,0
392071,-100,4,1,1,100,0,0
392171,-100,4,3,1,100,0,0
392471,-100,4,3,48,100,0,0
392621,-100,4,3,1,100,0,0
392771,-100,4,3,50,100,0,0
392921,-100,4,3,1,100,0,0
393071,-100,4,3,51,100,0,0
393271,-100,4,3,48,100,0,0
393471,-100,4,3,50,100,0,0
393671,-100,4,3,51,100,0,0
393871,-100,4,3,53,100,0,0
394071,-100,4,3,55,100,0,0
394271,-100,4,3,53,100,0,0
394471,-100,4,1,1,100,0,0
394571,-100,4,3,1,100,0,0
394871,-100,4,3,46,100,0,0
395021,-100,4,3,1,100,0,0
395471,-100,4,3,46,100,0,0
395671,-100,4,3,43,100,0,0
395871,-100,4,3,46,100,0,0
396071,-100,4,3,48,100,0,0
396271,-100,4,3,50,100,0,0
396471,-100,4,3,51,100,0,0
396671,-100,4,3,48,100,0,0
396821,-100,4,3,50,100,0,0
396971,-100,4,3,46,100,0,0
397121,-100,4,3,43,100,0,0
397271,-100,4,3,48,100,0,0
397421,-100,4,3,50,100,0,0
397571,564.971751412429,4,3,46,100,1,0
397641,-100,4,2,48,80,0,0
397712,-100,4,3,43,60,0,0
397782,-100,4,2,46,40,0,0
397853,600,4,3,48,60,1,0
397853,-133.333333333333,4,3,48,60,0,0
398153,-133.333333333333,4,2,2,40,0,0
409853,-133.333333333333,4,2,2,35,0,0
410453,-133.333333333333,4,2,2,30,0,0
411053,-133.333333333333,4,2,2,25,0,0
411653,-133.333333333333,4,2,2,20,0,0
412253,-133.333333333333,4,2,2,15,0,0
413453,-133.333333333333,4,2,2,10,0,0

[Colours]
Combo1 : 170,135,205
Combo2 : 43,24,61
Combo3 : 85,50,120
Combo4 : 128,74,181
SliderBorder : 255,255,255

[HitObjects]
185,181,755,5,8,0:0:0:0:
202,100,1128,1,0,0:0:0:0:
121,125,1501,1,2,0:0:0:0:
342,306,2247,1,8,0:0:0:0:
394,230,2620,1,0,0:0:0:0:
431,316,2993,1,2,0:0:0:0:
279,121,3740,6,0,P|326:100|397:116,1,115,8|0,0:0|0:0,0:0:0:0:
341,181,4486,2,0,P|369:226|349:311,1,115,2|0,0:0|0:0,0:0:0:0:
292,249,5232,1,6,0:0:0:0:
229,85,6352,38,0,P|197:100|168:97,1,57.5
103,182,6725,2,0,P|160:182|209:224,1,115,8|0,0:0|0:0,0:0:0:0:
133,261,7471,1,2,0:0:0:0:
413,229,8217,2,0,P|354:226|310:258,1,115,8|0,0:0|0:0,0:0:0:0:
380,306,8963,1,2,0:0:0:0:
255,87,9710,5,8,0:0:0:0:
270,171,10083,2,0,B|275:203|243:229|261:289,1,115,0|2,0:0|0:0,0:0:0:0:
353,183,11083,2,0,B|358:215|326:241|344:301,1,115
258,280,11943,2,0,L|247:258,2,14.375,2|2|4,0:0|0:0|0:0,0:0:0:0:
256,192,12104,12,0,14452,0:0:0:0:
215,210,27015,54,0,P|184:206|157:209,1,57.5,4|0,0:0|0:0,0:0:0:0:
300,147,27390,2,0,B|347:158|370:130|413:141,2,115,0|8|0,0:0|0:0|0:0,0:0:0:0:
129,377,28515,2,0,P|173:342|185:287,1,115,0|2,0:0|0:0,0:0:0:0:
102,298,29077,2,0,P|50:302|34:294,1,57.5,0|8,0:0|0:0,0:0:0:0:
246,143,29640,2,0,P|282:129|303:131,2,57.5,0|0|0,0:0|0:0|0:0,0:0:0:0:
407,214,30390,2,0,P|351:228|296:214,1,115,0|0,0:0|0:0,0:0:0:0:
105,214,31140,2,0,P|160:228|215:214,1,115,0|0,0:0|0:0,0:0:0:0:
257,146,32265,5,8,0:0:0:0:
300,215,32452,2,0,P|310:264|277:325,1,115
229,257,33015,1,4,0:0:0:0:
186,185,33202,1,0,0:0:0:0:
107,160,33390,2,0,B|82:159|50:197|-2:177,2,115,0|8|0,0:0|0:0|0:0,0:0:0:0:
186,185,34327,1,0,0:0:0:0:
257,146,34515,1,0,0:0:0:0:
270,65,34702,1,0,0:0:0:0:
333,115,34890,2,0,P|335:171|301:216,1,115,2|8,0:0|0:0,0:0:0:0:
122,342,35640,1,0,0:0:0:0:
203,343,35827,38,0,L|238:343,1,28.75
245,349,36015,2,0,B|296:355|308:324|357:330,1,115,0|0,0:0|0:0,0:0:0:0:
267,201,36765,2,0,B|318:207|330:176|379:182,1,115,0|0,0:0|0:0,0:0:0:0:
460,216,37327,1,0,0:0:0:0:
508,142,37515,2,0,P|511:107|499:73,2,71.875
365,64,38171,1,0,0:0:0:0:
374,54,38265,2,0,P|402:36|436:32,1,57.5,8|0,0:0|0:0,0:0:0:0:
283,94,38640,2,0,B|227:103|180:75|155:92,1,115,0|4,0:0|0:0,0:0:0:0:
87,312,39390,6,0,P|121:262|109:202,1,115,0|8,0:0|0:0,0:0:0:0:
62,140,39952,1,0,0:0:0:0:
205,244,40140,2,0,P|247:254|289:239,1,76.6666666666667,0|0,0:0|0:0,0:0:0:0:
349,302,40515,2,0,P|397:290|430:301,1,76.6666666666667,0|0,0:0|0:0,0:0:0:0:
483,234,40890,2,0,P|500:180|480:117,2,115,2|8|0,0:0|0:0|0:0,0:0:0:0:
418,177,41827,1,0,0:0:0:0:
339,162,42015,38,0,B|293:158|270:195|215:180,1,115
179,379,42765,2,0,P|198:339|192:305,1,76.6666666666667,0|0,0:0|0:0,0:0:0:0:
159,232,43140,2,0,P|146:192|154:146,1,76.6666666666667,0|0,0:0|0:0,0:0:0:0:
227,182,43515,2,0,P|248:120|233:63,2,115,0|0|8,0:0|0:0|0:0,0:0:0:0:
326,278,44452,1,0,0:0:0:0:
421,183,44640,1,0,0:0:0:0:
325,91,44827,1,0,0:0:0:0:
227,182,45015,6,0,P|187:201|156:200,1,76.6666666666667,4|0,0:0|0:0,0:0:0:0:
116,120,45390,2,0,P|165:91|222:96,1,115,0|8,0:0|0:0,0:0:0:0:
292,216,45952,1,0,0:0:0:0:
421,183,46140,1,0,0:0:0:0:
325,91,46327,1,0,0:0:0:0:
190,127,46515,2,0,P|152:132|116:120,1,76.6666666666667
170,244,46890,2,0,B|174:277|143:303|165:357,2,115,2|8|0,0:0|0:0|0:0,0:0:0:0:
236,320,47827,1,0,0:0:0:0:
86,249,48015,38,0,P|45:244|12:220,1,76.6666666666667
5,141,48390,2,0,P|62:138|114:94,2,115,0|0|0,0:0|0:0|0:0,0:0:0:0:
389,167,49515,2,0,P|334:162|284:195,2,115,0|0|8,0:0|0:0|0:0,0:0:0:0:
353,241,50452,1,0,0:0:0:0:
481,262,50640,1,0,0:0:0:0:
471,180,50827,1,0,0:0:0:0:
408,299,51015,6,0,P|401:331|414:372,1,76.6666666666667,4|0,0:0|0:0,0:0:0:0:
353,241,51390,2,0,P|366:203|338:128,1,115,0|8,0:0|0:0,0:0:0:0:
228,53,51952,1,0,0:0:0:0:
327,30,52140,1,0,0:0:0:0:
247,152,52327,1,0,0:0:0:0:
266,257,52515,38,0,P|270:327|260:345,1,76.6666666666667
94,242,52890,2,0,P|150:249|190:290,2,115,2|8|0,0:0|0:0|0:0,0:0:0:0:
291,137,54015,2,0,P|325:93|380:80,1,115
311,219,54577,1,0,0:0:0:0:
373,164,54765,2,0,P|410:164|446:183,1,76.6666666666667
391,243,55140,2,0,P|410:275|410:315,1,76.6666666666667
328,301,55515,2,0,B|292:319|247:292|214:298,1,115
117,72,56265,5,8,0:0:0:0:
121,211,56452,1,0,0:0:0:0:
203,99,56640,1,0,0:0:0:0:
63,142,56827,1,0,0:0:0:0:
204,181,57015,2,0,P|242:172|272:147,1,76.6666666666667,4|0,0:0|0:0,0:0:0:0:
327,210,57390,2,0,P|374:209|431:262,1,115,0|8,0:0|0:0,0:0:0:0:
383,351,57952,1,0,0:0:0:0:
281,311,58140,1,0,0:0:0:0:
328,210,58327,1,0,0:0:0:0:
338,98,58515,38,0,P|337:62|311:25,1,76.6666666666667
257,86,58890,2,0,P|208:61|145:71,2,115,2|8|0,0:0|0:0|0:0,0:0:0:0:
266,302,60015,2,0,P|302:318|378:312,2,115,0|0|0,0:0|0:0|0:0,0:0:0:0:
430,177,61140,5,0,0:0:0:0:
436,168,61327,1,0,0:0:0:0:
440,159,61515,2,0,P|444:113|432:84,1,71.875
405,253,61983,2,0,P|450:256|471:249,1,57.5
360,131,62265,2,0,L|288:131,1,57.5,8|0,0:0|0:0,0:0:0:0:
272,297,62640,2,0,L|311:297,1,38.3333333333333
327,214,62827,2,0,L|286:214,1,38.3333333333333
205,185,63015,37,4,0:0:0:0:
213,174,63390,2,0,P|226:144|217:91,1,76.6666666666667,0|0,0:0|0:0,0:0:0:0:
72,154,63765,2,0,P|67:112|81:76,1,76.6666666666667,8|0,0:0|0:0,0:0:0:0:
147,126,64140,1,0,0:0:0:0:
147,126,64515,2,0,B|165:215|116:228|97:263|188:284|157:218,1,191.666666666667,0|0,0:0|0:0,0:0:0:0:
230,310,65265,2,0,P|268:289|308:292,1,76.6666666666667,8|0,0:0|0:0,0:0:0:0:
342,217,65640,2,0,P|380:229|418:221,1,76.6666666666667,0|0,0:0|0:0,0:0:0:0:
432,302,66015,6,0,P|469:284|496:213,1,115
224,96,66765,2,0,P|186:95|152:112,1,76.6666666666667,0|0,0:0|0:0,0:0:0:0:
281,194,67140,2,0,P|241:177|190:181,1,76.6666666666667,0|0,0:0|0:0,0:0:0:0:
230,366,67515,2,0,P|248:312|230:259,1,115
108,314,68265,2,0,L|166:314,1,57.5
70,234,68640,2,0,L|80:197,1,38.3333333333333
174,168,68827,2,0,L|164:205,1,38.3333333333333
230,259,69015,2,0,P|256:237|305:232,1,76.6666666666667,4|0,0:0|0:0,0:0:0:0:
166,314,69390,38,0,P|150:273|165:204,1,115,0|8,0:0|0:0,0:0:0:0:
246,341,69952,1,0,0:0:0:0:
310,289,70140,2,0,P|314:248|303:215,1,76.6666666666667
387,195,70515,2,0,P|380:155|391:117,1,76.6666666666667
308,90,70890,2,0,P|259:60|189:71,2,115,2|8|0,0:0|0:0|0:0,0:0:0:0:
85,327,72015,6,0,P|129:325|159:301,1,76.6666666666667
96,246,72390,2,0,P|103:208|93:171,1,76.6666666666667
20,209,72765,2,0,P|7:173|-20:148,1,76.6666666666667
8,69,73140,2,0,L|71:65,1,57.5
202,134,73515,2,0,P|165:124|127:128,2,71.875
323,238,74265,37,8,0:0:0:0:
397,205,74390,1,0,0:0:0:0:
391,124,74515,1,0,0:0:0:0:
311,108,74640,1,0,0:0:0:0:
270,178,74765,1,0,0:0:0:0:
323,238,74890,5,0,0:0:0:0:
311,108,75015,1,4,0:0:0:0:
202,134,75140,2,0,P|158:137|124:121,2,76.6666666666667
244,63,75765,2,0,L|244:6,1,57.5,8|0,0:0|0:0,0:0:0:0:
311,108,76140,2,0,P|348:100|385:112,1,76.6666666666667
300,289,76515,38,0,P|347:244|345:178,1,134.166666666667
213,215,77077,2,0,L|271:215,1,57.5,0|8,0:0|0:0,0:0:0:0:
401,362,77640,2,0,L|343:362,1,57.5,0|0,0:0|0:0,0:0:0:0:
346,276,78015,2,0,P|310:286|274:277,1,76.6666666666667
126,326,78390,2,0,P|161:311|199:314,1,76.6666666666667,0|0,0:0|0:0,0:0:0:0:
48,348,78765,2,0,P|52:291|90:249,2,115,0|0|0,0:0|0:0|0:0,0:0:0:0:
72,172,79890,6,0,P|116:172|146:190,1,76.6666666666667
219,221,80265,2,0,P|277:224|325:191,1,115
193,126,81015,2,0,P|240:95|296:98,1,115,0|0,0:0|0:0,0:0:0:0:
253,289,81765,2,0,B|244:243|270:219|261:175,1,115
330,267,82515,2,0,P|286:363|185:333,1,230
282,98,84015,38,0,P|231:112|192:102,1,76.6666666666667
213,196,84390,2,0,P|169:189|107:230,1,115
242,289,85273,2,0,P|195:321|139:316,1,115
147,64,86974,5,0,0:0:0:0:
128,145,87148,2,0,P|128:173|140:199,1,57.5
124,286,87522,2,0,P|162:295|182:318,1,57.5
258,258,87933,5,0,0:0:0:0:
268,261,87999,1,4,0:0:0:0:
280,263,88074,2,0,B|329:271|358:232|433:257,1,143.75
391,329,88599,2,0,P|356:301|379:189,1,153.333333333333,2|0,0:0|0:0,0:0:0:0:
240,42,89499,1,0,0:0:0:0:
251,42,89599,2,0,L|314:42,1,38.3333333333333
366,98,89799,1,2,0:0:0:0:
358,106,90099,2,0,P|318:129|241:123,1,115,0|8,0:0|0:0,0:0:0:0:
69,275,90699,38,0,B|115:280|135:252|181:256,1,115,0|2,0:0|0:0,0:0:0:0:
294,201,91299,1,0,0:0:0:0:
284,201,91399,2,0,L|246:201,1,38.3333333333333
267,286,91599,1,0,0:0:0:0:
278,289,91899,2,0,B|324:294|344:266|390:270,2,115,0|2|0,0:0|0:0|0:0,0:0:0:0:
297,118,92799,6,0,P|245:95|188:96,1,115,8|0,0:0|0:0,0:0:0:0:
384,147,93399,2,0,P|441:147|493:124,1,115,2|0,0:0|0:0,0:0:0:0:
314,211,93999,38,0,P|257:209|205:233,1,115
8,238,94599,2,0,P|60:261|118:262,1,115,2|0,0:0|0:0,0:0:0:0:
376,110,95199,5,8,0:0:0:0:
315,56,95349,2,0,P|254:57|215:95,1,115,0|0,0:0|0:0,0:0:0:0:
167,157,95799,2,0,B|106:188|72:129|-2:156,1,153.333333333333,2|0,0:0|0:0,0:0:0:0:
36,231,96399,37,0,0:0:0:0:
44,244,96499,2,0,P|56:281|43:329,1,76.6666666666667,0|0,0:0|0:0,0:0:0:0:
236,361,96999,2,0,B|203:355|160:380|122:362,1,115,2|8,0:0|0:0,0:0:0:0:
291,298,97555,5,4,0:0:0:0:
304,304,97609,1,0,0:0:0:0:
318,306,97663,2,0,P|386:304|434:248,1,134.166666666667
443,172,98191,1,2,0:0:0:0:
376,114,98341,2,0,P|347:103|313:105,1,57.5
199,170,98641,2,0,P|234:168|269:144,1,57.5
291,298,99091,2,0,B|248:288|215:323|153:304,1,115,0|2,0:0|0:0,0:0:0:0:
136,235,99541,2,0,B|93:225|60:260|-2:241,1,115
16,160,99991,37,8,0:0:0:0:
89,104,100141,2,0,P|137:85|206:97,1,115
387,125,100591,2,0,P|339:144|270:132,2,115,2|0|0,0:0|0:0|0:0,0:0:0:0:
326,62,101341,1,0,0:0:0:0:
347,224,101491,2,0,B|350:265|350:265|326:300|343:353,1,115,0|2,0:0|0:0,0:0:0:0:
417,315,101941,2,0,P|425:347|416:382,1,57.5
99,289,102391,6,0,P|168:241|143:147,1,191.666666666667,8|0,0:0|0:0,0:0:0:0:
93,211,102991,2,0,B|169:202|190:261|265:220,1,172.5,2|0,0:0|0:0,0:0:0:0:
320,167,103591,2,0,P|269:142|214:153,2,115,0|0|2,0:0|0:0|0:0,0:0:0:0:
422,103,104330,1,0,0:0:0:0:
403,187,104470,2,0,L|446:187,1,38.3333333333333
338,83,104656,2,0,L|299:83,1,38.3333333333333
9,257,105049,38,0,P|-3:201|9:145,1,115
148,53,105499,1,0,0:0:0:0:
131,170,105649,1,0,0:0:0:0:
33,32,105799,1,0,0:0:0:0:
80,102,105949,2,0,P|90:138|85:176,1,76.6666666666667
34,322,106249,2,0,P|31:279|52:241,1,76.6666666666667
235,222,106549,1,0,0:0:0:0:
110,303,106699,1,0,0:0:0:0:
97,141,106849,1,0,0:0:0:0:
105,137,107149,38,0,P|159:134|208:179,1,115,6|0,0:0|0:0,0:0:0:0:
76,220,107749,2,0,P|131:259|187:252,1,115,8|0,0:0|0:0,0:0:0:0:
311,230,108349,2,0,P|271:237|240:226,1,57.5
279,155,108649,1,0,0:0:0:0:
462,141,108949,2,0,P|404:115|350:122,1,115,8|0,0:0|0:0,0:0:0:0:
188,346,109549,6,0,P|257:330|291:271,1,115,2|0,0:0|0:0,0:0:0:0:
145,267,110149,2,0,P|196:224|265:224,1,115,8|0,0:0|0:0,0:0:0:0:
348,111,110599,2,0,P|312:126|265:124,1,57.5,0|0,0:0|0:0,0:0:0:0:
145,92,110899,2,0,P|196:88|224:104,1,57.5,0|0,0:0|0:0,0:0:0:0:
419,159,111349,2,0,B|419:193|419:193|389:225|406:287,1,115,8|0,0:0|0:0,0:0:0:0:
481,249,111799,1,0,0:0:0:0:
317,251,111949,38,0,B|285:248|251:277|201:259,1,115,6|0,0:0|0:0,0:0:0:0:
67,127,112549,2,0,P|131:129|175:183,1,115,8|0,0:0|0:0,0:0:0:0:
398,93,113149,2,0,P|373:123|331:130,1,57.5,0|0,0:0|0:0,0:0:0:0:
328,211,113449,2,0,P|280:244|270:313,1,115,0|8,0:0|0:0,0:0:0:0:
49,267,114049,6,0,B|87:262|111:295|162:277,1,115,0|2,0:0|0:0,0:0:0:0:
137,199,114499,1,0,0:0:0:0:
201,146,114649,2,0,P|235:127|273:132,1,57.5,0|0,0:0|0:0,0:0:0:0:
446,200,114949,2,0,B|408:205|384:172|332:189,1,115,8|0,0:0|0:0,0:0:0:0:
355,267,115399,1,0,0:0:0:0:
294,321,115549,2,0,P|260:340|222:335,1,57.5
236,146,115849,2,0,P|255:200|238:254,1,115,0|8,0:0|0:0,0:0:0:0:
173,201,116299,1,0,0:0:0:0:
331,200,116449,38,0,B|375:213|404:186|457:196,1,115,0|6,0:0|0:0,0:0:0:0:
296,126,117049,2,0,P|284:92|290:53,1,76.6666666666667
366,84,117349,2,0,B|322:97|293:70|240:80,1,115,8|0,0:0|0:0,0:0:0:0:
177,46,117799,2,0,P|135:32|112:34,1,57.5
78,128,118099,2,0,P|107:125|131:110,1,57.5,0|0,0:0|0:0,0:0:0:0:
199,271,118549,2,0,P|219:219|194:158,1,115,8|0,0:0|0:0,0:0:0:0:
136,217,118999,1,0,0:0:0:0:
302,217,119149,6,0,B|335:218|371:251|413:232,1,115,2|0,0:0|0:0,0:0:0:0:
386,39,119749,2,0,B|375:80|406:107|391:152,1,115,8|0,0:0|0:0,0:0:0:0:
465,61,120199,1,0,0:0:0:0:
315,128,120349,2,0,P|252:128|228:103,1,57.5,0|0,0:0|0:0,0:0:0:0:
180,23,120649,2,0,P|261:31|289:70,1,115,0|8,0:0|0:0,0:0:0:0:
466,222,121249,2,0,P|410:226|366:193,1,115,0|6,0:0|0:0,0:0:0:0:
218,299,121849,38,0,B|253:307|276:279|334:292,1,115,0|8,0:0|0:0,0:0:0:0:
143,262,122299,2,0,P|129:253|80:244,1,57.5,0|0,0:0|0:0,0:0:0:0:
94,328,122599,1,0,0:0:0:0:
160,179,122749,2,0,P|166:139|115:76,1,115,0|0,0:0|0:0,0:0:0:0:
83,150,123199,1,0,0:0:0:0:
240,106,123349,2,0,P|277:99|343:137,1,115,8|0,0:0|0:0,0:0:0:0:
266,299,123949,6,0,B|251:246|282:227|274:186,1,115,2|0,0:0|0:0,0:0:0:0:
349,270,124399,2,0,P|367:259|418:261,1,57.5,0|8,0:0|0:0,0:0:0:0:
454,355,124699,2,0,P|426:351|401:338,1,57.5
349,270,124999,1,0,0:0:0:0:
398,194,125149,2,0,P|407:146|370:80,1,115
323,152,125599,1,0,0:0:0:0:
252,194,125749,2,0,P|206:208|178:194,1,57.5,8|0,0:0|0:0,0:0:0:0:
61,217,126049,2,0,P|89:214|115:228,1,57.5,0|0,0:0|0:0,0:0:0:0:
176,290,126349,5,4,0:0:0:0:
125,163,135792,22,0,B|159:160|188:189|238:173,1,115,2|2,0:1|0:1,0:0:0:0:
231,78,136422,38,0,P|325:132|309:239,1,230,6|8,0:0|0:0,0:0:0:0:
238,173,137322,1,2,0:1:0:0:
238,173,137622,2,0,P|211:222|230:296,1,115,2|2,0:0|0:1,0:0:0:0:
335,190,138222,2,0,P|343:246|316:296,1,115,8|2,0:0|0:1,0:0:0:0:
144,200,138822,6,0,P|88:209|35:189,1,115,2|2,0:0|0:1,0:0:0:0:
261,221,139422,2,0,P|309:201|382:219,1,115,8|2,0:0|0:1,0:0:0:0:
213,148,140022,2,0,P|193:100|211:27,1,115,2|0,0:0|0:0,0:0:0:0:
194,269,140622,2,0,P|214:317|196:390,1,115,8|2,0:0|0:1,0:0:0:0:
73,219,141222,38,0,P|111:218|144:200,1,76.6666666666667,8|0,0:0|0:0,0:0:0:0:
213,147,141522,2,0,P|265:126|324:137,2,115,0|8|2,0:1|0:0|0:1,0:1:0:0:
385,296,142422,2,0,P|346:298|311:283,1,76.6666666666667,2|0,0:0|0:0,0:0:0:0:
277,208,142722,2,0,P|241:241|237:320,1,115,2|8,0:1|0:0,0:0:0:0:
351,161,143322,6,0,P|360:120|323:52,1,115,2|2,0:1|0:0,0:0:0:0:
204,143,143922,2,0,P|241:141|275:123,1,76.6666666666667,2|0,0:1|0:0,0:0:0:0:
161,226,144222,2,0,B|193:223|218:255|273:236,2,115,8|2|2,0:0|0:1|0:0,0:0:0:0:
323,322,145422,38,0,P|349:290|428:272,1,115,2|2,0:1|0:1,0:0:0:0:
401,356,145872,1,0,0:0:0:0:
318,208,146022,2,0,B|288:208|259:244|208:229,1,115,6|0,0:0|0:0,0:0:0:0:
212,90,146622,6,0,P|251:94|290:77,1,76.6666666666667,8|0,0:0|0:0,0:0:0:0:
128,65,146922,2,0,P|96:56|44:63,1,76.6666666666667,2|0,0:1|0:0,0:0:0:0:
89,139,147222,2,0,B|94:186|66:217|83:265,1,115,2|2,0:0|0:1,0:0:0:0:
140,309,147622,2,0,P|150:333|146:361,1,38.3333333333333
227,298,147822,2,0,P|257:281|338:297,1,115,8|2,0:0|0:1,0:0:0:0:
449,70,148422,38,0,P|419:83|376:80,1,76.6666666666667,2|0,0:0|0:0,0:0:0:0:
252,122,148722,2,0,P|290:124|323:145,1,76.6666666666667,2|0,0:1|0:0,0:0:0:0:
182,167,149022,2,0,B|137:181|93:155|56:167,2,115,8|2|2,0:0|0:1|0:0,0:0:0:0:
309,282,149922,2,0,P|272:273|235:279,1,76.6666666666667
381,243,150222,2,0,P|457:252|499:220,1,115,2|2,0:1|0:1,0:0:0:0:
355,53,150822,6,0,P|318:74|278:69,1,76.6666666666667,8|0,0:0|0:0,0:0:0:0:
388,132,151122,2,0,P|367:156|320:169,1,76.6666666666667
112,150,151422,2,0,B|148:156|179:140|227:148,1,115,8|2,0:0|0:1,0:0:0:0:
73,267,152022,38,0,B|109:275|139:256|187:264,1,115,2|2,0:0|0:1,0:0:0:0:
260,304,152422,2,0,P|286:308|312:303,1,38.3333333333333
373,269,152622,2,0,P|357:240|366:185,1,76.6666666666667,8|0,0:0|0:0,0:0:0:0:
452,148,152922,2,0,P|454:182|429:225,1,76.6666666666667,2|0,0:1|0:0,0:0:0:0:
393,86,153222,6,0,B|374:79|323:105|275:93,1,115,2|2,0:0|0:1,0:0:0:0:
4,218,153822,2,0,P|36:216|82:241,1,76.6666666666667,8|0,0:0|0:0,0:0:0:0:
155,205,154122,2,0,P|192:213|261:177,1,115,2|2,0:1|0:0,0:0:0:0:
438,60,155022,6,0,B|437:102|437:102|414:143|436:187,1,115,4|2,0:0|0:1,0:0:0:0:
508,147,155472,1,0,0:0:0:0:
480,241,155622,2,0,P|440:256|394:247,1,76.6666666666667,2|0,0:0|0:0,0:0:0:0:
347,319,155922,2,0,P|323:306|273:305,1,76.6666666666667,2|0,0:1|0:0,0:0:0:0:
167,337,156222,2,0,P|191:296|173:225,1,115,8|2,0:0|0:1,0:0:0:0:
81,328,156822,2,0,P|67:273|92:223,1,115,2|0,0:0|0:1,0:0:0:0:
406,86,157422,38,0,P|376:106|336:108,1,76.6666666666667,4|0,0:0|0:0,0:0:0:0:
290,185,157722,2,0,P|245:169|201:177,1,76.6666666666667,2|0,0:1|0:0,0:0:0:0:
253,331,158022,2,0,P|246:291|209:261,1,76.6666666666667,2|0,0:0|0:0,0:0:0:0:
87,302,158322,2,0,P|118:323|156:324,1,76.6666666666667,2|0,0:1|0:0,0:0:0:0:
69,204,158622,2,0,P|115:210|179:178,1,115,8|2,0:0|0:1,0:0:0:0:
43,111,159222,2,0,P|93:84|150:89,1,115,2|0,0:0|0:1,0:0:0:0:
393,237,159822,6,0,P|354:236|317:217,1,76.6666666666667,4|0,0:0|0:0,0:0:0:0:
421,61,160122,2,0,P|420:103|374:159,1,115,2|2,0:1|0:0,0:0:0:0:
341,45,160722,2,0,P|317:73|265:83,1,76.6666666666667,2|0,0:1|0:0,0:0:0:0:
84,99,161022,2,0,B|132:100|151:132|222:108,1,115,8|2,0:0|0:1,0:0:0:0:
289,182,161622,2,0,B|241:183|222:215|151:191,1,115,2|0,0:0|0:0,0:0:0:0:
400,242,162222,38,0,P|349:244|319:261,1,76.6666666666667,4|0,0:0|0:0,0:0:0:0:
486,256,162522,2,0,P|477:205|449:178,1,76.6666666666667
404,117,162822,2,0,P|387:79|402:5,2,115,2|2|8,0:0|0:1|0:0,0:0:0:0:
312,255,163722,2,0,P|329:293|314:367,1,115,2|2,0:1|0:0,0:0:0:0:
85,150,164322,1,0,0:0:0:0:
59,230,164472,1,0,0:0:0:0:
139,216,164622,1,4,0:0:0:0:
139,216,164922,6,0,P|192:213|225:227,1,76.6666666666667,2|0,0:1|0:0,0:0:0:0:
367,283,165222,2,0,P|329:282|295:267,1,76.6666666666667,2|0,0:0|0:0,0:0:0:0:
397,144,165522,2,0,P|351:178|295:178,1,115,2|8,0:1|0:0,0:0:0:0:
364,54,166122,2,0,P|308:55|263:89,1,115,2|2,0:1|0:0,0:0:0:0:
52,125,166722,38,0,P|87:126|125:149,1,76.6666666666667
201,120,167022,2,0,P|205:161|190:195,1,76.6666666666667,4|0,0:0|0:0,0:0:0:0:
56,313,167322,2,0,P|44:256|68:201,1,115,2|2,0:1|0:0,0:0:0:0:
148,321,167922,2,0,P|168:268|156:212,1,115,2|8,0:1|0:0,0:0:0:0:
368,265,168522,2,0,P|343:239|332:199,1,76.6666666666667,2|0,0:1|0:0,0:0:0:0:
430,87,168822,2,0,P|439:143|417:195,1,115,2|0,0:0|0:1,0:0:0:0:
348,62,169422,6,0,P|332:123|278:158,1,115,4|2,0:0|0:1,0:0:0:0:
279,11,170022,2,0,P|256:32|211:40,1,76.6666666666667,2|0,0:0|0:0,0:0:0:0:
94,113,170322,2,0,P|130:110|168:123,1,76.6666666666667,2|0,0:1|0:0,0:0:0:0:
72,230,170622,2,0,P|115:207|189:215,2,115,8|0|2,0:0|0:1|0:0,0:0:0:0:
388,341,171522,2,0,P|340:329|305:340,1,76.6666666666667
452,222,171822,2,0,P|402:247|346:241,1,115,4|0,0:0|0:1,0:0:0:0:
367,53,172422,38,0,B|358:98|399:120|384:174,2,115,2|2|8,0:0|0:1|0:0,0:0:0:0:
236,75,173322,2,0,B|227:120|268:142|253:196,1,115,2|2,0:1|0:0,0:0:0:0:
57,166,173922,1,0,0:0:0:0:
104,234,174072,1,0,0:0:0:0:
23,241,174222,1,2,0:1:0:0:
304,325,174522,38,0,B|357:336|380:298|432:307,1,115,2|4,0:1|0:0,0:0:0:0:
266,108,175122,2,0,P|293:137|293:189,1,76.6666666666667,2|0,0:1|0:0,0:0:0:0:
234,280,175422,2,0,P|210:250|223:167,1,115,2|2,0:1|0:1,0:0:0:0:
310,240,176022,2,0,P|328:211|371:190,1,76.6666666666667,2|0,0:0|0:0,0:0:0:0:
454,171,176322,1,2,0:1:0:0:
471,148,176422,1,0,0:0:0:0:
474,119,176522,1,0,0:0:0:0:
464,92,176622,2,0,P|452:60|456:12,1,76.6666666666667,2|0,0:1|0:0,0:0:0:0:
379,126,176922,2,0,P|343:93|337:22,1,115,2|2,0:1|0:1,0:0:0:0:
181,207,177522,6,0,P|206:255|203:286,1,76.6666666666667,2|0,0:1|0:0,0:0:0:0:
12,262,177822,2,0,B|46:262|81:288|124:267,2,115,2|2|2,0:1|0:1|0:0,0:0:0:0:
381,154,178722,2,0,B|352:153|321:184|268:162,1,115,0|2,0:0|0:1,0:0:0:0:
443,209,179322,38,0,P|460:174|452:125,1,76.6666666666667,2|0,0:1|0:0,0:0:0:0:
392,273,179622,2,0,P|377:309|384:347,1,76.6666666666667,8|0,0:0|0:0,0:0:0:0:
324,222,179922,2,0,P|296:256|248:265,1,76.6666666666667,2|0,0:1|0:0,0:0:0:0:
77,229,180222,2,0,B|116:227|156:252|196:231,1,115,2|2,0:1|0:1,0:0:0:0:
376,154,180822,2,0,P|343:139|302:139,1,76.6666666666667,2|0,0:0|0:0,0:0:0:0:
221,169,181122,1,2,0:1:0:0:
195,172,181222,1,0,0:0:0:0:
169,166,181322,1,0,0:0:0:0:
147,150,181422,2,0,P|187:152|225:122,1,76.6666666666667,2|0,0:1|0:0,0:0:0:0:
393,62,181722,6,0,P|337:52|288:79,1,115,2|2,0:1|0:1,0:0:0:0:
407,150,182322,2,0,P|357:176|301:166,2,115,2|2|2,0:1|0:1|0:1,0:0:0:0:
277,252,183222,2,0,P|225:223|163:231,1,115,2|0,0:0|0:0,0:0:0:0:
256,342,183822,2,0,P|200:346|151:318,1,115,2|2,0:1|0:1,0:0:0:0:
172,227,184272,1,0,0:0:0:0:
97,138,184422,38,0,B|97:173|97:173|71:214|87:267,1,115,4|2,0:0|0:1,0:0:0:0:
183,145,185022,2,0,P|221:145|259:112,1,76.6666666666667,2|0,0:1|0:0,0:0:0:0:
403,187,185322,2,0,P|368:171|331:172,1,76.6666666666667,2|0,0:1|0:0,0:0:0:0:
440,82,185622,2,0,P|385:67|331:84,1,115,2|2,0:0|0:1,0:0:0:0:
256,128,186022,1,0,0:0:0:0:
222,157,186122,1,0,0:0:0:0:
188,187,186222,2,0,B|176:236|207:244|193:302,1,115,2|2,0:1|0:1,0:0:0:0:
387,205,186822,6,0,B|354:205|319:235|274:213,1,115,2|2,0:1|0:1,0:0:0:0:
188,186,187222,1,0,0:0:0:0:
154,212,187322,1,0,0:0:0:0:
120,238,187422,2,0,P|137:196|125:151,1,76.6666666666667,2|0,0:1|0:0,0:0:0:0:
114,84,187722,2,0,B|71:91|34:78|0:83,1,115,2|2,0:1|0:0,0:0:0:0:
198,112,188322,2,0,B|241:105|278:118|312:113,1,115,0|2,0:0|0:1,0:0:0:0:
472,237,188922,38,0,P|472:274|452:306,1,76.6666666666667,2|0,0:1|0:0,0:0:0:0:
381,139,189222,2,0,P|368:194|389:247,1,115,8|2,0:0|0:1,0:0:0:0:
290,164,189822,2,0,P|257:168|217:153,1,76.6666666666667,2|0,0:1|0:0,0:0:0:0:
170,225,190122,2,0,P|129:206|61:214,1,115,2|2,0:1|0:0,0:0:0:0:
249,286,190722,1,2,0:1:0:0:
270,249,190822,1,0,0:0:0:0:
267,206,190922,1,0,0:0:0:0:
244,170,191022,2,0,P|212:129|210:90,1,76.6666666666667,2|0,0:1|0:0,0:0:0:0:
329,140,191322,2,0,P|329:101|373:37,1,115,2|2,0:1|0:1,0:0:0:0:
402,202,191922,5,2,0:1:0:0:
427,237,192022,1,0,0:0:0:0:
430,280,192122,1,0,0:0:0:0:
416,320,192222,1,2,0:1:0:0:
221,263,192522,2,0,B|259:252|286:278|335:264,1,115,2|2,0:1|0:0,0:0:0:0:
147,211,193122,2,0,B|108:221|81:195|33:208,1,115,0|4,0:0|0:0,0:0:0:0:
231,173,193722,1,2,0:1:0:0:
241,87,193872,1,0,0:0:0:0:
313,139,194022,1,2,0:1:0:0:
465,214,194222,6,0,P|465:176|445:144,1,76.6666666666667,0|0,0:0|0:0,0:0:0:0:
353,252,194622,2,0,P|335:211|362:138,1,115,8|0,0:0|0:0,0:0:0:0:
337,337,195222,2,0,P|393:334|433:294,1,115,2|0,0:0|0:0,0:0:0:0:
270,287,195822,2,0,P|240:273|194:275,1,76.6666666666667,4|0,0:0|0:0,0:0:0:0:
108,353,196122,2,0,B|145:344|172:362|228:351,1,115,0|2,0:0|0:1,0:0:0:0:
168,193,196622,38,0,P|114:202|88:188,1,76.6666666666667
299,110,197022,2,0,P|317:72|354:46,1,76.6666666666667,8|0,0:0|0:0,0:0:0:0:
388,188,197322,2,0,P|392:139|431:86,1,115,0|2,0:0|0:0,0:0:0:0:
424,261,197922,2,0,P|434:296|428:336,1,76.6666666666667,0|0,0:0|0:0,0:0:0:0:
350,304,198222,2,0,P|336:326|287:348,1,76.6666666666667,4|0,0:0|0:0,0:0:0:0:
311,227,198522,2,0,P|280:241|196:233,1,115,0|2,0:0|0:1,0:0:0:0:
83,135,199122,6,0,P|126:144|162:131,1,76.6666666666667
231,96,199422,2,0,P|268:89|308:100,1,76.6666666666667,8|0,0:0|0:0,0:0:0:0:
487,206,199822,2,0,P|454:219|409:211,1,76.6666666666667,0|2,0:0|0:0,0:0:0:0:
226,220,200322,2,0,P|260:193|332:186,2,115,0|4|0,0:0|0:0|0:0,0:0:0:0:
90,62,201222,38,0,P|111:96|110:131,1,76.6666666666667,2|0,0:1|0:0,0:0:0:0:
24,231,201522,2,0,P|13:175|33:122,1,115,0|8,0:0|0:0,0:0:0:0:
111,253,202022,2,0,P|122:222|164:195,1,76.6666666666667,0|0,0:0|0:0,0:0:0:0:
166,324,202422,2,0,P|196:316|241:330,1,76.6666666666667,2|0,0:0|0:0,0:0:0:0:
303,269,202722,1,0,0:0:0:0:
335,186,202872,1,0,0:0:0:0:
389,252,203022,1,4,0:0:0:0:
389,252,203322,6,0,P|415:213|402:137,1,115,0|2,0:0|0:1,0:0:0:0:
303,269,203822,2,0,P|269:241|256:208,1,76.6666666666667,0|0,0:0|0:0,0:0:0:0:
337,99,204222,2,0,P|299:104|270:128,1,76.6666666666667,8|0,0:0|0:0,0:0:0:0:
111,89,204522,2,0,P|168:95|197:80,1,76.6666666666667,0|0,0:0|0:0,0:0:0:0:
85,173,204822,2,0,P|144:203|193:197,1,115,2|0,0:0|0:0,0:0:0:0:
53,261,205272,37,0,0:0:0:0:
27,344,205422,2,0,P|71:346|107:326,1,76.6666666666667,4|0,0:0|0:0,0:0:0:0:
269,241,205722,2,0,P|212:244|170:281,1,115,0|2,0:0|0:1,0:0:0:0:
248,325,206172,6,0,L|240:353,2,19.1666666666667
303,317,206322,2,0,L|297:335,2,19.1666666666667
357,310,206472,2,0,L|351:328,2,19.1666666666667
411,303,206622,2,0,L|402:365,1,57.5
423,219,206922,2,0,L|432:157,1,57.5
230,191,207222,2,0,B|283:198|291:173|344:180,2,115,2|0|0,0:0|0:0|0:0,0:0:0:0:
115,324,208122,38,0,P|124:299|116:249,1,76.6666666666667
70,172,208422,2,0,P|53:140|71:50,1,115,2|0,0:1|0:0,0:0:0:0:
155,152,209022,2,0,P|155:122|182:79,1,76.6666666666667,8|0,0:0|0:0,0:0:0:0:
230,191,209422,2,0,P|249:173|298:165,1,76.6666666666667,0|2,0:0|0:0,0:0:0:0:
409,325,209922,1,0,0:0:0:0:
456,254,210072,1,0,0:0:0:0:
370,249,210222,1,4,0:0:0:0:
370,249,210522,6,0,P|358:209|370:159,1,76.6666666666667,0|0,0:0|0:0,0:0:0:0:
411,81,210822,2,0,L|390:97,1,19.1666666666667,2|0,0:1|0:0,0:0:0:0:
308,79,210972,2,0,L|304:102,1,19.1666666666667,0|0,0:0|0:0,0:0:0:0:
221,134,211122,2,0,L|230:155,1,19.1666666666667,2|0,0:1|0:0,0:0:0:0:
193,235,211272,2,0,L|217:247,1,19.1666666666667
207,337,211422,2,0,P|243:334|276:312,1,76.6666666666667,8|0,0:0|0:0,0:0:0:0:
120,298,211822,2,0,P|93:280|49:276,1,76.6666666666667,0|2,0:0|0:0,0:0:0:0:
193,235,212322,5,0,0:0:0:0:
193,235,212472,1,0,0:0:0:0:
193,235,212622,2,0,B|229:149|91:114|187:33|260:106|197:140,1,230,0|4,0:0|0:2,0:0:0:0:
353,96,222822,38,0,P|381:123|457:127,1,115,6|0,0:0|0:0,0:0:0:0:
421,49,223272,1,0,0:0:0:0:
381,207,223422,2,0,B|374:244|374:244|391:289|380:328,1,115,8|0,0:0|0:0,0:0:0:0:
243,277,223872,2,0,P|271:278|297:290,1,57.5,0|0,0:0|0:0,0:0:0:0:
163,310,224172,2,0,P|136:316|103:311,1,57.5
353,290,224622,38,0,P|300:271|243:277,1,115,8|0,0:0|0:0,0:0:0:0:
163,310,225072,1,0,0:0:0:0:
135,222,225222,2,0,P|159:172|144:112,1,115,2|0,0:0|0:0,0:0:0:0:
73,291,225672,2,0,P|70:329|77:353,1,57.5,0|8,0:0|0:0,0:0:0:0:
237,360,225972,2,0,P|249:343|253:306,1,57.5,0|0,0:0|0:0,0:0:0:0:
226,214,226272,5,0,0:0:0:0:
318,236,226422,2,0,P|359:244|428:207,2,115,0|0|8,0:0|0:0|0:0,0:0:0:0:
221,123,227172,1,0,0:0:0:0:
358,157,227322,1,0,0:0:0:0:
226,214,227472,1,0,0:0:0:0:
300,86,227622,1,6,0:0:0:0:
300,85,227922,38,0,P|324:71|352:69,1,57.5
221,123,228222,2,0,P|185:134|114:92,1,115,8|0,0:0|0:0,0:0:0:0:
263,11,228672,1,0,0:0:0:0:
184,45,228822,1,0,0:0:0:0:
300,86,228972,1,0,0:0:0:0:
332,170,229122,2,0,B|339:221|314:231|322:285,2,115,0|8|0,0:0|0:0|0:0,0:0:0:0:
388,98,229872,1,0,0:0:0:0:
459,156,230022,6,0,P|471:181|470:221,1,57.5,2|0,0:0|0:0,0:0:0:0:
364,337,230322,2,0,P|357:301|363:273,1,57.5
452,302,230622,1,8,0:0:0:0:
275,372,230772,2,0,P|239:386|211:380,1,57.5
154,258,231072,1,0,0:0:0:0:
229,297,231222,1,0,0:0:0:0:
273,223,231372,1,0,0:0:0:0:
195,182,231522,1,0,0:0:0:0:
185,172,231822,37,8,0:0:0:0:
195,287,231972,1,0,0:0:0:0:
287,217,232122,2,0,P|327:217|355:229,1,57.5
406,144,232422,2,0,B|404:176|437:200|421:255,1,115,6|0,0:0|0:0,0:0:0:0:
397,333,232872,2,0,P|440:335|461:326,1,57.5,0|8,0:0|0:0,0:0:0:0:
348,83,233322,2,0,P|319:74|289:74,1,57.5,0|0,0:0|0:0,0:0:0:0:
182,218,233622,1,0,0:0:0:0:
255,169,233772,2,0,P|280:158|312:159,1,57.5,0|0,0:0|0:0,0:0:0:0:
300,347,234222,2,0,P|320:294|301:242,1,115,8|0,0:0|0:0,0:0:0:0:
176,305,234672,6,0,P|205:303|231:291,1,57.5,0|2,0:0|0:0,0:0:0:0:
502,206,235122,2,0,B|455:217|425:203|388:209,1,115,0|8,0:0|0:0,0:0:0:0:
255,163,235572,2,0,P|283:170|311:164,1,57.5,0|0,0:0|0:0,0:0:0:0:
280,87,235872,1,0,0:0:0:0:
190,215,236022,2,0,P|145:205|114:211,1,57.5,0|0,0:0|0:0,0:0:0:0:
267,253,236322,2,0,P|330:276|385:260,1,115,0|8,0:0|0:0,0:0:0:0:
333,192,236772,1,0,0:0:0:0:
202,306,236922,2,0,B|155:316|142:288|88:295,1,115,0|6,0:0|0:0,0:0:0:0:
268,254,237522,38,0,P|232:228|192:226,1,57.5
333,192,237822,2,0,P|362:198|432:150,1,115,8|0,0:0|0:0,0:0:0:0:
358,117,238272,1,0,0:0:0:0:
278,133,238422,2,0,P|244:139|204:127,1,57.5,0|0,0:0|0:0,0:0:0:0:
87,86,238722,2,0,P|128:83|144:89,1,57.5,0|0,0:0|0:0,0:0:0:0:
48,219,239022,2,0,P|80:183|145:173,2,115,8|0|2,0:0|0:0|0:0,0:0:0:0:
122,252,239772,5,0,0:0:0:0:
104,331,239922,2,0,P|135:335|164:323,1,57.5,0|0,0:0|0:0,0:0:0:0:
350,300,240222,1,8,0:0:0:0:
414,249,240372,2,0,P|384:224|351:223,1,57.5,0|0,0:0|0:0,0:0:0:0:
214,114,240672,1,0,0:0:0:0:
219,31,240822,2,0,P|175:37|162:48,1,57.5,0|0,0:0|0:0,0:0:0:0:
291,78,241122,2,0,B|328:92|363:61|405:73,1,115,0|8,0:0|0:0,0:0:0:0:
384,152,241572,1,0,0:0:0:0:
477,228,241722,2,0,B|440:214|405:245|362:232,1,115,0|6,0:0|0:0,0:0:0:0:
144,320,242322,38,0,P|176:272|160:208,1,115,0|8,0:0|0:0,0:0:0:0:
80,83,242772,1,0,0:0:0:0:
153,124,242922,2,0,B|201:137|238:109|267:114,1,115
407,157,243372,2,0,P|377:154|345:141,1,57.5,0|0,0:0|0:0,0:0:0:0:
397,72,243672,1,0,0:0:0:0:
434,234,243822,2,0,B|439:266|413:291|423:349,1,115,8|0,0:0|0:0,0:0:0:0:
502,321,244272,1,0,0:0:0:0:
340,361,244422,6,0,P|296:361|242:319,1,115,2|0,0:0|0:0,0:0:0:0:
103,292,244872,2,0,P|135:294|165:315,1,57.5,0|8,0:0|0:0,0:0:0:0:
212,238,245172,1,0,0:0:0:0:
270,175,245322,2,0,P|289:131|273:65,2,115
212,238,246072,1,0,0:0:0:0:
198,120,246222,1,8,0:0:0:0:
145,185,246372,1,0,0:0:0:0:
270,175,246522,1,0,0:0:0:0:
375,250,246672,1,0,0:0:0:0:
349,169,246822,38,0,P|346:126|381:62,1,115,6|0,0:0|0:0,0:0:0:0:
432,189,247272,2,0,P|467:172|494:174,1,57.5,0|8,0:0|0:0,0:0:0:0:
375,250,247572,1,0,0:0:0:0:
311,304,247722,2,0,B|261:321|225:296|197:300,1,115
49,333,248172,1,0,0:0:0:0:
112,282,248322,2,0,P|143:240|135:171,1,115,0|8,0:0|0:0,0:0:0:0:
19,181,248772,2,0,P|49:170|73:146,1,57.5,0|0,0:0|0:0,0:0:0:0:
179,174,249072,5,0,0:0:0:0:
199,95,249222,2,0,P|152:95|134:109,1,57.5,2|0,0:0|0:0,0:0:0:0:
311,211,249522,1,0,0:0:0:0:
347,138,249672,2,0,P|309:131|280:136,1,57.5,0|8,0:0|0:0,0:0:0:0:
407,293,249972,1,0,0:0:0:0:
465,234,250122,2,0,P|438:215|406:210,1,57.5,0|0,0:0|0:0,0:0:0:0:
276,328,250422,2,0,P|243:330|219:324,1,57.5,0|0,0:0|0:0,0:0:0:0:
20,304,250722,38,0,B|75:316|102:285|132:290,1,115,0|8,0:0|0:0,0:0:0:0:
210,237,251172,1,0,0:0:0:0:
294,217,251322,1,0,0:0:0:0:
233,153,251472,1,0,0:0:0:0:
210,237,251622,5,6,0:0:0:0:
353,86,251922,2,0,P|386:92|414:85,1,57.5,0|0,0:0|0:0,0:0:0:0:
481,165,252222,2,0,P|441:160|374:197,1,115,8|0,0:0|0:0,0:0:0:0:
419,323,252672,1,0,0:0:0:0:
450,243,252822,1,0,0:0:0:0:
419,323,252972,1,0,0:0:0:0:
450,243,253122,2,0,P|453:197|415:137,1,115,0|8,0:0|0:0,0:0:0:0:
353,86,253572,1,0,0:0:0:0:
276,114,253722,2,0,B|220:131|186:103|162:107,1,115,0|2,0:0|0:0,0:0:0:0:
112,341,254322,37,0,0:0:0:0:
184,301,254472,2,0,P|214:291|247:294,1,57.5,0|8,0:0|0:0,0:0:0:0:
14,118,254922,1,0,0:0:0:0:
85,162,255072,1,0,0:0:0:0:
120,234,255222,2,0,P|132:267|108:347,1,115
46,280,255672,1,0,0:0:0:0:
85,162,255822,1,8,0:0:0:0:
5,203,255972,1,0,0:0:0:0:
120,234,256122,2,0,P|154:233|183:218,1,57.5
256,265,256422,6,0,B|292:260|315:275|382:267,1,115,6|0,0:0|0:0,0:0:0:0:
457,244,256872,1,0,0:0:0:0:
278,179,257022,2,0,B|314:174|337:189|404:181,1,115,8|0,0:0|0:0,0:0:0:0:
194,149,257472,2,0,P|163:152|131:147,1,57.5,0|0,0:0|0:0,0:0:0:0:
195,65,257772,1,0,0:0:0:0:
278,42,257922,1,0,0:0:0:0:
325,107,258072,1,0,0:0:0:0:
278,179,258222,2,0,P|266:213|282:291,1,115,8|0,0:0|0:0,0:0:0:0:
447,326,258672,37,0,0:0:0:0:
408,254,258822,2,0,P|381:274|365:305,1,57.5,2|0,0:0|0:0,0:0:0:0:
278,179,259122,1,0,0:0:0:0:
193,158,259272,2,0,P|191:185|206:229,1,57.5,0|8,0:0|0:0,0:0:0:0:
75,278,259572,1,0,0:0:0:0:
12,329,259722,2,0,P|43:353|62:356,1,57.5
127,216,260022,2,0,P|137:179|130:147,1,57.5,0|0,0:0|0:0,0:0:0:0:
23,55,260322,1,0,0:0:0:0:
98,89,260472,1,0,0:0:0:0:
178,75,260622,2,0,B|227:68|287:135|353:88,1,172.5,8|0,0:0|0:0,0:0:0:0:
256,192,261222,37,4,0:0:0:0:
256,192,261372,12,0,265272,0:0:0:0:
256,192,265422,12,0,268722,0:0:0:0:
196,135,269665,6,0,P|229:115|306:125,1,115,8|0,0:0|0:0,0:0:0:0:
190,245,270372,2,0,P|261:275|337:220,1,172.5,2|0,0:0|0:0,0:0:0:0:
256,192,272028,5,6,0:0:0:0:
244,196,272951,1,0,0:0:0:0:
230,200,273659,1,0,0:0:0:0:
217,205,274283,2,0,L|155:221,1,57.5
88,145,274593,2,0,L|151:130,1,57.5
232,104,274904,5,6,0:0:0:0:
246,109,275512,1,0,0:0:0:0:
260,114,276190,1,0,0:0:0:0:
276,117,276921,2,0,L|330:138,1,57.5
441,94,277311,2,0,L|378:72,1,57.5
394,162,277746,37,0,0:0:0:0:
403,170,277914,2,0,P|428:224|414:277,1,115
344,344,278418,2,0,L|315:277,1,57.5
268,377,278740,2,0,L|245:320,1,57.5
56,243,279063,1,0,0:0:0:0:
71,246,279219,2,0,B|112:252|142:216|188:228,1,115
268,195,279688,2,0,P|298:204|328:203,1,57.5
446,247,280000,2,0,P|418:252|393:266,1,57.5
425,165,280313,6,0,P|452:115|439:48,1,115
371,99,280758,1,0,0:0:0:0:
305,148,280907,2,0,P|293:106|316:39,1,115
371,99,281358,1,0,0:0:0:0:
358,215,281516,2,0,L|349:277,1,57.5
273,231,281810,2,0,L|260:306,1,57.5
140,353,282136,2,0,P|172:304|168:245,1,115
139,176,282696,38,0,P|131:148|136:108,1,57.5,0|6,0:0|0:0,0:0:0:0:
213,142,283096,1,0,0:0:0:0:
288,184,283276,2,0,P|297:157|297:129,1,57.5
213,226,283649,2,0,B|208:271|228:300|215:344,1,115
144,310,284149,1,0,0:0:0:0:
297,266,284315,2,0,P|333:271|366:258,1,57.5
486,209,284618,2,0,P|437:214|423:209,1,57.5
368,149,284921,2,0,B|330:142|308:173|244:152,1,115
186,112,285353,6,0,P|141:105|119:109,1,57.5,0|6,0:0|0:0,0:0:0:0:
151,187,285658,1,0,0:0:0:0:
181,265,285808,2,0,P|142:270|119:264,1,57.5
234,200,286115,2,0,B|266:205|295:170|346:184,1,115
410,235,286550,1,0,0:0:0:0:
422,318,286722,2,0,P|364:306|328:258,1,115
345,183,287214,1,0,0:0:0:0:
398,118,287411,2,0,P|413:77|413:59,1,57.5
267,20,287798,2,0,P|254:45|251:74,1,57.5
331,69,288243,37,0,0:0:0:0:
345,183,288411,1,0,0:0:0:0:
398,118,288580,1,0,0:0:0:0:
282,134,288748,1,0,0:0:0:0:
192,144,288917,2,0,L|131:151,1,57.5
71,312,289249,2,0,L|132:305,1,57.5
22,235,289579,1,0,0:0:0:0:
35,236,289735,2,0,P|83:228|122:177,1,115
243,120,290208,2,0,P|215:127|192:144,1,57.5
311,200,290523,2,0,P|283:194|255:197,1,57.5
337,364,290849,6,0,P|331:314|284:274,1,115
258,351,291288,1,0,0:0:0:0:
206,288,291437,2,0,P|204:251|218:223,1,57.5
182,117,291734,2,0,P|175:145|159:169,1,57.5
265,165,292055,2,0,B|294:160|328:194|377:172,1,115
443,124,292548,1,0,0:0:0:0:
368,92,292722,2,0,P|344:74|324:35,1,57.5
249,29,293085,2,0,P|223:16|186:11,1,57.5
201,90,293538,38,0,P|168:108|118:104,1,86.2500032901765
232,169,294183,2,0,P|205:207|160:224,1,86.2500032901765
319,199,294794,2,0,P|325:241|314:282,1,86.2500032901765
200,330,295391,2,0,P|194:293|170:267,1,71.8750027418138
180,252,295697,6,0,P|166:227|166:168,1,86.2500032901765
98,284,296322,2,0,P|70:265|46:216,1,86.2500032901765
122,361,296919,2,0,P|82:373|30:364,1,86.2500032901765
246,237,297528,2,0,P|298:215|333:222,1,86.2500032901765
284,115,298137,2,0,P|243:125|194:110,1,86.2500032901765
360,73,298622,5,0,0:0:0:0:
443,46,298771,1,0,0:0:0:0:
493,116,298921,1,0,0:0:0:0:
443,186,299070,1,0,0:0:0:0:
360,159,299220,1,0,0:0:0:0:
277,182,299370,5,0,0:0:0:0:
300,265,299519,1,0,0:0:0:0:
383,243,299670,1,0,0:0:0:0:
362,326,299822,1,0,0:0:0:0:
279,351,299985,1,0,0:0:0:0:
212,292,300125,5,0,0:0:0:0:
150,232,300284,1,0,0:0:0:0:
83,169,300441,1,0,0:0:0:0:
15,115,300599,2,0,P|-3:182|37:244,1,134.550000513267
83,169,301148,21,0,0:0:0:0:
92,83,301308,1,0,0:0:0:0:
176,64,301467,1,0,0:0:0:0:
230,139,301627,1,0,0:0:0:0:
253,221,301786,5,0,0:0:0:0:
341,227,301946,1,0,0:0:0:0:
371,146,302106,1,0,0:0:0:0:
304,91,302265,1,0,0:0:0:0:
358,21,302422,5,0,0:0:0:0:
425,76,302578,1,0,0:0:0:0:
371,146,302734,1,0,0:0:0:0:
304,91,302891,1,0,0:0:0:0:
212,86,303047,1,0,0:0:0:0:
130,126,303203,2,0,P|88:145|12:135,1,115
202,179,303801,6,0,P|247:174|288:186,1,86.2500032901765
385,292,304393,2,0,P|357:287|329:288,1,57.500002193451
241,257,304693,2,0,P|211:284|156:292,2,86.2500032901765
426,214,305593,38,0,P|458:209|493:216,1,57.500002193451
365,147,305912,2,0,P|329:147|291:127,1,71.8750027418138
274,120,306203,2,0,P|230:119|185:138,1,86.2500032901765
296,209,306791,2,0,P|254:230|208:227,1,86.2500032901765
365,147,307397,6,0,P|394:134|425:132,1,57.500002193451
416,218,307697,2,0,P|445:216|478:229,1,57.500002193451
432,301,307997,2,0,P|462:309|488:329,2,57.5
348,330,308441,5,0,0:0:0:0:
289,272,308598,1,0,0:0:0:0:
331,199,308748,1,0,0:0:0:0:
416,218,308899,1,0,0:0:0:0:
435,131,309050,1,0,0:0:0:0:
353,112,309201,1,0,0:0:0:0:
270,118,309351,5,0,0:0:0:0:
236,198,309502,1,0,0:0:0:0:
149,189,309653,1,0,0:0:0:0:
130,106,309812,1,0,0:0:0:0:
203,60,309968,1,0,0:0:0:0:
270,118,310127,6,0,P|329:122|363:105,1,86.2500032901765
431,162,310615,2,0,P|464:155|497:159,1,57.5
468,239,310932,21,0,0:0:0:0:
407,300,311080,1,0,0:0:0:0:
329,258,311229,1,0,0:0:0:0:
344,174,311386,1,0,0:0:0:0:
287,107,311533,1,0,0:0:0:0:
201,109,311680,5,0,0:0:0:0:
151,177,311827,1,0,0:0:0:0:
172,262,311974,1,0,0:0:0:0:
252,296,312124,1,0,0:0:0:0:
329,258,312274,1,0,0:0:0:0:
344,174,312424,1,0,0:0:0:0:
371,92,312574,6,0,P|396:76|451:74,1,86.2500032901765
496,150,313033,1,0,0:0:0:0:
486,151,313204,2,0,L|429:159,1,57.5
344,174,313488,21,0,0:0:0:0:
309,258,313634,1,0,0:0:0:0:
367,327,313781,1,0,0:0:0:0:
401,244,313928,1,0,0:0:0:0:
344,174,314075,5,0,0:0:0:0:
278,114,314222,1,0,0:0:0:0:
201,160,314381,1,0,0:0:0:0:
220,247,314541,1,0,0:0:0:0:
309,258,314700,1,0,0:0:0:0:
401,244,314860,1,0,0:0:0:0:
436,167,315026,6,0,P|447:126|442:97,1,57.5
361,123,315359,1,0,0:0:0:0:
348,126,315533,1,0,0:0:0:0:
336,129,315767,6,0,B|287:139|268:110|222:121,1,115
432,172,316794,37,0,0:0:0:0:
447,261,317061,1,0,0:0:0:0:
416,350,317299,1,0,0:0:0:0:
328,372,317522,2,0,P|294:373|265:381,1,57.5
258,296,317898,2,0,P|232:303|203:326,1,57.5
141,259,318225,2,0,P|127:282|124:312,2,57.5
216,208,318637,37,0,0:0:0:0:
268,145,318773,1,0,0:0:0:0:
265,63,318905,1,0,0:0:0:0:
187,33,319038,1,0,0:0:0:0:
135,99,319171,1,0,0:0:0:0:
186,164,319297,1,0,0:0:0:0:
268,145,319423,37,0,0:0:0:0:
348,162,319553,1,0,0:0:0:0:
406,226,319683,1,0,0:0:0:0:
417,311,319799,1,0,0:0:0:0:
331,325,319934,1,0,0:0:0:0:
314,240,320054,5,0,0:0:0:0:
407,287,320174,1,0,0:0:0:0:
323,340,320294,1,0,0:0:0:0:
231,298,320414,1,0,0:0:0:0:
149,282,320534,2,0,P|123:282|91:291,1,57.5
170,197,320804,5,0,0:0:0:0:
188,183,320861,1,0,0:0:0:0:
199,163,320936,1,0,0:0:0:0:
199,140,321011,1,0,0:0:0:0:
192,120,321086,38,0,P|190:172|245:231,2,115,6|0|8,0:0|0:0|0:0,0:0:0:0:
360,127,321836,1,0,0:0:0:0:
322,52,321986,2,0,P|291:80|279:156,1,115,0|0,0:0|0:0,0:0:0:0:
395,200,322436,2,0,P|433:159|442:103,1,115
360,127,322886,5,8,0:0:0:0:
481,235,323036,1,0,0:0:0:0:
335,131,323186,1,0,0:0:0:0:
466,237,323336,1,0,0:0:0:0:
316,134,323486,2,0,L|248:146,1,57.5,2|0,0:0|0:0,0:0:0:0:
78,186,323786,38,0,P|51:136|59:80,1,115,0|8,0:0|0:0,0:0:0:0:
132,119,324236,1,0,0:0:0:0:
208,155,324386,2,0,P|212:99|181:52,1,115
132,119,324836,5,0,0:0:0:0:
2,230,324986,1,0,0:0:0:0:
151,116,325136,1,0,0:0:0:0:
19,229,325286,2,0,P|63:243|85:269,1,76.6666666666667,8|0,0:0|0:0,0:0:0:0:
26,384,325586,2,0,P|12:349|14:311,1,76.6666666666667
154,322,325886,38,0,B|179:319|214:341|274:327,1,115,6|0,0:0|0:0,0:0:0:0:
393,227,326336,1,0,0:0:0:0:
280,215,326486,1,8,0:0:0:0:
382,340,326636,1,0,0:0:0:0:
447,290,326786,1,0,0:0:0:0:
329,279,326936,1,0,0:0:0:0:
393,227,327086,5,0,0:0:0:0:
329,279,327236,1,0,0:0:0:0:
391,198,327386,1,0,0:0:0:0:
329,279,327536,1,0,0:0:0:0:
382,175,327686,2,0,P|369:142|323:109,1,76.6666666666667,8|0,0:0|0:0,0:0:0:0:
189,171,327986,2,0,P|227:169|271:140,1,76.6666666666667
114,61,328286,38,0,P|164:83|237:67,1,115,2|0,0:0|0:0,0:0:0:0:
304,40,328736,1,0,0:0:0:0:
361,267,328886,2,0,P|313:294|247:291,1,115,8|0,0:0|0:0,0:0:0:0:
171,262,329336,1,0,0:0:0:0:
182,182,329486,5,0,0:0:0:0:
158,341,329636,1,0,0:0:0:0:
184,169,329786,1,0,0:0:0:0:
143,330,329936,1,0,0:0:0:0:
187,152,330086,1,8,0:0:0:0:
129,315,330236,1,0,0:0:0:0:
190,139,330386,2,0,L|201:63,1,76.6666666666667,0|0,0:0|0:0,0:0:0:0:
274,115,330686,38,0,P|304:94|388:100,1,115,6|0,0:0|0:0,0:0:0:0:
485,183,331136,1,0,0:0:0:0:
402,197,331286,2,0,P|365:191|335:169,1,76.6666666666667,8|0,0:0|0:0,0:0:0:0:
274,115,331586,1,0,0:0:0:0:
269,274,331736,1,0,0:0:0:0:
402,197,331886,1,0,0:0:0:0:
274,115,332036,1,0,0:0:0:0:
269,274,332186,1,0,0:0:0:0:
402,197,332336,1,0,0:0:0:0:
228,192,332486,2,0,B|200:189|170:217|115:200,1,115,8|0,0:0|0:0,0:0:0:0:
37,151,332936,1,0,0:0:0:0:
102,284,333086,6,0,P|140:282|173:263,1,76.6666666666667,2|0,0:0|0:0,0:0:0:0:
301,183,333386,2,0,P|263:179|227:192,1,76.6666666666667
381,204,333686,2,0,P|437:202|478:163,1,115,8|0,0:0|0:0,0:0:0:0:
404,126,334136,1,0,0:0:0:0:
301,183,334286,1,0,0:0:0:0:
381,204,334436,1,0,0:0:0:0:
322,102,334586,2,0,B|292:95|263:120|202:102,1,115,0|8,0:0|0:0,0:0:0:0:
135,62,335036,1,0,0:0:0:0:
210,200,335186,1,0,0:0:0:0:
78,265,335336,1,0,0:0:0:0:
1,132,335486,37,6,0:0:0:0:
76,176,335636,1,0,0:0:0:0:
156,195,335786,2,0,P|197:198|238:174,1,76.6666666666667
419,191,336086,2,0,P|368:182|310:213,1,115,8|0,0:0|0:0,0:0:0:0:
293,291,336536,1,0,0:0:0:0:
373,268,336686,1,0,0:0:0:0:
419,191,336836,5,0,0:0:0:0:
411,101,336986,2,0,P|409:51|419:26,1,76.6666666666667,0|0,0:0|0:0,0:0:0:0:
322,82,337286,2,0,L|269:126,1,57.5,8|0,0:0|0:0,0:0:0:0:
157,310,337586,2,0,L|207:271,1,57.5,0|0,0:0|0:0,0:0:0:0:
100,189,337886,2,0,P|155:197|209:175,2,115,2|0|8,0:0|0:0|0:0,0:0:0:0:
146,113,338636,37,0,0:0:0:0:
156,277,338786,1,0,0:0:0:0:
148,132,338936,1,0,0:0:0:0:
157,310,339086,1,0,0:0:0:0:
300,218,339236,2,0,L|360:218,1,57.5,0|0,0:0|0:0,0:0:0:0:
292,229,339686,6,0,L|352:229,1,57.5,8|0,0:0|0:0,0:0:0:0:
214,155,339986,2,0,L|154:155,1,57.5
225,149,340286,22,0,B|165:193|94:137|58:147,1,172.5,6|0,0:0|0:0,0:0:0:0:
208,73,341486,2,0,B|245:73|280:91|328:81,1,115,0|8,0:0|0:0,0:0:0:0:
410,47,342236,37,0,0:0:0:0:
363,163,342386,2,0,P|326:165|302:172,1,57.5,0|0,0:0|0:0,0:0:0:0:
124,213,342686,6,0,B|161:213|196:231|244:221,1,115,2|8,0:0|0:0,0:0:0:0:
363,163,343586,2,0,P|326:165|302:172,1,57.5,0|0,0:0|0:0,0:0:0:0:
348,246,344036,37,0,0:0:0:0:
431,216,344186,1,0,0:0:0:0:
363,164,344336,1,0,0:0:0:0:
348,246,344486,2,0,P|337:278|316:300,1,57.5,8|0,0:0|0:0,0:0:0:0:
265,229,344786,2,0,P|237:237|208:234,1,57.5,0|0,0:0|0:0,0:0:0:0:
56,182,345086,6,0,B|129:204|167:153|223:157,1,172.5,6|0,0:0|0:0,0:0:0:0:
425,125,346286,2,0,P|391:137|315:107,1,115,0|8,0:0|0:0,0:0:0:0:
382,54,347036,37,0,0:0:0:0:
426,125,347186,1,0,0:0:0:0:
421,209,347336,1,0,0:0:0:0:
376,282,347486,6,0,B|305:309|257:251|209:259,1,172.5,2|0,0:0|0:0,0:0:0:0:
132,288,348536,37,0,0:0:0:0:
209,259,348686,1,0,0:0:0:0:
261,184,348836,2,0,P|275:148|274:124,1,57.5
193,129,349136,2,0,P|188:91|195:66,1,57.5,0|8,0:0|0:0,0:0:0:0:
272,96,349436,1,0,0:0:0:0:
104,106,349586,1,0,0:0:0:0:
284,100,349736,1,0,0:0:0:0:
94,111,349886,6,0,P|65:133|80:257,1,172.5,6|0,0:0|0:0,0:0:0:0:
205,165,351086,2,0,P|199:227|159:266,1,115,0|8,0:0|0:0,0:0:0:0:
126,189,351836,37,0,0:0:0:0:
205,165,351986,1,0,0:0:0:0:
288,192,352136,1,0,0:0:0:0:
352,255,352286,6,0,P|392:268|458:245,1,115,2|8,0:0|0:0,0:0:0:0:
288,192,353186,2,0,P|257:187|228:192,1,57.5
182,259,353636,37,0,0:0:0:0:
268,281,353786,1,0,0:0:0:0:
288,192,353936,1,0,0:0:0:0:
199,170,354086,2,0,P|174:169|140:171,1,57.5,8|0,0:0|0:0,0:0:0:0:
262,109,354386,2,0,P|288:111|321:108,1,57.5
396,255,354686,6,0,P|424:255|451:267,2,57.5,6|0|8,0:0|0:0|0:0,0:0:0:0:
230,366,355436,37,0,0:0:0:0:
329,300,355586,1,0,0:0:0:0:
245,284,355736,1,0,0:0:0:0:
313,383,355886,6,0,P|354:381|408:333,1,115,0|8,0:0|0:0,0:0:0:0:
329,300,356636,37,0,0:0:0:0:
256,250,356786,1,0,0:0:0:0:
193,312,356936,1,0,0:0:0:0:
228,384,357086,1,2,0:0:0:0:
329,300,357236,2,0,P|357:286|386:286,1,57.5
256,250,357536,2,0,P|226:250|192:239,1,57.5,0|8,0:0|0:0,0:0:0:0:
124,205,357836,1,0,0:0:0:0:
85,134,357986,1,0,0:0:0:0:
158,97,358136,1,0,0:0:0:0:
196,170,358286,6,0,P|206:216|166:279,1,115,0|8,0:0|0:0,0:0:0:0:
124,205,359036,37,0,0:0:0:0:
283,234,359186,1,0,0:0:0:0:
111,207,359336,1,0,0:0:0:0:
295,242,359486,6,0,P|358:259|440:194,1,172.5
267,154,360686,38,0,P|328:98|410:111,1,172.5
354,185,361286,6,0,B|350:221|380:254|357:304,1,115,0|6,0:0|0:0,0:0:0:0:
261,49,362171,6,0,P|302:54|346:38,1,76.6666666666667
467,94,362471,2,0,P|429:91|393:104,1,76.6666666666667,8|0,0:0|0:0,0:0:0:0:
452,229,362771,2,0,P|410:191|354:185,1,115
236,262,363221,1,0,0:0:0:0:
377,267,363371,1,0,0:0:0:0:
266,181,363521,1,0,0:0:0:0:
307,318,363671,1,0,0:0:0:0:
353,185,363821,1,0,0:0:0:0:
403,36,363971,6,0,P|413:73|406:113,1,76.6666666666667
329,78,364271,2,0,B|297:75|265:107|216:91,2,115,2|0|8,0:0|0:0|0:0,0:0:0:0:
404,190,365021,1,0,0:0:0:0:
275,141,365171,1,0,0:0:0:0:
408,104,365321,1,0,0:0:0:0:
321,214,365471,1,0,0:0:0:0:
466,255,365621,1,0,0:0:0:0:
383,274,365771,2,0,P|331:297|273:286,2,115,0|8|0,0:0|0:0|0:0,0:0:0:0:
446,171,366521,37,0,0:0:0:0:
466,255,366671,2,0,P|466:295|446:330,1,76.6666666666667,2|0,0:0|0:0,0:0:0:0:
446,171,366971,2,0,P|425:134|433:57,2,115,0|8|0,0:0|0:0|0:0,0:0:0:0:
238,236,367721,1,0,0:0:0:0:
215,150,367871,1,0,0:0:0:0:
298,129,368021,1,0,0:0:0:0:
321,214,368171,1,0,0:0:0:0:
215,150,368321,21,0,0:0:0:0:
108,83,368471,37,8,0:0:0:0:
57,149,368621,1,0,0:0:0:0:
101,219,368771,1,0,0:0:0:0:
182,199,368921,1,0,0:0:0:0:
185,114,369071,2,0,B|219:114|257:147|304:126,2,115,6|0|8,0:0|0:0|0:0,0:0:0:0:
271,49,369821,1,0,0:0:0:0:
379,100,369971,1,0,0:0:0:0:
351,18,370121,1,0,0:0:0:0:
249,220,370271,38,0,P|214:247|139:242,1,115
50,146,370721,1,0,0:0:0:0:
180,170,370871,1,8,0:0:0:0:
66,229,371021,1,0,0:0:0:0:
121,107,371171,1,0,0:0:0:0:
145,245,371321,1,0,0:0:0:0:
50,146,371471,6,0,P|23:136|-24:141,1,76.6666666666667,2|0,0:0|0:0,0:0:0:0:
145,245,371771,2,0,P|186:254|223:241,1,76.6666666666667
121,107,372071,1,8,0:0:0:0:
242,115,372221,1,0,0:0:0:0:
186,51,372371,1,0,0:0:0:0:
180,170,372521,1,0,0:0:0:0:
321,92,372671,38,0,B|352:86|385:117|434:97,1,115
303,170,373121,1,0,0:0:0:0:
402,21,373271,1,8,0:0:0:0:
471,180,373421,1,0,0:0:0:0:
303,170,373571,1,0,0:0:0:0:
402,21,373721,1,0,0:0:0:0:
471,180,373871,6,0,P|476:227|463:257,1,76.6666666666667,6|0,0:0|0:0,0:0:0:0:
368,365,374171,2,0,P|368:337|392:291,1,76.6666666666667,0|0,0:0|0:0,0:0:0:0:
305,267,374471,2,0,P|343:225|398:211,2,115,8|0|0,0:0|0:0|0:0,0:0:0:0:
367,365,375221,1,0,0:0:0:0:
462,311,375371,1,0,0:0:0:0:
397,211,375521,1,0,0:0:0:0:
306,268,375671,38,0,P|270:281|222:275,1,76.6666666666667,8|0,0:0|0:0,0:0:0:0:
150,175,375971,2,0,P|207:169|255:199,2,115,0|2|0,0:0|0:0|0:0,0:0:0:0:
53,269,376721,1,0,0:0:0:0:
189,249,376871,1,8,0:0:0:0:
70,184,377021,1,0,0:0:0:0:
128,307,377171,2,0,P|172:331|209:329,1,76.6666666666667,0|0,0:0|0:0,0:0:0:0:
189,249,377471,5,0,0:0:0:0:
356,181,377621,1,0,0:0:0:0:
202,252,377771,1,0,0:0:0:0:
370,187,377921,1,0,0:0:0:0:
218,256,378071,2,0,B|249:260|286:288|329:268,1,115,8|0,0:0|0:0,0:0:0:0:
252,41,378521,5,0,0:0:0:0:
229,124,378671,2,0,P|272:124|314:103,2,76.6666666666667,6|0|0,0:0|0:0|0:0,0:0:0:0:
437,174,379271,2,0,P|400:165|351:177,2,76.6666666666667,8|0|0,0:0|0:0|0:0,0:0:0:0:
393,307,379871,38,0,B|362:308|328:342|277:321,2,115,0|0|8,0:0|0:0|0:0,0:0:0:0:
503,227,380621,1,0,0:0:0:0:
479,310,380771,1,0,0:0:0:0:
437,174,380921,1,0,0:0:0:0:
369,223,381071,38,0,P|336:239|282:234,1,76.6666666666667,2|0,0:0|0:0,0:0:0:0:
215,218,381371,2,0,P|185:209|141:214,1,76.6666666666667
109,137,381671,2,0,P|54:145|5:116,2,115,8|0|0,0:0|0:0|0:0,0:0:0:0:
128,34,382421,1,0,0:0:0:0:
24,12,382571,1,0,0:0:0:0:
5,116,382721,1,0,0:0:0:0:
110,138,382871,37,8,0:0:0:0:
204,104,383021,1,0,0:0:0:0:
128,34,383171,1,0,0:0:0:0:
110,138,383321,1,0,0:0:0:0:
204,104,383471,38,0,P|236:93|283:98,2,76.6666666666667,6|0|0,0:0|0:0|0:0,0:0:0:0:
436,168,384071,2,0,P|405:157|361:161,2,76.6666666666667,8|0|0,0:0|0:0|0:0,0:0:0:0:
48,214,384671,38,0,P|105:231|141:218,1,76.6666666666667
96,146,384971,2,0,B|128:135|177:166|222:147,1,115,0|8,0:0|0:0,0:0:0:0:
305,60,385421,1,0,0:0:0:0:
286,193,385571,1,0,0:0:0:0:
226,70,385721,1,0,0:0:0:0:
346,132,385871,38,0,B|395:147|426:118|469:128,2,115,2|0|8,0:0|0:0|0:0,0:0:0:0:
446,208,386621,1,0,0:0:0:0:
409,281,386771,2,0,P|396:307|327:343,1,76.6666666666667
333,258,387071,2,0,P|296:277|224:267,1,115,0|0,0:0|0:0,0:0:0:0:
149,155,387521,37,0,0:0:0:0:
276,199,387671,1,8,0:0:0:0:
145,238,387821,1,0,0:0:0:0:
226,134,387971,2,0,P|245:100|233:26,1,115,0|6,0:0|0:0,0:0:0:0:
420,70,388471,38,0,P|373:63|333:78,1,76.6666666666667
145,238,388871,2,0,P|189:245|225:230,1,76.6666666666667,8|0,0:0|0:0,0:0:0:0:
418,192,389271,2,0,P|389:173|341:168,1,76.6666666666667,0|0,0:0|0:0,0:0:0:0:
276,224,389621,37,0,0:0:0:0:
264,306,389771,2,0,P|324:290|360:236,1,115,0|8,0:0|0:0,0:0:0:0:
206,172,390221,1,0,0:0:0:0:
179,312,390371,1,0,0:0:0:0:
277,224,390521,1,0,0:0:0:0:
144,237,390671,6,0,P|102:247|69:239,1,76.6666666666667,2|0,0:0|0:0,0:0:0:0:
62,110,391071,2,0,P|104:100|137:108,1,76.6666666666667,0|8,0:0|0:0,0:0:0:0:
277,224,391471,2,0,P|314:231|351:222,1,76.6666666666667
342,92,391871,2,0,P|305:85|269:94,1,76.6666666666667,0|0,0:0|0:0,0:0:0:0:
199,161,392171,38,0,B|144:181|120:149|73:162,1,115,0|8,0:0|0:0,0:0:0:0:
166,89,392621,1,0,0:0:0:0:
103,233,392771,1,0,0:0:0:0:
18,106,392921,1,0,0:0:0:0:
166,89,393071,6,0,P|207:85|242:94,1,76.6666666666667,6|0,0:0|0:0,0:0:0:0:
233,243,393471,2,0,P|192:247|157:238,1,76.6666666666667,0|8,0:0|0:0,0:0:0:0:
376,105,393871,2,0,P|417:101|452:110,1,76.6666666666667,0|0,0:0|0:0,0:0:0:0:
443,259,394271,2,0,P|402:263|367:254,1,76.6666666666667,0|0,0:0|0:0,0:0:0:0:
303,182,394571,38,0,P|286:211|293:302,1,115,0|8,0:0|0:0,0:0:0:0:
195,227,395021,1,0,0:0:0:0:
373,253,395171,1,0,0:0:0:0:
195,227,395321,1,0,0:0:0:0:
373,253,395471,6,0,P|414:254|453:232,1,76.6666666666667,2|0,0:0|0:0,0:0:0:0:
303,182,395871,2,0,P|265:182|222:168,1,76.6666666666667,0|8,0:0|0:0,0:0:0:0:
384,121,396271,2,0,P|417:119|459:101,1,76.6666666666667,0|0,0:0|0:0,0:0:0:0:
286,78,396671,37,10,0:0:0:0:
179,85,396821,1,0,0:0:0:0:
191,197,396971,1,0,0:0:0:0:
270,165,397121,37,0,0:0:0:0:
179,86,397271,1,8,0:0:0:0:
159,203,397421,1,0,0:0:0:0:
253,281,397571,37,0,0:0:0:0:
281,280,397641,1,0,0:0:0:0:
306,287,397712,1,0,0:0:0:0:
328,298,397782,1,0,0:0:0:0:
343,320,397853,6,0,P|301:318|259:336,2,86.2500032901765,6|0|0,0:0|0:0|0:0,0:0:0:0:
399,235,398753,2,0,P|464:223|490:126,1,172.500006580353
415,156,399653,37,2,0:0:0:0:
399,159,399953,1,0,0:0:0:0:
386,162,400253,2,0,P|357:164|303:139,1,86.2500032901765
242,88,400853,1,8,0:0:0:0:
296,24,401153,6,0,P|212:13|159:86,1,172.500006580353
189,161,402053,2,0,P|214:201|208:249,1,86.2500032901765,2|0,0:0|0:0,0:0:0:0:
260,364,402653,2,0,P|259:324|287:278,1,86.2500032901765
346,345,403253,37,8,0:0:0:0:
350,337,403553,1,0,0:0:0:0:
354,328,403853,2,0,P|363:268|288:196,1,172.500006580353,0|2,0:0|0:0,0:0:0:0:
203,177,404753,1,0,0:0:0:0:
259,112,405053,2,0,B|308:111|358:137|431:114,1,172.500006580353,4|8,0:0|0:0,0:0:0:0:
385,38,405953,6,0,L|435:16,1,43.1250016450883
449,20,406253,2,0,P|428:33|406:175,1,172.500006580353,0|2,0:0|0:0,0:0:0:0:
409,289,407003,2,0,L|362:282,1,43.1250016450883,0|0,0:0|0:0,0:0:0:0:
394,303,407303,2,0,L|350:296,1,43.1250016450883,0|4,0:0|0:0,0:0:0:0:
98,302,407753,38,0,P|131:310|189:287,1,86.2500032901765,0|8,0:0|0:0,0:0:0:0:
264,238,408203,2,0,L|294:205,1,43.1250016450883,0|0,0:0|0:0,0:0:0:0:
264,216,408503,2,0,L|293:179,1,43.1250016450883,0|0,0:0|0:0,0:0:0:0:
184,90,408953,5,0,0:0:0:0:
180,101,409253,2,0,P|155:125|30:101,1,172.500006580353,2|4,0:0|0:0,0:0:0:0:
104,52,410153,1,0,0:0:0:0:
180,102,410453,1,8,0:0:0:0:
210,185,410753,1,0,0:0:0:0:
197,267,411053,38,0,P|199:226|311:162,1,172.500006580353,0|2,0:0|0:0,0:0:0:0:
287,250,411953,1,0,0:0:0:0:
273,342,412253,2,0,P|351:314|375:234,1,172.500006580353,4|8,0:0|0:0,0:0:0:0:
229,172,413153,6,0,P|272:174|317:149,1,86.2500032901765
81,95,414053,2,0,B|163:112|196:79|251:86,1,172.500006580353
256,192,414703,12,0,417053,0:0:0:0:
