osu file format v13

[General]
AudioFilename: FELYS(BMS Edit).mp3
AudioLeadIn: 0
PreviewTime: 87328
Countdown: 0
SampleSet: Soft
StackLeniency: 0.7
Mode: 0
LetterboxInBreaks: 1
WidescreenStoryboard: 0

[Editor]
DistanceSpacing: 1.1
BeatDivisor: 4
GridSize: 4
TimelineZoom: 2.5

[Metadata]
Title:Felys (BMS Edit)
TitleUnicode:Felys (BMS Edit)
Artist:onoken
ArtistUnicode:onoken
Creator:Ayakura Mei
Version:Fely SEX
Source:BMS
Tags:drum'n'bass
BeatmapID:468997
BeatmapSetID:197747

[Difficulty]
HPDrainRate:7
CircleSize:4
OverallDifficulty:7
ApproachRate:9.3
SliderMultiplier:1.6
SliderTickRate:1

[Events]
//Background and Video events
0,0,"BG.jpg",0,0
//Break Periods
2,65160,69941
//Storyboard Layer 0 (Background)
//Storyboard Layer 1 (Fail)
//Storyboard Layer 2 (Pass)
//Storyboard Layer 3 (Foreground)
//Storyboard Sound Samples
//Background Colour Transformations
3,100,163,162,255

[TimingPoints]
0,333.333333333333,4,1,1,80,1,0
27416,-100,4,1,2,80,0,0
27583,-100,4,1,1,80,0,0
28916,-100,4,1,2,80,0,0
29249,-100,4,1,1,80,0,0
29416,-100,4,1,2,80,0,0
29583,-100,4,1,1,80,0,0
30083,-100,4,1,3,80,0,0
30249,-100,4,1,1,80,0,0
30583,-100,4,2,1,100,0,0
30833,-100,4,2,2,100,0,0
31083,-100,4,2,1,100,0,0
32583,-100,4,2,2,100,0,0
32749,-100,4,2,1,100,0,0
32916,-100,4,2,2,100,0,0
33083,-100,4,2,1,100,0,0
33499,-100,4,2,2,100,0,0
33749,-100,4,2,1,100,0,0
33999,-100,4,2,2,100,0,0
35249,-100,4,2,3,100,0,0
35583,-100,4,2,1,100,0,0
36166,-100,4,2,2,100,0,0
36416,-100,4,2,1,100,0,0
37083,-100,4,2,2,100,0,0
38083,-100,4,2,1,100,0,0
38249,-100,4,2,2,100,0,0
38416,-100,4,2,1,100,0,0
38833,-100,4,2,2,100,0,0
39083,-100,4,2,1,100,0,0
39333,-100,4,2,2,100,0,0
40249,-100,4,2,2,100,0,0
40416,-100,4,2,3,100,0,0
53916,-66.6666666666667,4,1,4,100,0,0
54249,-66.6666666666667,4,1,5,100,0,0
54416,-66.6666666666667,4,1,6,100,0,0
54583,-66.6666666666667,4,2,3,100,0,0
56583,-66.6666666666667,4,1,5,100,0,0
56749,-66.6666666666667,4,1,6,100,0,0
56916,-66.6666666666667,4,1,5,100,0,0
57083,-66.6666666666667,4,1,6,100,0,0
59249,-66.6666666666667,4,1,4,100,0,0
59583,-66.6666666666667,4,1,5,100,0,0
59749,-66.6666666666667,4,1,6,100,0,0
61249,-66.6666666666667,4,1,5,100,0,0
61416,-66.6666666666667,4,1,3,100,0,0
61583,-66.6666666666667,4,1,5,100,0,0
61749,-66.6666666666667,4,1,3,100,0,0
61916,-66.6666666666667,4,1,5,100,0,0
62083,-66.6666666666667,4,1,6,100,0,0
62249,-66.6666666666667,4,1,3,100,0,0
62416,-66.6666666666667,4,1,6,100,0,0
62666,352.941176470588,4,1,6,100,1,0
62666,-200,4,1,6,100,0,0
62842,375,4,1,6,100,1,0
63029,400,4,1,6,100,1,0
63229,428.571428571429,4,1,6,100,1,0
63443,461.538461538462,4,1,6,100,1,0
63673,500,4,1,6,100,1,0
63923,545.454545454546,4,1,6,100,1,0
64195,600,4,1,6,100,1,0
64495,666.666666666667,4,1,6,100,1,0
70411,-66.6666666666667,4,2,4,100,0,0
71245,-66.6666666666667,4,2,5,100,0,0
71411,-66.6666666666667,4,2,4,100,0,0
71745,-66.6666666666667,4,2,5,100,0,0
72078,-66.6666666666667,4,2,4,100,0,0
72411,-66.6666666666667,4,2,5,100,0,0
72745,-66.6666666666667,4,2,4,100,0,0
73078,-66.6666666666667,4,2,5,100,0,0
73245,-66.6666666666667,4,2,4,100,0,0
73411,-66.6666666666667,4,2,4,100,0,0
73911,-66.6666666666667,4,2,5,100,0,0
74078,-66.6666666666667,4,2,4,100,0,0
74411,-66.6666666666667,4,2,5,100,0,0
74745,-66.6666666666667,4,2,4,100,0,0
75078,-66.6666666666667,4,2,5,100,0,0
75411,-66.6666666666667,4,2,4,100,0,0
76078,-66.6666666666667,4,2,4,100,0,0
86828,333.333333333333,4,1,1,100,1,0
119411,-100,4,3,21,100,0,0
120161,-133.333333333333,4,2,4,100,0,0
120577,-133.333333333333,4,2,5,100,0,0
120744,-133.333333333333,4,2,4,100,0,0
121077,-133.333333333333,4,2,5,100,0,0
121411,-133.333333333333,4,2,4,100,0,0
121744,-133.333333333333,4,2,5,100,0,0
122077,-133.333333333333,4,2,4,100,0,0
122411,-133.333333333333,4,2,7,100,0,0
122577,-133.333333333333,4,2,4,100,0,0
123244,-133.333333333333,4,2,5,100,0,0
123411,-133.333333333333,4,2,4,100,0,0
123744,-133.333333333333,4,2,5,100,0,0
124077,-133.333333333333,4,2,4,100,0,0
124411,-133.333333333333,4,2,5,100,0,0
124744,-133.333333333333,4,2,4,100,0,0
125077,-133.333333333333,4,2,7,100,0,0
125244,-133.333333333333,4,2,4,100,0,0
125911,-133.333333333333,4,2,5,100,0,0
126077,-133.333333333333,4,2,4,100,0,0
126411,-133.333333333333,4,2,5,100,0,0
126744,-133.333333333333,4,2,4,100,0,0
127077,-133.333333333333,4,2,5,100,0,0
127411,-133.333333333333,4,2,4,100,0,0
127744,-133.333333333333,4,2,7,100,0,0
127911,-133.333333333333,4,2,4,100,0,0
128577,-133.333333333333,4,2,5,100,0,0
128744,-133.333333333333,4,2,4,100,0,0
129077,-133.333333333333,4,2,5,100,0,0
129411,-133.333333333333,4,2,4,100,0,0
129744,-133.333333333333,4,2,5,100,0,0
130077,-133.333333333333,4,2,4,100,0,0
130411,-133.333333333333,4,2,7,100,0,0
130577,-133.333333333333,4,2,4,100,0,0

[Colours]
Combo1 : 128,0,255
Combo2 : 2,165,242

[HitObjects]
104,136,9333,5,4,1:0:2:0:
176,96,9499,1,2,1:0:2:0:
248,56,9666,1,4,1:0:1:0:
184,200,9833,1,2,1:0:2:0:
256,160,9999,1,8,1:0:1:0:
328,120,10166,1,2,1:0:1:0:
472,280,10333,5,4,1:0:2:0:
400,240,10499,1,2,1:0:2:0:
328,200,10666,1,4,1:0:1:0:
384,344,10833,1,2,1:0:2:0:
312,304,10999,1,8,1:0:1:0:
240,264,11166,1,2,1:0:1:0:
48,200,11333,5,4,1:0:1:0:
120,152,11499,1,8,1:0:2:0:
192,112,11666,1,2,1:0:2:0:
184,128,11749,1,8,1:0:1:0:
176,144,11833,1,2,1:0:1:0:
128,232,11999,5,4,1:0:2:0:
88,160,12165,1,2,1:0:2:0:
48,88,12332,1,4,1:0:1:0:
168,160,12499,1,2,1:0:2:0:
126,231,12665,1,8,1:0:1:0:
83,301,12832,1,2,1:0:1:0:
88,160,12999,5,4,1:0:2:0:
168,160,13165,1,2,1:0:2:0:
248,160,13332,1,4,1:0:1:0:
248,304,13499,1,2,1:0:2:0:
208,232,13665,1,8,1:0:1:0:
168,160,13832,1,2,1:0:1:0:
176,352,13999,5,4,1:0:1:0:
248,304,14166,1,2,1:0:3:0:
320,256,14333,1,2,1:0:2:0:
304,248,14416,1,8,1:0:1:0:
288,240,14499,1,2,1:0:1:0:
400,296,14666,5,4,1:0:2:0:
496,256,14833,1,2,1:0:2:0:
416,192,14999,1,4,1:0:1:0:
320,232,15166,1,2,1:0:2:0:
416,192,15333,1,8,1:0:1:0:
336,128,15499,1,2,1:0:1:0:
136,192,15666,5,4,1:0:2:0:
211,125,15833,1,2,1:0:2:0:
120,96,15999,1,4,1:0:1:0:
60,258,16166,1,2,1:0:2:0:
136,192,16333,1,8,1:0:1:0:
45,159,16499,1,2,1:0:1:0:
72,352,16666,5,4,1:0:1:0:
152,296,16833,1,8,1:0:2:0:
60,258,16999,1,2,1:0:2:0:
72,272,17083,1,8,1:0:1:0:
88,288,17166,1,2,1:0:1:0:
328,344,17333,5,4,1:0:2:0:
328,248,17499,1,2,1:0:2:0:
248,296,17666,1,4,1:0:1:0:
416,296,17833,1,2,1:0:2:0:
416,192,17999,1,8,1:0:1:0:
328,248,18166,1,2,1:0:1:0:
152,168,18333,5,4,1:0:2:0:
240,112,18499,1,2,1:0:2:0:
152,64,18666,1,4,1:0:1:0:
64,224,18833,1,2,1:0:2:0:
160,272,18999,1,8,1:0:1:0:
152,168,19166,1,2,1:0:1:0:
64,120,19333,5,4,1:0:1:0:
160,272,19499,1,2,1:0:3:0:
376,184,19666,1,2,1:0:2:0:
368,192,19749,1,8,1:0:1:0:
360,200,19833,1,2,1:0:1:0:
224,168,19999,5,4,1:0:2:0:
296,64,20166,1,2,1:0:2:0:
144,112,20333,1,4,1:0:1:0:
312,144,20499,1,2,1:0:2:0:
160,24,20666,1,8,1:0:1:0:
224,240,20833,1,2,1:0:1:0:
400,288,20999,5,4,1:0:2:0:
312,144,21166,1,2,1:0:2:0:
288,336,21333,1,4,1:0:1:0:
432,208,21499,1,2,1:0:2:0:
224,240,21666,1,8,1:0:1:0:
368,368,21833,1,2,1:0:1:0:
384,152,21999,5,4,1:0:1:0:
240,328,22166,1,8,1:0:2:0:
64,224,22333,1,2,1:0:2:0:
56,208,22416,1,8,1:0:1:0:
48,192,22499,1,2,1:0:1:0:
152,72,22666,5,4,1:0:2:0:
312,128,22833,1,2,1:0:2:0:
128,168,22999,1,4,1:0:1:0:
248,64,23166,1,2,1:0:2:0:
176,248,23333,1,8,1:0:1:0:
320,304,23499,1,2,1:0:1:0:
472,136,23666,5,4,1:0:2:0:
336,200,23833,1,2,1:0:2:0:
496,224,23999,1,4,1:0:1:0:
384,120,24166,1,2,1:0:2:0:
448,296,24333,1,8,1:0:1:0:
512,88,24499,1,2,1:0:1:0:
312,136,24666,5,4,1:0:1:0:
360,304,24833,1,2,1:0:3:0:
472,176,24999,1,2,1:0:2:0:
464,184,25083,1,8,1:0:1:0:
456,192,25166,1,2,1:0:1:0:
360,112,25333,5,4,1:0:2:0:
248,72,25499,1,2,1:0:2:0:
136,112,25666,1,4,1:0:1:0:
72,216,25833,1,2,1:0:2:0:
96,328,25999,2,0,P|136:352|176:360,1,80,8|2,1:0|0:0,0:0:0:0:
296,296,26333,5,4,1:0:2:0:
176,280,26499,1,2,1:0:2:0:
112,176,26666,1,4,1:0:1:0:
152,56,26833,1,2,1:0:2:0:
272,8,26999,2,0,P|312:16|352:16,1,80,8|2,1:0|0:0,0:0:0:0:
456,120,27333,6,0,P|416:128|376:128,1,80,4|8,1:0|1:0,0:0:0:0:
248,216,27666,1,2,1:0:2:0:
264,224,27749,1,8,1:0:1:0:
280,224,27833,1,2,1:0:1:0:
392,160,27999,5,4,1:0:2:0:
320,48,28166,1,2,1:0:2:0:
272,208,28333,1,4,1:0:1:0:
280,56,28499,1,2,1:0:2:0:
136,184,28666,1,8,1:0:1:0:
232,40,28833,1,2,1:0:1:0:
48,104,28999,6,0,L|128:88,1,80,4|2,1:0|0:0,0:0:0:0:
208,320,29333,2,0,L|120:336,1,80,4|2,1:0|1:0,0:0:0:0:
320,32,29666,2,0,L|400:64,1,80,8|2,1:1|0:1,0:0:0:0:
448,352,29999,2,0,L|368:320,1,80,2|2,1:0|1:0,0:0:0:0:
256,272,30333,1,2,1:0:2:0:
256,272,30416,1,8,1:0:1:0:
256,272,30499,1,2,1:0:1:0:
88,368,30666,6,0,B|80:304|80:304|120:200,1,160,2|2,0:0|0:0,0:0:0:0:
160,120,31166,2,0,B|200:32|200:32|224:88|224:88|312:104,1,240,4|8,0:0|0:0,0:0:0:0:
368,304,31999,5,2,2:0:2:0:
488,120,32165,1,4,2:0:1:0:
480,344,32332,1,8,2:0:2:0:
384,136,32499,1,4,2:0:2:0:
176,232,32665,2,0,L|184:312,1,80,8|2,0:0|0:0,0:0:0:0:
24,160,32999,2,0,L|0:248,1,80,8|4,0:0|0:0,0:0:0:0:
192,40,33333,6,0,B|288:24|288:24|264:88,1,160,2|2,0:0|0:0,0:0:0:0:
168,328,33833,2,0,B|152:272|152:272|160:216|160:216|192:248,1,160,4|8,0:0|0:0,0:0:0:0:
328,296,34333,1,4,2:0:2:0:
392,112,34499,1,2,2:0:1:0:
432,328,34666,5,4,2:0:1:0:
336,192,34833,1,8,2:0:1:0:
184,328,34999,1,2,2:0:2:0:
312,160,35166,1,2,2:0:3:0:
120,88,35333,2,0,L|32:64,1,80,4|2,0:0|0:0,0:0:0:0:
352,160,35833,1,8,0:0:0:0:
472,184,35999,6,0,B|512:176|512:176|520:96|520:96|480:80,1,160,2|2,0:0|0:0,0:0:0:0:
224,128,36499,2,0,B|136:152|136:152|192:200|192:200|208:288,1,240,4|8,0:0|0:0,0:0:0:0:
448,56,37333,1,2,2:0:2:0:
384,256,37499,1,4,2:0:1:0:
264,56,37666,1,8,2:0:2:0:
352,256,37833,1,4,2:0:2:0:
144,208,37999,2,0,P|104:200|64:208,1,80,8|2,0:0|0:0,0:0:0:0:
320,296,38333,2,0,P|280:304|240:320,1,80,8|4,0:0|0:0,0:0:0:0:
488,224,38666,6,0,B|504:168|496:120|496:120|464:128|440:152,1,160,2|2,0:0|0:0,0:0:0:0:
248,144,39166,2,0,B|232:88|240:40|240:40|272:48|296:72,1,160,4|8,0:0|0:0,0:0:0:0:
360,200,39666,1,4,2:0:2:0:
280,336,39833,1,2,2:0:1:0:
120,320,39999,1,4,2:0:1:0:
96,152,40166,1,8,2:0:1:0:
280,32,40333,6,0,P|240:40|200:56,1,80,2|2,0:0|0:0,0:0:0:0:
96,216,40666,1,4,2:0:3:0:
176,360,40833,1,2,2:0:3:0:
472,128,41166,1,8,2:0:1:0:
352,64,41333,5,2,1:0:5:0:
320,200,41499,1,2,1:0:4:0:
440,224,41666,1,4,1:0:5:0:
472,88,41833,1,2,1:0:4:0:
336,104,41999,1,8,1:0:5:0:
296,232,42166,1,2,1:0:4:0:
448,264,42333,1,2,1:0:5:0:
464,136,42499,1,2,1:0:4:0:
328,192,42666,5,4,1:0:5:0:
224,120,42833,1,2,1:0:4:0:
96,136,42999,1,8,1:0:5:0:
8,240,43166,1,2,1:0:4:0:
120,336,43333,5,4,1:0:4:0:
264,224,43499,1,8,1:0:4:0:
128,224,43666,1,2,1:0:5:0:
264,368,43833,1,2,1:0:6:0:
429,144,43999,5,2,1:0:5:0:
320,288,44166,1,4,1:0:3:0:
415,135,44333,1,4,1:0:5:0:
328,304,44499,1,4,1:0:3:0:
400,128,44666,1,8,1:0:5:0:
336,320,44833,1,4,1:0:3:0:
383,123,44999,1,2,1:0:5:0:
344,336,45166,1,4,1:0:3:0:
248,176,45333,5,4,1:0:5:0:
384,264,45499,1,4,1:0:3:0:
184,240,45666,1,8,1:0:5:0:
336,168,45833,1,4,1:0:3:0:
296,360,45999,1,8,1:0:5:0:
240,136,46166,1,4,1:0:6:0:
352,264,46333,1,2,1:0:5:0:
168,344,46499,1,8,1:0:3:0:
96,160,46666,5,2,1:0:5:0:
240,168,46832,1,2,1:0:4:0:
232,288,46999,1,4,1:0:5:0:
72,304,47166,1,2,1:0:4:0:
88,128,47333,1,8,1:0:5:0:
240,144,47500,1,2,1:0:4:0:
216,280,47667,1,2,1:0:5:0:
64,264,47833,1,2,1:0:4:0:
176,216,47999,5,4,1:0:5:0:
288,256,48166,1,2,1:0:4:0:
352,352,48333,1,8,1:0:5:0:
424,256,48499,1,2,1:0:4:0:
416,136,48666,1,4,1:0:4:0:
312,32,48833,1,8,1:0:4:0:
328,176,48999,1,2,1:0:5:0:
408,32,49166,1,2,1:0:6:0:
240,136,49333,5,2,1:0:5:0:
304,304,49499,1,4,1:0:3:0:
264,128,49666,1,4,1:0:5:0:
288,320,49833,1,4,1:0:3:0:
288,120,49999,1,8,1:0:5:0:
272,336,50166,1,4,1:0:3:0:
312,112,50333,1,2,1:0:5:0:
256,352,50499,1,4,1:0:3:0:
416,248,50666,5,4,1:0:5:0:
272,88,50833,1,4,1:0:3:0:
336,312,50999,1,8,1:0:5:0:
400,120,51166,1,4,1:0:3:0:
240,288,51333,1,8,1:0:5:0:
424,336,51499,1,4,1:0:6:0:
264,192,51666,1,8,1:0:3:0:
96,328,51833,1,2,1:0:6:0:
240,288,51999,5,2,1:0:5:0:
224,128,52166,1,2,1:0:4:0:
72,168,52333,1,4,1:0:5:0:
80,312,52499,1,2,1:0:4:0:
256,272,52666,1,8,1:0:5:0:
248,112,52833,1,2,1:0:4:0:
104,160,52999,1,2,1:0:5:0:
104,312,53166,1,2,1:0:4:0:
184,216,53333,5,4,1:0:5:0:
168,96,53499,1,2,1:0:4:0:
80,16,53666,1,8,1:0:5:0:
152,128,53833,1,2,1:0:4:0:
296,152,53999,2,0,P|352:152|408:120,1,120.000004577637,4|8,0:0|0:0,0:0:0:0:
88,88,54333,2,0,P|72:144|80:216,1,120.000004577637,2|2,0:0|0:0,0:0:0:0:
208,328,54666,5,2,1:0:5:0:
344,256,54833,1,4,1:0:3:0:
168,240,54999,1,4,1:0:5:0:
296,336,55166,1,4,1:0:3:0:
392,176,55333,1,8,1:0:5:0:
256,256,55499,1,4,1:0:3:0:
432,256,55666,1,2,1:0:5:0:
360,96,55833,1,4,1:0:3:0:
224,168,55999,5,4,1:0:5:0:
296,336,56166,1,4,1:0:3:0:
392,176,56333,1,8,1:0:5:0:
256,256,56499,1,4,1:0:3:0:
128,120,56666,2,0,B|112:80|112:40|112:40|144:64,1,120.000004577637,8|4,0:0|0:0,0:0:0:0:
208,280,56999,2,0,B|201:322|181:357|181:357|166:320,1,120.000004577637,2|2,0:0|0:0,0:0:0:0:
280,168,57333,5,2,1:0:5:0:
424,112,57499,1,2,1:0:4:0:
456,272,57666,1,4,1:0:5:0:
296,328,57833,1,2,1:0:4:0:
304,144,57999,1,8,1:0:5:0:
448,120,58166,1,2,1:0:4:0:
472,304,58333,1,2,1:0:5:0:
304,304,58499,1,2,1:0:4:0:
144,344,58666,5,4,1:0:5:0:
64,152,58833,1,2,1:0:4:0:
48,320,58999,1,8,1:0:5:0:
160,120,59166,1,2,1:0:4:0:
352,160,59333,2,0,P|408:160|464:128,1,120.000004577637,4|8,0:0|0:0,0:0:0:0:
288,328,59666,2,0,P|344:352|408:344,1,120.000004577637,2|2,0:0|0:0,0:0:0:0:
240,232,59999,5,2,1:0:5:0:
80,272,60166,1,4,1:0:3:0:
256,136,60333,1,4,1:0:5:0:
224,328,60499,1,4,1:0:3:0:
168,80,60666,1,8,1:0:5:0:
344,192,60833,1,4,1:0:3:0:
176,272,60999,1,2,1:0:5:0:
248,56,61166,1,4,1:0:3:0:
432,120,61333,6,0,L|456:0,1,120.000004577637,4|4,0:0|0:0,0:0:0:0:
296,160,61666,2,0,L|280:40,1,120.000004577637,8|4,0:0|0:0,0:0:0:0:
200,256,61999,2,0,L|136:144,1,120.000004577637,8|4,0:0|0:0,0:0:0:0:
176,384,62333,2,0,L|64:336,1,120.000004577637,8|2,0:0|0:0,0:0:0:0:
352,328,62666,6,0,B|391:321|391:321|395:319|395:319|395:321|395:321|398:317|398:317|399:321|399:321|402:316|402:316|403:321|403:321|406:314|406:314|407:322|407:322|410:312|410:312|411:322|411:322|413:310|413:310|416:322|416:322|417:309|417:309|420:323|420:323|421:307|421:307|424:323|424:323|425:305|425:305|428:323|428:323|429:304|429:304|432:323|432:323|432:302|432:302|436:324|436:324|436:300|436:300|440:324|440:324|440:302|440:302|444:321|444:321|445:303|445:303|447:319|447:319|449:304|449:304|451:316|451:316|453:306|453:306|455:313|455:313|458:309|458:309|509:300,1,520,8|0,0:0|0:0,0:0:0:0:
112,176,70495,6,0,L|120:160,6,15.0000005722046,2|0|0|0|0|0|0,0:0|0:0|0:0|0:0|0:0|0:0|0:0,0:0:0:0:
128,144,70828,2,0,L|192:136,1,60.0000022888184,4|8,0:0|0:0,0:0:0:0:
384,160,71161,2,0,L|320:168,1,60.0000022888184,4|2,0:0|0:0,0:0:0:0:
184,272,71495,2,0,L|248:264,1,60.0000022888184,4|8,0:0|0:0,0:0:0:0:
72,280,71828,1,4,0:0:0:0:
72,280,71995,1,8,0:0:0:0:
88,176,72161,2,0,L|96:112,1,60.0000022888184,4|8,0:0|0:0,0:0:0:0:
192,224,72495,1,4,0:0:0:0:
192,224,72662,1,8,0:0:0:0:
208,120,72828,2,0,L|216:56,1,60.0000022888184,8|4,0:0|0:0,0:0:0:0:
264,280,73161,2,0,L|256:344,1,60.0000022888184,4|8,0:0|0:0,0:0:0:0:
408,96,73495,6,0,L|440:32,1,60.0000022888184,4|8,0:0|0:0,0:0:0:0:
344,224,73828,2,0,L|383:283,1,60.0000022888184,4|2,0:0|0:0,0:0:0:0:
280,104,74161,2,0,L|208:108,1,60.0000022888184,4|8,0:0|0:0,0:0:0:0:
64,224,74495,1,4,0:0:0:0:
64,224,74661,1,8,0:0:0:0:
176,208,74828,2,0,L|240:200,1,60.0000022888184,4|8,0:0|0:0,0:0:0:0:
136,320,75161,1,4,0:0:0:0:
136,320,75327,1,8,0:0:0:0:
248,304,75494,2,0,L|312:296,1,60.0000022888184,8|4,0:0|0:0,0:0:0:0:
440,288,75828,2,0,L|448:264,6,15.0000005722046,2|0|0|0|8|0|0,0:0|0:0|0:0|0:0|0:0|0:0|0:0,0:0:0:0:
456,240,76161,5,2,2:0:6:0:
256,344,76828,1,4,2:0:6:0:
456,240,77495,5,8,2:0:6:0:
336,248,77828,1,8,2:0:3:0:
256,344,78161,1,4,2:0:6:0:
456,240,78828,5,2,2:0:6:0:
296,144,79161,1,8,2:0:6:0:
376,344,79495,1,4,2:0:6:0:
376,344,79995,1,4,2:0:6:0:
440,64,80328,5,8,2:0:6:0:
296,144,80495,1,8,2:0:3:0:
376,344,80828,1,4,2:0:6:0:
88,152,81495,5,2,2:0:6:0:
144,368,82161,1,4,2:0:6:0:
88,152,82828,5,8,2:0:6:0:
176,240,83161,1,8,2:0:3:0:
144,368,83495,1,4,2:0:6:0:
88,152,84161,5,2,2:0:6:0:
320,64,84495,1,4,2:0:6:0:
320,64,84828,1,4,2:0:6:0:
184,48,85161,5,8,2:0:3:0:
320,64,85328,1,4,2:0:6:0:
184,48,85661,5,8,2:0:6:0:
88,152,85828,1,8,2:0:3:0:
184,48,85995,1,8,2:0:6:0:
320,64,86161,1,4,2:0:6:0:
256,192,86828,12,0,87994,0:0:0:0:
352,152,88161,5,2,1:0:7:0:
360,144,88244,1,2,1:0:7:0:
368,136,88328,1,2,1:0:7:0:
376,128,88411,1,2,1:0:7:0:
384,120,88494,1,2,1:0:7:0:
320,280,88661,5,2,1:0:7:0:
312,272,88744,1,2,1:0:7:0:
304,264,88828,1,2,1:0:7:0:
296,256,88911,1,2,1:0:7:0:
288,248,88994,1,2,1:0:7:0:
120,168,89161,5,2,1:0:7:0:
136,164,89244,1,2,1:0:7:0:
152,156,89328,1,2,1:0:7:0:
164,148,89411,1,2,1:0:7:0:
140,68,89494,1,8,1:0:7:0:
120,68,89578,1,8,1:0:7:0:
100,76,89661,1,8,1:0:7:0:
84,88,89744,1,8,1:0:7:0:
72,104,89828,1,8,1:0:7:0:
100,288,89994,5,4,1:0:7:0:
116,292,90078,1,4,1:0:7:0:
132,296,90161,1,4,1:0:7:0:
148,300,90244,1,4,1:0:7:0:
164,304,90328,1,4,1:0:7:0:
288,228,90494,5,2,1:0:8:0:
304,232,90578,1,2,1:0:8:0:
320,236,90661,1,2,1:0:8:0:
444,112,90828,5,4,1:0:8:0:
432,104,90911,1,4,1:0:8:0:
416,96,90994,1,4,1:0:8:0:
400,92,91078,1,4,1:0:8:0:
384,92,91161,1,4,1:0:8:0:
264,192,91328,5,8,1:0:8:0:
273,202,91411,1,8,1:0:8:0:
284,216,91494,1,8,1:0:8:0:
291,231,91578,1,8,1:0:8:0:
294,247,91661,1,8,1:0:8:0:
144,224,91828,5,2,1:0:9:0:
132,216,91911,1,2,1:0:9:0:
116,208,91995,1,2,1:0:9:0:
100,204,92078,1,2,1:0:9:0:
52,268,92161,1,2,1:0:9:0:
64,284,92245,1,2,1:0:9:0:
80,296,92328,1,2,1:0:9:0:
100,304,92411,1,2,1:0:9:0:
120,304,92495,1,2,1:0:9:0:
224,168,92661,5,2,1:0:9:0:
232,156,92744,1,2,1:0:9:0:
240,144,92828,1,2,1:0:9:0:
248,132,92911,1,2,1:0:9:0:
256,120,92995,5,4,1:0:8:0:
104,200,93161,1,4,1:0:7:0:
220,360,93328,1,8,1:0:7:0:
412,272,93494,5,2,1:0:7:0:
404,276,93578,1,2,1:0:7:0:
396,280,93661,1,2,1:0:7:0:
388,284,93744,1,2,1:0:7:0:
380,288,93828,1,2,1:0:7:0:
208,184,93994,5,2,1:0:7:0:
216,188,94077,1,2,1:0:7:0:
224,192,94161,1,2,1:0:7:0:
232,196,94244,1,2,1:0:7:0:
240,200,94327,1,2,1:0:7:0:
448,112,94494,5,2,1:0:7:0:
433,115,94577,1,2,1:0:7:0:
416,117,94661,1,2,1:0:7:0:
399,115,94744,1,2,1:0:7:0:
320,84,94827,1,8,1:0:7:0:
304,80,94911,1,8,1:0:7:0:
288,80,94994,1,8,1:0:7:0:
272,84,95077,1,8,1:0:7:0:
260,92,95161,1,8,1:0:7:0:
240,272,95327,5,4,1:0:7:0:
248,284,95411,1,4,1:0:7:0:
256,296,95494,1,4,1:0:7:0:
264,308,95577,1,4,1:0:7:0:
272,320,95661,1,4,1:0:7:0:
76,296,95827,5,2,1:0:8:0:
80,276,95911,1,2,1:0:8:0:
84,256,95994,1,2,1:0:8:0:
208,100,96161,5,4,1:0:8:0:
192,96,96244,1,4,1:0:8:0:
176,96,96327,1,4,1:0:8:0:
160,100,96411,1,4,1:0:8:0:
144,108,96494,1,4,1:0:8:0:
296,208,96661,5,8,1:0:8:0:
312,212,96744,1,8,1:0:8:0:
328,212,96827,1,8,1:0:8:0:
344,208,96911,1,8,1:0:8:0:
360,200,96994,1,8,1:0:8:0:
468,48,97161,5,2,1:0:9:0:
472,60,97244,1,2,1:0:9:0:
476,72,97327,1,2,1:0:9:0:
480,84,97411,1,2,1:0:9:0:
464,164,97494,1,2,1:0:9:0:
468,180,97577,1,2,1:0:9:0:
472,196,97661,1,2,1:0:9:0:
476,212,97744,1,2,1:0:9:0:
480,228,97827,1,2,1:0:9:0:
312,188,97994,5,2,1:0:9:0:
316,172,98077,1,2,1:0:9:0:
320,156,98161,1,2,1:0:9:0:
324,140,98244,1,2,1:0:9:0:
328,124,98327,5,4,1:0:8:0:
368,336,98494,1,4,1:0:7:0:
248,200,98661,1,8,1:0:7:0:
320,20,98827,5,2,1:0:7:0:
312,24,98911,1,2,1:0:7:0:
304,28,98994,1,2,1:0:7:0:
296,32,99077,1,2,1:0:7:0:
288,36,99161,1,2,1:0:7:0:
176,164,99327,5,2,1:0:7:0:
180,176,99411,1,2,1:0:7:0:
184,188,99494,1,2,1:0:7:0:
188,200,99577,1,2,1:0:7:0:
192,212,99661,1,2,1:0:7:0:
332,324,99827,5,2,1:0:7:0:
346,322,99910,1,2,1:0:7:0:
363,317,99994,1,2,1:0:7:0:
378,311,100077,1,2,1:0:7:0:
374,231,100160,1,8,1:0:7:0:
354,226,100244,1,8,1:0:7:0:
334,227,100327,1,8,1:0:7:0:
314,234,100410,1,8,1:0:7:0:
298,247,100494,1,8,1:0:7:0:
144,328,100661,5,4,1:0:7:0:
136,324,100744,1,4,1:0:7:0:
128,320,100827,1,4,1:0:7:0:
120,316,100911,1,4,1:0:7:0:
112,312,100994,1,4,1:0:7:0:
160,184,101161,5,2,1:0:8:0:
148,168,101244,1,2,1:0:8:0:
136,152,101327,1,2,1:0:8:0:
304,52,101494,5,4,1:0:8:0:
296,68,101577,1,4,1:0:8:0:
288,84,101661,1,4,1:0:8:0:
280,100,101744,1,4,1:0:8:0:
272,116,101827,1,4,1:0:8:0:
432,188,101994,5,8,1:0:8:0:
416,196,102077,1,8,1:0:8:0:
400,204,102161,1,8,1:0:8:0:
384,212,102244,1,8,1:0:8:0:
368,220,102327,1,8,1:0:8:0:
248,288,102494,5,2,1:0:9:0:
240,308,102577,1,2,1:0:9:0:
240,328,102661,1,2,1:0:9:0:
244,344,102744,1,2,1:0:9:0:
164,352,102827,1,2,1:0:9:0:
160,336,102911,1,2,1:0:9:0:
156,320,102994,1,2,1:0:9:0:
152,304,103077,1,2,1:0:9:0:
148,288,103161,1,2,1:0:9:0:
196,88,103327,5,2,1:0:9:0:
200,104,103411,1,2,1:0:9:0:
204,120,103494,1,2,1:0:9:0:
208,136,103577,1,2,1:0:9:0:
212,152,103661,5,4,1:0:8:0:
264,20,103827,1,4,1:0:7:0:
120,188,103994,1,8,1:0:7:0:
292,328,104161,5,2,1:0:7:0:
308,320,104244,1,2,1:0:7:0:
320,320,104327,1,2,1:0:7:0:
332,320,104411,1,2,1:0:7:0:
344,324,104494,1,2,1:0:7:0:
488,192,104661,5,2,1:0:7:0:
476,184,104744,1,2,1:0:7:0:
460,180,104827,1,2,1:0:7:0:
444,180,104911,1,2,1:0:7:0:
428,188,104994,1,2,1:0:7:0:
264,132,105161,5,2,1:0:7:0:
248,136,105244,1,2,1:0:7:0:
232,132,105327,1,2,1:0:7:0:
220,120,105411,1,2,1:0:7:0:
264,48,105494,1,8,1:0:7:0:
280,44,105577,1,8,1:0:7:0:
296,48,105661,1,8,1:0:7:0:
312,44,105744,1,8,1:0:7:0:
328,48,105827,1,8,1:0:7:0:
140,96,105994,5,4,1:0:7:0:
132,108,106077,1,4,1:0:7:0:
124,120,106161,1,4,1:0:7:0:
116,132,106244,1,4,1:0:7:0:
108,144,106327,1,4,1:0:7:0:
132,284,106494,5,2,1:0:8:0:
152,292,106577,1,2,1:0:8:0:
172,300,106661,1,2,1:0:8:0:
344,204,106827,5,4,1:0:8:0:
328,196,106911,1,4,1:0:8:0:
312,192,106994,1,4,1:0:8:0:
296,192,107077,1,4,1:0:8:0:
280,196,107161,1,4,1:0:8:0:
456,304,107327,5,8,1:0:8:0:
464,288,107411,1,8,1:0:8:0:
468,272,107494,1,8,1:0:8:0:
468,256,107577,1,8,1:0:8:0:
464,240,107661,1,8,1:0:8:0:
448,72,107827,5,2,1:0:9:0:
428,88,107911,1,2,1:0:9:0:
400,100,107994,1,2,1:0:9:0:
368,96,108077,1,2,1:0:9:0:
344,76,108161,1,2,1:0:9:0:
320,48,108244,1,2,1:0:9:0:
292,36,108327,1,2,1:0:9:0:
256,40,108411,1,2,1:0:9:0:
232,64,108494,1,2,1:0:9:0:
168,224,108661,5,2,1:0:9:0:
144,184,108744,1,2,1:0:9:0:
120,144,108827,1,2,1:0:9:0:
96,104,108911,1,2,1:0:9:0:
72,64,108994,5,4,1:0:8:0:
56,260,109161,1,4,1:0:7:0:
268,184,109327,1,8,1:0:7:0:
444,320,109494,5,2,3:0:1:0:
360,296,109661,1,4,3:0:1:0:
296,348,109827,1,8,3:0:1:0:
208,332,109994,1,2,3:0:2:0:
120,360,110161,1,4,3:0:2:0:
88,280,110327,1,8,3:0:2:0:
172,248,110494,1,2,3:0:3:0:
208,332,110661,1,4,3:0:3:0:
88,280,110827,5,8,3:0:3:0:
144,200,110994,1,2,3:0:4:0:
236,236,111161,1,4,3:0:4:0:
324,224,111327,1,8,3:0:4:0:
400,276,111494,1,2,3:0:5:0:
452,200,111661,1,4,3:0:5:0:
376,144,111827,1,8,3:0:5:0:
324,224,111994,1,2,3:0:6:0:
452,200,112161,5,4,3:0:6:0:
356,176,112327,1,8,3:0:6:0:
312,276,112494,1,2,3:0:7:0:
208,300,112661,1,4,3:0:7:0:
112,252,112827,1,8,3:0:7:0:
16,272,112994,1,2,3:0:8:0:
0,168,113161,1,4,3:0:8:0:
96,148,113327,1,8,3:0:8:0:
112,252,113494,5,2,3:0:9:0:
0,168,113661,1,4,3:0:9:0:
72,88,113827,1,8,3:0:9:0:
180,76,113994,1,2,3:0:10:0:
272,140,114161,1,4,3:0:10:0:
300,260,114327,1,8,3:0:10:0:
404,312,114494,1,2,3:0:11:0:
500,252,114661,1,4,3:0:11:0:
500,136,114827,5,8,3:0:11:0:
388,72,114994,1,2,3:0:12:0:
344,216,115161,1,4,3:0:12:0:
476,280,115327,1,8,3:0:12:0:
476,152,115494,1,2,3:0:13:0:
336,108,115661,1,4,3:0:13:0:
320,268,115827,1,8,3:0:13:0:
472,292,115994,1,2,3:0:14:0:
304,172,116161,5,4,3:0:14:0:
188,304,116327,1,8,3:0:14:0:
292,164,116494,1,2,3:0:15:0:
144,252,116661,1,4,3:0:15:0:
284,148,116827,1,8,3:0:15:0:
120,184,116994,1,2,3:0:16:0:
280,128,117161,1,4,3:0:16:0:
120,112,117327,1,8,3:0:16:0:
344,52,117494,5,2,3:0:17:0:
280,236,117661,1,4,3:0:17:0:
256,16,117827,1,8,3:0:17:0:
424,136,117994,1,2,3:0:18:0:
176,112,118161,1,4,3:0:18:0:
436,32,118327,1,8,3:0:18:0:
388,240,118494,1,2,3:0:19:0:
212,192,118661,1,4,3:0:19:0:
360,344,118827,5,8,3:0:19:0:
276,104,118994,1,2,3:0:20:0:
232,324,119161,1,4,3:0:20:0:
356,176,119327,1,8,3:0:20:0:
152,72,119494,2,0,B|96:56|52:80|52:80|16:140|56:192|56:192|112:212|172:184,1,320,2|4,0:0|0:0,0:0:0:0:
248,152,120327,5,8,0:0:0:0:
328,224,120494,2,0,L|320:288,1,60.0000022888184,4|2,0:0|0:0,0:0:0:0:
440,208,120827,2,0,L|432:272,1,60.0000022888184,4|8,0:0|0:0,0:0:0:0:
408,104,121161,1,4,0:0:0:0:
408,104,121327,1,8,0:0:0:0:
272,48,121494,2,0,L|332:32,1,60.0000022888184,4|8,0:0|0:0,0:0:0:0:
336,208,121827,1,4,0:0:0:0:
336,208,121993,1,8,0:0:0:0:
200,152,122160,2,0,L|260:136,1,60.0000022888184,8|4,0:0|0:0,0:0:0:0:
136,264,122494,2,0,L|200:288,1,60.0000022888184,2|8,0:0|0:0,0:0:0:0:
16,288,122827,5,4,0:0:0:0:
0,172,122994,1,8,0:0:0:0:
96,88,123161,2,0,L|88:24,1,60.0000022888184,4|2,0:0|0:0,0:0:0:0:
200,148,123494,2,0,L|212:80,1,60.0000022888184,4|8,0:0|0:0,0:0:0:0:
248,256,123827,1,4,0:0:0:0:
248,256,123994,1,8,0:0:0:0:
388,316,124161,2,0,L|328:328,1,60.0000022888184,4|8,0:0|0:0,0:0:0:0:
308,136,124494,1,4,0:0:0:0:
308,136,124661,1,8,0:0:0:0:
448,196,124828,2,0,L|388:208,1,60.0000022888184,8|4,0:0|0:0,0:0:0:0:
508,100,125161,2,0,L|448:80,1,60.0000022888184,2|8,0:0|0:0,0:0:0:0:
304,40,125494,5,4,0:0:0:0:
192,88,125661,1,8,0:0:0:0:
248,240,125827,2,0,L|240:176,1,60.0000022888184,4|2,0:0|0:0,0:0:0:0:
140,320,126161,2,0,L|132:256,1,60.0000022888184,4|8,0:0|0:0,0:0:0:0:
288,328,126494,1,4,0:0:0:0:
288,328,126661,1,8,0:0:0:0:
388,372,126827,2,0,L|444:352,1,60.0000022888184,4|8,0:0|0:0,0:0:0:0:
288,328,127161,1,4,0:0:0:0:
288,328,127327,1,8,0:0:0:0:
196,280,127494,2,0,L|136:300,1,60.0000022888184,8|4,0:0|0:0,0:0:0:0:
40,192,127827,2,0,L|104:196,1,60.0000022888184,2|8,0:0|0:0,0:0:0:0:
224,156,128161,5,4,0:0:0:0:
304,228,128327,1,8,0:0:0:0:
404,176,128494,2,0,L|472:172,1,60.0000022888184,4|2,0:0|0:0,0:0:0:0:
336,84,128827,2,0,L|400:64,1,60.0000022888184,4|8,0:0|0:0,0:0:0:0:
224,64,129161,1,4,0:0:0:0:
224,64,129327,1,8,0:0:0:0:
136,160,129494,2,0,L|144:228,1,60.0000022888184,4|8,0:0|0:0,0:0:0:0:
232,328,129827,1,4,0:0:0:0:
232,328,129993,1,8,0:0:0:0:
320,232,130160,2,0,L|312:164,1,60.0000022888184,8|4,0:0|0:0,0:0:0:0:
428,160,130494,2,0,L|436:96,1,60.0000022888184,2|8,0:0|0:0,0:0:0:0:
