osu file format v9

[General]
AudioFilename: Tsuioku Merry-Go-Round.mp3
AudioLeadIn: 0
PreviewTime: 65876
Countdown: 1
SampleSet: Soft
StackLeniency: 0.7
Mode: 0
LetterboxInBreaks: 1

[Editor]
DistanceSpacing: 1
BeatDivisor: 4
GridSize: 4

[Metadata]
Title:Tsuioku Merry-Go-Round (TV Size)
Artist:onelifecrew
Creator:kawaii_uguu
Version:Normal
Source:Fairy Tail
Tags:ending 2

[Difficulty]
HPDrainRate:4
CircleSize:3
OverallDifficulty:5
ApproachRate:5
SliderMultiplier:2.2
SliderTickRate:2

[Events]
//Background and Video events
Video,0,"Fairy Tail Ending #2 (Creditless BD).flv"
0,0,"Merry-Go-Round BG.jpg"
//Break Periods
2,16938,21227
//Storyboard Layer 0 (Background)
//Storyboard Layer 1 (Fail)
//Storyboard Layer 2 (Pass)
//Storyboard Layer 3 (Foreground)
//Storyboard Sound Samples
//Background Colour Transformations
3,100,163,162,255

[TimingPoints]
359,689.655172413793,4,2,0,70,1,0
66565,-100,4,1,0,35,0,1
88290,-100,4,2,0,70,0,0
88634,-100,4,2,0,50,0,0
89841,-100,4,2,0,5,0,0

[HitObjects]
40,96,2083,1,0
148,96,2427,1,0
92,192,2772,2,0,B|92:252|168:288,1,110
256,312,3462,1,0
361,278,3807,2,0,B|419:251|419:191,1,110
472,96,4496,6,0,B|396:48|324:160|252:68,1,220
256,192,5531,1,0
348,252,5876,2,0,B|328:312|232:316,2,110
256,192,6910,5,0
256,192,7083,1,0
256,192,7945,5,0
256,304,8290,2,0,B|184:308|136:260,1,110
256,304,8979,2,0,B|287:270|359:274,2,110
256,84,10358,1,0
148,276,11048,5,0
256,300,11393,1,0
364,276,11738,1,0
324,172,12083,2,0,B|292:112|208:116|176:192,1,165
256,192,12772,12,0,15531
256,196,16221,6,0,B|256:80,1,110
256,86,16738,1,0
108,260,22427,5,0
212,292,22772,1,0
256,192,23117,1,0
300,92,23462,1,0
404,124,23807,2,0,B|476:152|452:240,1,110
416,312,24496,6,0,B|344:284|368:196,1,110
256,192,25186,2,0,B|287:262|207:307,1,110
136,344,25876,2,0,B|104:273|184:228,1,110
256,192,26565,1,0
416,48,27255,5,0
256,192,27945,1,0
332,272,28290,1,0
256,192,28634,2,0,B|228:120|96:152|84:48,1,220
424,64,30014,2,0,B|416:152|284:120|256:192,1,220
256,300,31048,5,0
340,232,31393,1,0
448,228,31738,1,0
444,336,32083,2,0,B|372:252|400:112,2,220
256,224,34152,5,0
220,120,34496,1,0
132,52,34841,1,0
80,148,35186,2,0,B|64:208|132:276,2,110
132,52,36221,1,0
256,224,36910,5,0
292,120,37254,1,0
380,52,37599,1,0
432,148,37944,2,0,B|448:208|380:276,2,110
380,52,38979,1,0
196,172,39669,6,0,B|192:276|320:224|324:336,1,220
420,276,40703,1,0
424,168,41048,1,0
316,172,41393,1,0
256,68,41738,1,0
316,172,42083,6,0,B|320:276|192:224|188:336,1,220
92,276,43117,1,0
88,168,43462,1,0
196,172,43807,1,0
256,68,44152,1,0
256,192,44496,12,0,45876
340,144,46565,5,0
440,192,46910,1,0
340,240,47255,2,0,B|276:236|252:308,1,110
360,332,47945,1,0
256,297,48290,2,0,B|236:236|172:240,1,110
152,332,48979,1,0
256,296,49324,6,0,B|304:220|216:128|268:56,3,220
468,144,52083,1,0
368,192,52427,1,0
256,192,52772,1,0
144,192,53117,1,0
44,144,53461,1,0
52,252,53807,6,0,B|84:132|192:64,1,220
256,152,54841,1,0
336,75,55186,2,0,B|428:132|460:252,2,220
256,152,56910,1,0
200,364,57600,6,0,B|256:328|316:368,2,110
148,268,58634,1,0
256,248,58979,1,0
364,268,59324,1,0
448,196,59669,1,0
256,88,60358,1,0
80,220,61048,6,0,B|72:152|112:108,2,110
192,220,62083,2,0,B|184:288|224:332,2,110
320,220,63117,2,0,B|328:288|294:324,2,110
432,220,64152,2,0,B|440:152|406:115,2,110
256,92,65531,1,0
204,312,66565,6,0,B|324:312,1,110
360,212,67255,1,0
360,212,67427,1,0
256,84,67945,1,0
152,212,68462,1,0
152,212,68634,1,0
256,176,68979,6,0,B|256:304,2,110
200,80,70014,2,0,B|256:48|332:92,1,110
352,180,70703,1,0
420,264,71048,1,0
476,356,71393,1,0
476,356,72083,6,0,B|376:308|244:324,1,220
156,360,73117,1,0
261,322,73462,2,0,B|309:222|293:90,1,220
204,44,74496,1,0
96,28,74841,1,0
48,128,75186,1,0
200,288,75876,6,0,B|256:328|256:252|324:308,2,110
180,60,77255,1,0
256,140,77600,1,0
332,60,77945,1,0
256,140,78290,6,0,B|256:192|200:248,1,110
256,139,78979,2,0,B|308:139|364:195,1,110
256,140,79669,2,0,B|219:176|140:176,1,110
204,276,80358,6,0,B|256:312|324:268,2,110
156,176,81393,1,0
256,140,81738,1,0
356,176,82083,1,0
256,140,82427,5,0
256,360,83117,2,0,B|380:344|416:212,1,220
304,252,84152,1,0
256,360,84496,2,0,B|132:344|96:212,1,220
208,252,85531,1,0
256,152,85876,2,0,B|216:108|304:108|244:36,2,110
256,192,86910,12,0,90014
