osu file format v9

[General]
AudioFilename: Tsuioku Merry-Go-Round.mp3
AudioLeadIn: 0
PreviewTime: 65876
Countdown: 1
SampleSet: Soft
StackLeniency: 0.7
Mode: 0
LetterboxInBreaks: 1

[Editor]
DistanceSpacing: 1
BeatDivisor: 4
GridSize: 4

[Metadata]
Title:Tsuioku Merry-Go-Round (TV Size)
Artist:onelifecrew
Creator:kawaii_uguu
Version:Hard
Source:Fairy Tail
Tags:ending 2

[Difficulty]
HPDrainRate:7
CircleSize:5
OverallDifficulty:7
ApproachRate:7
SliderMultiplier:2.6
SliderTickRate:2

[Events]
//Background and Video events
Video,0,"Fairy Tail Ending #2 (Creditless BD).flv"
0,0,"Merry-Go-Round BG.jpg"
//Break Periods
2,16938,21527
//Storyboard Layer 0 (Background)
//Storyboard Layer 1 (Fail)
//Storyboard Layer 2 (Pass)
//Storyboard Layer 3 (Foreground)
//Storyboard Sound Samples
//Background Colour Transformations
3,100,163,162,255

[TimingPoints]
359,689.655172413793,4,2,0,70,1,0
66565,-100,4,1,0,35,0,1
88290,-100,4,2,0,70,0,0
88634,-100,4,2,0,50,0,0
89841,-100,4,2,0,5,0,0

[HitObjects]
24,240,2083,1,0
80,360,2427,1,0
136,240,2772,1,0
264,240,3117,2,0,B|264:312|280:328|408:328|424:312|424:232,1,260
348,132,4152,1,0
348,132,4324,1,0
296,168,4496,6,0,B|272:104|280:16,1,130
416,40,5186,2,0,B|422:103|398:167,1,130
304,256,5876,2,0,B|268:312|252:284|232:256|176:320,2,130
256,136,6910,1,0
256,136,7083,1,0
216,192,7255,6,0,B|136:200|64:152,1,130
32,288,7945,2,0,B|0:208|24:120,1,130
32,32,8634,1,0
32,32,8979,6,0,B|144:40|272:168,1,260
304,200,9841,1,0
256,248,10014,1,0
208,200,10186,1,0
255,152,10358,2,0,B|312:96|408:96,1,130
440,208,11048,5,0
440,272,11221,1,0
384,240,11393,1,0
440,208,11565,1,0
440,144,11738,2,0,B|376:112|304:112,1,130
256,232,12427,1,0
256,296,12600,5,0
197,112,12945,2,0,B|136:112|72:144,1,130
72,208,13462,1,0
128,240,13634,1,0
72,272,13807,2,0,B|80:352|208:368,1,130
256,192,14324,12,0,15876
224,192,16221,5,0
288,192,16393,1,0
256,64,16738,1,0
256,192,22427,5,0
128,192,22772,2,0,B|128:112|176:64,1,130
128,192,23462,1,0
128,192,23634,2,0,B|128:272|176:320,1,130
232,328,24152,1,0
288,296,24324,1,0
288,232,24496,1,0
216,128,24841,6,0,B|280:88,1,65
304,152,25186,2,0,B|248:184,1,65
200,228,25531,1,0
136,236,25703,1,0
76,208,25876,2,0,B|56:136|88:64,1,130
144,104,26393,1,0
144,104,26565,2,0,B|212:116|276:68,1,130
380,8,27255,5,0
256,0,27600,2,0,B|216:56|220:172,1,130
256,248,28290,1,0
291,123,28634,2,0,B|296:56|256:0,1,130
228,60,29152,1,0
228,60,29324,2,0,B|228:128|180:172|108:216|108:324,1,260
176,288,30186,1,0
176,288,30358,2,0,B|179:216|107:172|59:128|59:60,1,260
124,64,31221,5,0
176,24,31393,1,0
256,124,31738,2,0,B|256:48,1,65
336,24,32255,1,0
388,64,32427,1,0
388,196,32772,5,0
388,260,32945,1,0
324,260,33117,1,0
256,124,33462,2,0,B|256:48,2,65
188,260,34152,1,0
124,260,34324,1,0
124,196,34496,1,0
124,64,34841,6,0,B|200:64,1,65
192,128,35186,2,0,B|124:128,1,65
60,128,35531,1,0
4,96,35703,1,0
60,64,35876,1,0
192,64,36221,5,0
192,192,36565,2,0,B|192:256|272:312,1,130
300,252,37083,1,0
320,192,37255,1,0
256,204,37427,1,0
256,300,37600,6,0,B|320:256|320:192,1,130
316,64,38290,1,0
288,124,38462,1,0
224,124,38634,1,0
196,64,38806,1,0
256,44,38979,5,0
256,44,39324,2,0,B|256:180|256:188|256:200|172:284,1,260
132,232,40186,1,0
112,172,40359,1,0
256,44,40703,1,0
256,44,41048,2,0,B|256:180|256:188|256:200|340:284,1,260
380,232,41910,1,0
400,172,42083,1,0
396,44,42427,5,0
256,148,42772,1,0
116,44,43117,1,0
48,152,43462,2,0,B|132:144|196:196|196:284|144:360,1,260
104,296,44324,1,0
104,296,44496,2,0,B|76:224|152:92|344:120|408:256|340:348|256:432|172:348|104:256|168:120|360:92|436:224|408:296,1,780
352,260,46738,5,0
360,196,46910,1,0
312,76,47255,2,0,B|256:108|256:108|200:76,2,130
256,192,48290,1,0
200,76,48634,2,0,B|216:164|124:176,1,130
84,208,49152,1,0
24,236,49324,2,0,B|8:148|100:136,1,130
200,76,50014,6,0,B|256:108|256:108|312:76,2,130
160,24,50876,1,0
224,12,51048,1,0
288,12,51221,1,0
352,24,51393,2,0,B|448:96|440:300,1,260
312,240,52427,5,0
256,208,52600,1,0
200,240,52772,1,0
120,136,53117,2,0,B|48:172|48:248,1,130
463,236,53807,2,0,B|464:172|392:136,1,130
256,76,54496,1,0
256,76,54841,6,0,B|192:148|256:192|324:248|236:344,1,260
216,264,55703,1,0
184,208,55876,1,0
172,144,56048,1,0
180,80,56221,1,0
212,24,56393,1,0
256,76,56565,2,0,B|300:132|396:180|512:148,1,260
412,48,57600,5,0
352,24,57772,1,0
288,20,57945,1,0
288,152,58290,2,0,B|348:216|256:332|164:216|232:148,1,260
224,20,59324,1,0
160,24,59497,1,0
100,48,59669,1,0
92,176,60014,5,0
136,224,60186,1,0
180,176,60358,1,0
332,176,60703,1,0
376,224,60875,1,0
420,176,61047,5,0
420,44,61393,1,0
420,112,61565,1,0
364,80,61738,1,0
256,8,62083,2,0,B|256:140,1,130
148,80,62772,1,0
92,112,62945,1,0
92,44,63117,1,0
36,164,63462,5,0
256,340,63807,1,0
476,164,64152,1,0
164,216,64496,1,0
256,16,64841,1,0
348,216,65186,1,0
256,120,65531,1,0
256,120,65876,5,0
256,252,66221,1,0
256,188,66393,1,0
256,120,66565,2,0,B|288:36|184:8,1,130
192,80,67083,1,0
180,144,67255,1,0
176,208,67427,2,0,B|144:292|248:320,1,130
288,304,67945,5,0
328,252,68117,1,0
276,212,68290,1,0
304,152,68462,1,0
256,108,68634,1,0
168,19,68979,6,0,B|240:51|268:139,1,130
208,152,69496,1,0
255,109,69669,2,0,B|272:51|344:19,1,130
304,152,70358,1,0
304,216,70531,1,0
256,260,70703,1,0
256,108,71048,5,0
256,260,71393,1,0
208,216,71565,1,0
208,152,71738,1,0
80,176,72083,1,0
80,176,72255,2,0,B|79:100|169:62,1,130
208,48,72772,5,0
304,152,73117,1,0
256,196,73290,1,0
208,152,73462,1,0
304,48,73807,2,0,B|384:48,1,65
436,48,74152,1,0
436,112,74324,2,0,B|436:188,1,65
388,296,74841,2,0,B|392:248|480:248|484:300,2,130
124,296,75876,2,0,B|120:248|32:248|28:300,2,130
256,296,76910,5,0
228,236,77083,1,0
280,192,77255,1,0
256,132,77427,1,0
256,68,77600,2,0,B|168:84|204:176,2,130
376,116,78634,5,0
436,144,78807,1,0
436,208,78979,2,0,B|416:284|340:360,1,130
312,312,79496,2,0,B|268:228,1,65
256,192,79841,1,0
212,144,80014,2,0,B|168:60,1,65
256,72,80358,5,0
256,312,80703,1,0
330,86,81048,2,0,B|300:144,1,65
256,192,81393,1,0
220,248,81565,2,0,B|189:305,1,65
256,312,81910,1,0
320,312,82083,6,0,B|412:312|412:224,1,130
448,188,82600,1,0
448,124,82772,2,0,B|359:123|359:195,1,130
296,196,83290,2,0,B|256:148|256:148|208:200,1,130
256,244,83807,1,0
256,244,83979,2,0,B|256:328|164:364,1,130
168,288,84496,2,0,B|228:256|280:336|360:280,1,195
384,228,85186,1,0
368,100,85531,5,0
304,100,85703,1,0
256,56,85876,1,0
208,100,86048,1,0
144,100,86220,1,0
136,228,86565,2,0,B|212:164|324:299|392:219,2,260
256,192,88117,12,0,90014
