osu file format v14

[General]
AudioFilename: op.mp3
AudioLeadIn: 0
PreviewTime: 45743
Countdown: 0
SampleSet: Soft
StackLeniency: 0.4
Mode: 0
LetterboxInBreaks: 0
WidescreenStoryboard: 0

[Editor]
Bookmarks: 81813,82349
DistanceSpacing: 1.3
BeatDivisor: 4
GridSize: 4
TimelineZoom: 4.299998

[Metadata]
Title:Munou (TV edit)
TitleUnicode:無能 (TV edit)
Artist:oesterreich
ArtistUnicode:österreich
Creator:Citrus
Version:Insane
Source:東京喰種トーキョーグール√A
Tags:Tokyo Ghoul root 鎌野愛
BeatmapID:629007
BeatmapSetID:264163

[Difficulty]
HPDrainRate:6
CircleSize:4.7
OverallDifficulty:7
ApproachRate:8
SliderMultiplier:0.84
SliderTickRate:1

[Events]
//Background and Video events
0,0,"ModifiedBG.jpg",0,0
//Break Periods
//Storyboard Layer 0 (Background)
//Storyboard Layer 1 (Fail)
//Storyboard Layer 2 (Pass)
//Storyboard Layer 3 (Foreground)
//Storyboard Sound Samples

[TimingPoints]
210,357.142857142857,7,2,1,50,1,0
2709,357.142857142857,6,2,1,50,1,0
4851,357.142857142857,7,2,1,50,1,0
7350,357.142857142857,5,2,1,50,1,0
13777,357.142857142857,7,2,1,50,1,0
16280,357.142857142857,5,2,1,50,1,0
16458,-100,5,2,1,40,0,0
16815,-100,5,2,1,50,0,0
18066,357.142857142857,7,2,1,50,1,0
20566,357.142857142857,6,2,1,50,1,0
22708,357.142857142857,7,2,1,50,1,0
25208,357.142857142857,4,2,1,50,1,0
27350,-100,4,2,1,30,0,0
28065,-100,4,2,1,50,0,0
34493,-100,4,2,1,40,0,0
35208,-100,4,2,1,50,0,0
43065,357.142857142857,6,2,1,50,1,0
45923,357.142857142857,7,2,1,50,1,1
48423,357.142857142857,6,2,1,50,1,1
50565,357.142857142857,7,2,1,50,1,1
53065,357.142857142857,6,2,1,50,1,1
55208,357.142857142857,4,2,1,50,1,1
61993,-100,4,2,1,40,0,1
62350,357.142857142857,3,2,1,50,1,1
63421,357.142857142857,5,2,1,50,1,1
65208,357.142857142857,6,2,1,50,1,1
67350,357.142857142857,7,2,1,50,1,1
69850,357.142857142857,4,2,1,50,1,1
74135,357.142857142857,3,2,1,50,1,1
75206,-100,4,2,1,60,0,0
75742,357.142857142857,7,2,1,50,1,0
78242,357.142857142857,4,2,1,50,1,0
81099,357.142857142857,5,2,1,50,1,0
82884,357.142857142857,4,2,1,40,1,0
83776,-100,5,2,1,50,0,0
84134,357.142857142857,6,2,1,50,1,0
86276,-100,6,2,1,30,0,0

[Colours]
Combo1 : 255,0,0
Combo2 : 128,128,128
Combo3 : 201,201,201

[HitObjects]
355,320,4851,6,0,L|396:323,1,42,4|0,0:1|0:0,0:0:0:0:
258,239,5208,2,0,L|299:242,1,42,2|0,0:0|0:0,0:0:0:0:
202,160,5565,2,0,P|162:172|122:160,1,84,8|0,0:0|0:0,0:0:0:0:
376,40,6101,1,0,0:0:0:0:
376,40,6190,1,0,0:0:0:0:
376,40,6279,2,0,L|372:84,1,42
202,160,6636,2,0,P|162:172|122:160,1,84,2|8,0:0|0:0,0:0:0:0:
160,48,7350,6,0,L|164:92,1,42
356,236,7707,2,0,L|352:280,2,42,2|0|8,0:0|0:0|0:0,0:0:0:0:
356,236,8421,21,0,0:0:0:0:
370,205,8689,1,2,0:0:0:0:
384,175,8957,1,8,0:0:0:0:
420,332,9135,5,0,0:0:0:0:
325,307,9314,1,0,0:0:0:0:
326,319,9403,1,0,0:0:0:0:
328,331,9492,1,0,0:0:0:0:
233,336,9670,1,0,0:0:0:0:
138,311,9849,1,8,0:0:0:0:
138,311,10384,21,8,0:0:0:0:
207,243,10563,2,0,P|218:201|201:163,1,84,2|0,0:0|0:0,0:0:0:0:
149,85,11099,2,0,L|108:80,2,42,0|8|0,0:0|0:0|0:0,0:0:0:0:
375,229,11813,5,0,0:0:0:0:
375,229,11992,2,0,L|334:224,1,42,2|0,0:0|0:0,0:0:0:0:
262,157,12349,2,0,L|221:152,1,42,8|0,0:0|0:0,0:0:0:0:
108,80,12884,21,0,0:0:0:0:
108,80,13063,2,0,L|149:75,1,42,2|0,0:0|0:0,0:0:0:0:
239,114,13420,2,0,L|280:109,1,42,0|8,0:0|0:0,0:0:0:0:
101,74,13777,6,0,L|142:69,1,42
232,108,14134,2,0,L|273:103,1,42,0|0,0:0|0:0,0:0:0:0:
363,142,14491,1,8,0:0:0:0:
363,142,14669,2,0,P|374:102|363:62,1,84,2|0,0:0|0:0,0:0:0:0:
322,232,15205,22,0,L|364:226,1,42
260,309,15562,2,0,L|302:315,2,42,0|0|8,0:0|0:0|0:0,0:0:0:0:
174,355,16098,1,0,0:0:0:0:
174,355,16280,5,0,0:0:0:0:
103,277,16458,2,0,L|100:293,2,14,0|0|0,1:0|1:0|1:0,0:0:0:0:
39,196,16815,1,0,0:0:0:0:
39,196,17172,1,0,0:0:0:0:
48,100,17351,21,8,0:0:0:0:
192,112,17619,1,8,0:0:0:0:
316,36,17887,1,8,0:0:0:0:
316,36,18066,6,0,P|339:69|337:111,1,84,4|0,0:1|0:0,0:0:0:0:
298,199,18601,1,2,0:0:0:0:
298,199,18780,2,0,L|254:196,1,42,8|0,0:0|0:0,0:0:0:0:
177,252,19137,1,0,0:0:0:0:
177,252,19316,1,0,0:0:0:0:
382,307,19494,1,0,0:0:0:0:
382,307,19673,1,8,0:0:0:0:
173,270,19851,21,0,0:0:0:0:
385,288,20030,1,2,0:0:0:0:
169,288,20208,1,0,0:0:0:0:
388,269,20387,1,0,0:0:0:0:
293,345,20566,6,0,L|284:303,1,42
146,109,20923,2,0,L|155:67,2,42,0|0|8,0:0|0:0|0:0,0:0:0:0:
155,68,21637,22,0,L|146:26,1,42
121,174,21994,1,2,0:0:0:0:
297,42,22173,1,0,0:0:0:0:
114,155,22351,1,8,0:0:0:0:
304,60,22530,1,0,0:0:0:0:
107,136,22708,5,0,0:0:0:0:
107,136,22886,1,0,0:0:0:0:
311,78,23065,1,8,0:0:0:0:
311,78,23243,1,0,0:0:0:0:
220,129,23422,22,0,P|218:150|223:171,1,42,0|8,0:0|0:0,0:0:0:0:
424,85,23958,1,0,0:0:0:0:
424,85,24136,2,0,P|426:64|421:43,1,42
371,167,24493,2,0,P|366:187|368:208,1,42,8|0,0:0|0:0,0:0:0:0:
390,303,24850,1,8,0:0:0:0:
390,303,25208,6,0,L|343:300,1,42
319,319,25475,2,0,L|254:315,1,63,8|0,0:0|0:0,0:0:0:0:
193,233,25922,2,0,L|129:229,2,63,0|2|0,0:0|0:0|0:0,0:0:0:0:
222,214,26547,1,0,0:0:0:0:
251,195,26636,2,0,L|313:191,2,63,10|0|0,0:0|0:0|0:0,0:0:0:0:
109,71,27350,5,0,1:0:0:0:
110,87,27440,1,0,1:0:0:0:
112,104,27529,1,0,1:0:0:0:
114,121,27618,1,0,1:0:0:0:
116,137,27708,1,0,1:0:0:0:
118,154,27797,1,0,1:0:0:0:
120,171,27886,1,0,1:0:0:0:
121,187,27975,1,0,1:0:0:0:
123,204,28065,6,0,P|84:192|44:208,2,84,2|0|8,0:0|0:0|0:0,0:0:0:0:
123,204,29136,1,0,0:0:0:0:
123,204,29493,2,0,P|162:216|202:200,2,84,0|0|8,0:0|0:0|0:0,0:0:0:0:
282,116,30565,2,0,B|290:84|290:84|354:132|414:84,1,168,2|0,0:0|0:0,0:0:0:0:
414,84,31636,2,0,P|402:123|418:163,1,84,8|0,0:0|0:0,0:0:0:0:
455,251,32172,1,0,0:0:0:0:
455,251,32350,6,0,P|414:243|373:251,1,84,2|0,0:0|0:0,0:0:0:0:
373,251,33065,2,0,P|413:259|457:251,1,84,8|0,0:0|0:0,0:0:0:0:
455,251,33779,2,0,P|414:243|373:251,1,84,2|0,0:0|0:0,0:0:0:0:
288,296,34315,1,8,0:0:0:0:
212,237,34493,22,0,L|220:213,7,21,2|2|2|2|2|2|2|2,0:0|0:0|0:0|0:0|0:0|0:0|0:0|0:0,0:0:0:0:
187,260,35208,2,0,P|145:267|104:259,2,84,2|8|8,0:0|0:0|0:0,0:0:0:0:
325,124,36100,2,0,P|366:116|407:124,1,84,2|8,0:0|0:0,0:0:0:0:
473,194,36636,6,0,L|479:170,3,21,2|2|2|2,0:0|0:0|0:0|0:0,0:0:0:0:
451,219,36993,2,0,L|461:268,1,42,0|8,0:0|0:0,0:0:0:0:
403,339,37350,2,0,P|362:347|321:339,1,84
276,253,37886,2,0,P|235:261|194:253,1,84,8|0,0:0|0:0,0:0:0:0:
149,167,38422,2,0,P|108:175|67:167,2,84,8|0|0,0:0|0:0|0:0,0:0:0:0:
226,110,39315,1,8,0:0:0:0:
307,11,39493,22,0,L|302:51,1,42,0|2,0:0|0:0,0:0:0:0:
445,244,39850,2,0,L|449:203,1,42,0|8,0:0|0:0,0:0:0:0:
430,54,40207,2,0,P|425:75|414:92,1,42,0|2,0:0|0:0,0:0:0:0:
345,160,40565,2,0,P|328:172|307:177,1,42,8|0,0:0|0:0,0:0:0:0:
213,202,40922,6,0,L|210:181,3,21,2|2|2|2,0:0|0:0|0:0|0:0,0:0:0:0:
232,230,41279,2,0,L|226:280,1,42,0|8,0:0|0:0,0:0:0:0:
172,352,41636,2,0,P|131:362|93:346,1,84,0|2,0:0|0:0,0:0:0:0:
93,346,42172,1,8,0:0:0:0:
28,276,42350,1,8,0:0:0:0:
28,276,42529,1,0,0:0:0:0:
81,99,42707,1,0,0:0:0:0:
81,99,42886,1,2,0:0:0:0:
256,40,43065,22,0,P|269:80|258:120,1,84,4|0,0:1|0:0,0:0:0:0:
385,274,43600,2,0,P|344:265|316:236,1,84,4|0,0:1|0:0,0:0:0:0:
119,267,44136,2,0,P|146:236|187:226,1,84,4|2,0:1|0:0,0:0:0:0:
256,156,44672,1,0,0:0:0:0:
256,156,44850,2,0,L|249:114,1,42,0|2,0:0|0:0,0:0:0:0:
388,24,45207,21,0,0:0:0:0:
444,104,45386,1,0,0:0:0:0:
443,120,45475,1,0,0:0:0:0:
441,137,45565,2,0,L|436:182,1,42,0|2,0:0|0:0,0:0:0:0:
185,304,45923,22,0,P|225:316|263:300,1,84,4|0,0:0|0:0,0:0:0:0:
441,137,46458,2,0,L|436:182,2,42,0|8|0,0:0|0:0|0:0,0:0:0:0:
348,219,46994,2,0,L|352:260,1,42,8|8,0:0|0:0,0:0:0:0:
262,300,47351,22,0,P|224:316|185:304,1,84
348,219,47887,1,0,0:0:0:0:
348,219,48065,2,0,L|389:221,1,42,8|0,0:0|0:0,0:0:0:0:
291,140,48423,6,0,P|282:106|289:79,2,63,8|0|0,0:0|0:0|0:0,0:0:0:0:
348,219,49137,1,0,0:0:0:0:
348,219,49315,1,8,0:0:0:0:
348,219,49494,2,0,L|416:215,2,63,0|0|0,0:0|0:0|0:0,0:0:0:0:
199,330,50208,1,8,0:0:0:0:
199,330,50565,21,4,0:0:0:0:
136,256,50743,2,0,P|122:216|145:171,2,84,0|8|0,0:0|0:0|0:0,0:0:0:0:
199,330,51636,2,0,L|252:336,1,42,0|8,0:0|0:0,0:0:0:0:
412,170,51993,2,0,L|453:165,1,42,0|0,0:0|0:0,0:0:0:0:
383,151,52350,5,8,0:0:0:0:
354,132,52707,1,8,0:0:0:0:
325,113,53065,2,0,L|230:127,1,84,0|8,0:0|0:0,0:0:0:0:
150,95,53600,2,0,B|135:89|135:89|115:62|126:24,1,84,4|0,0:0|0:0,0:0:0:0:
83,165,54136,2,0,B|98:171|98:171|118:198|107:236,1,84,12|0,0:0|0:0,0:0:0:0:
78,328,54672,1,0,0:0:0:0:
78,328,54850,1,8,0:0:0:0:
78,328,55208,21,4,0:0:0:0:
170,298,55386,1,0,0:0:0:0:
262,268,55565,2,0,L|348:284,2,84,8|0|8,0:0|0:0|0:0,0:0:0:0:
240,92,56458,2,0,P|223:78|204:71,1,42,0|0,0:0|0:0,0:0:0:0:
195,168,56815,22,0,P|222:180|270:170,2,63,2|2|2,0:0|0:0|0:0,0:0:0:0:
112,116,57529,22,0,P|95:155|99:195,1,84,8|0,0:0|0:0,0:0:0:0:
151,277,58065,2,0,P|167:290|186:297,2,42,0|0|8,0:0|0:0|0:0,0:0:0:0:
376,64,58779,1,0,0:0:0:0:
453,200,58958,1,0,0:0:0:0:
464,104,59136,1,8,0:0:0:0:
358,219,59315,21,0,0:0:0:0:
341,214,59404,1,0,0:0:0:0:
325,211,59493,2,0,P|284:212|252:240,1,84,4|8,0:0|0:0,0:0:0:0:
304,92,60029,2,0,P|345:91|377:63,1,84,4|0,0:0|0:0,0:0:0:0:
208,92,60565,2,0,P|140:100|112:148,1,126,12|8,0:0|0:0,0:0:0:0:
112,162,61190,1,8,0:0:0:0:
112,179,61279,1,8,0:0:0:0:
152,267,61458,1,8,0:0:0:0:
249,273,61636,6,0,L|247:245,2,28,8|8|8,0:0|0:0|0:0,0:0:0:0:
319,200,61993,2,0,L|321:170,2,28,8|8|8,0:0|0:0|0:0,0:0:0:0:
396,135,62350,2,0,P|356:149|318:138,1,84,4|0,0:0|0:0,0:0:0:0:
117,97,62885,2,0,P|157:83|195:94,1,84,4|0,0:0|0:0,0:0:0:0:
396,135,63421,2,0,P|379:145|358:149,1,42,4|0,0:0|0:0,0:0:0:0:
340,149,63688,1,0,0:0:0:0:
323,146,63778,1,0,0:0:0:0:
234,109,63956,1,0,0:0:0:0:
186,25,64135,1,8,0:0:0:0:
186,25,64492,21,4,0:0:0:0:
105,77,64671,1,0,0:0:0:0:
105,77,64760,1,0,0:0:0:0:
105,77,64849,1,0,0:0:0:0:
129,170,65028,1,0,0:0:0:0:
224,175,65208,2,0,P|223:154|216:134,1,42,8|0,0:0|0:0,0:0:0:0:
350,334,65565,2,0,P|356:314|357:293,1,42,0|0,0:0|0:0,0:0:0:0:
467,190,65922,6,0,P|446:194|427:204,1,42
283,160,66279,2,0,P|297:175|315:186,2,42,0|0|8,0:0|0:0|0:0,0:0:0:0:
139,31,66993,2,0,P|154:70|143:110,1,84
88,189,67528,1,0,0:0:0:0:
88,189,67617,1,0,0:0:0:0:
88,189,67707,2,0,L|95:230,2,42,0|0|8,0:0|0:0|0:0,0:0:0:0:
63,254,68421,22,0,L|55:295,1,42
0,180,68778,1,0,0:0:0:0:
0,180,68957,1,0,0:0:0:0:
99,82,69135,1,0,0:0:0:0:
99,82,69314,1,0,0:0:0:0:
184,128,69492,2,0,P|224:140|264:128,1,84,8|0,0:0|0:0,0:0:0:0:
349,82,70028,5,0,0:0:0:0:
351,65,70117,1,0,0:0:0:0:
353,48,70207,1,0,0:0:0:0:
420,147,70385,1,0,0:0:0:0:
420,147,70564,2,0,P|436:185|428:226,1,84,8|0,0:0|0:0,0:0:0:0:
396,316,71100,1,0,0:0:0:0:
302,294,71278,2,0,L|218:306,2,84,0|0|8,0:0|0:0|0:0,0:0:0:0:
302,294,72528,21,0,0:0:0:0:
302,294,72707,1,0,0:0:0:0:
256,209,72885,1,0,0:0:0:0:
256,209,72975,1,0,0:0:0:0:
256,209,73064,1,0,0:0:0:0:
108,209,73242,1,0,0:0:0:0:
168,285,73421,2,0,P|197:291|223:282,1,56,8|8,0:0|0:0,0:0:0:0:
386,165,73957,5,0,0:0:0:0:
386,165,74135,2,0,P|357:171|331:162,1,56,0|0,0:0|0:0,0:0:0:0:
246,27,74670,2,0,L|256:68,1,42,8|0,0:0|0:0,0:0:0:0:
256,336,75206,1,0,0:0:0:0:
256,336,75742,21,0,0:0:0:0:
252,319,75831,1,0,0:0:0:0:
248,303,75920,1,2,0:0:0:0:
295,218,76099,1,0,0:0:0:0:
342,133,76277,1,0,0:0:0:0:
342,133,76456,2,0,P|303:143|264:128,1,84,2|0,0:0|0:0,0:0:0:0:
192,62,76992,1,0,0:0:0:0:
192,62,77349,5,0,0:0:0:0:
31,112,77527,1,2,0:0:0:0:
31,112,77884,1,0,0:0:0:0:
31,112,78242,22,0,L|74:106,1,42
151,163,78599,2,0,L|194:157,1,42
271,214,78956,1,2,0:0:0:0:
271,214,79313,6,0,P|291:216|314:212,1,42
448,88,79670,2,0,P|450:67|446:44,2,42,0|0|2,0:0|0:0|0:0,0:0:0:0:
417,180,80206,21,4,0:0:0:0:
359,258,80384,1,8,0:0:0:0:
359,258,80474,1,8,0:0:0:0:
359,258,80563,1,8,0:0:0:0:
171,216,80742,1,8,0:0:0:0:
359,258,80920,1,8,0:0:0:0:
171,216,81099,6,0,B|157:209|157:209|142:179|158:143,1,84,0|8,0:0|0:0,0:0:0:0:
329,59,81634,2,0,P|349:55|371:59,2,42,0|8|0,0:0|0:0|0:0,0:0:0:0:
158,143,82170,2,0,P|137:146|115:142,2,42,0|4|0,0:0|0:0|0:0,0:0:0:0:
158,143,82706,21,0,0:0:0:0:
233,81,82884,1,0,1:0:0:0:
237,65,82973,1,0,1:0:0:0:
241,49,83062,1,0,1:0:0:0:
158,143,83241,1,0,1:0:0:0:
83,205,83419,1,0,1:0:0:0:
87,221,83509,1,0,1:0:0:0:
91,237,83598,1,0,1:0:0:0:
187,288,83776,5,0,1:0:0:0:
283,339,83955,1,0,0:0:0:0:
283,339,84134,2,0,L|276:296,1,42,2|0,0:0|0:0,0:0:0:0:
421,179,84491,2,0,L|428:138,1,42,2|0,0:0|0:0,0:0:0:0:
315,358,84848,2,0,L|308:315,1,42,8|0,0:0|0:0,0:0:0:0:
453,198,85205,2,0,L|459:156,1,42,0|2,0:0|0:0,0:0:0:0:
398,80,85562,21,2,0:0:0:0:
313,126,85741,1,8,0:0:0:0:
217,122,85919,1,0,0:0:0:0:
301,165,86098,1,2,0:0:0:0:
352,247,86276,1,8,0:0:0:0:
