osu file format v14

[General]
AudioFilename: op.mp3
AudioLeadIn: 0
PreviewTime: 45743
Countdown: 0
SampleSet: Soft
StackLeniency: 0.4
Mode: 0
LetterboxInBreaks: 0
WidescreenStoryboard: 0

[Editor]
DistanceSpacing: 1.3
BeatDivisor: 4
GridSize: 4
TimelineZoom: 4.899997

[Metadata]
Title:Munou (TV edit)
TitleUnicode:無能 (TV edit)
Artist:oesterreich
ArtistUnicode:österreich
Creator:Citrus
Version:Hard
Source:東京喰種トーキョーグール√A
Tags:Tokyo Ghoul root 鎌野愛
BeatmapID:617337
BeatmapSetID:264163

[Difficulty]
HPDrainRate:5
CircleSize:4
OverallDifficulty:5
ApproachRate:7
SliderMultiplier:0.74
SliderTickRate:1

[Events]
//Background and Video events
0,0,"ModifiedBG.jpg",0,0
//Break Periods
//Storyboard Layer 0 (Background)
//Storyboard Layer 1 (Fail)
//Storyboard Layer 2 (Pass)
//Storyboard Layer 3 (Foreground)
//Storyboard Sound Samples

[TimingPoints]
210,357.142857142857,7,2,1,50,1,0
2709,357.142857142857,6,2,1,50,1,0
4851,357.142857142857,7,2,1,50,1,0
7350,357.142857142857,5,2,1,50,1,0
13777,357.142857142857,7,2,1,50,1,0
16280,357.142857142857,5,2,1,50,1,0
18066,357.142857142857,7,2,1,50,1,0
20566,357.142857142857,6,2,1,50,1,0
22708,357.142857142857,7,2,1,50,1,0
25208,357.142857142857,4,2,1,50,1,0
27350,-100,4,2,1,30,0,0
28065,-100,4,2,1,50,0,0
43065,357.142857142857,6,2,1,50,1,0
45923,357.142857142857,7,2,1,50,1,1
48423,357.142857142857,6,2,1,50,1,1
50565,357.142857142857,7,2,1,50,1,1
53065,357.142857142857,6,2,1,50,1,1
55208,357.142857142857,4,2,1,50,1,1
61993,-100,4,2,1,40,0,1
62350,357.142857142857,3,2,1,50,1,1
63421,357.142857142857,5,2,1,50,1,1
65208,357.142857142857,6,2,1,50,1,1
67350,357.142857142857,7,2,1,50,1,1
69850,357.142857142857,4,2,1,50,1,1
74135,357.142857142857,3,2,1,50,1,1
75206,-100,4,2,1,60,0,0
75742,357.142857142857,7,2,1,50,1,0
78242,357.142857142857,4,2,1,50,1,0
81099,357.142857142857,5,2,1,50,1,0
82884,357.142857142857,4,2,1,40,1,0
83776,-100,5,2,1,50,0,0
84134,357.142857142857,6,2,1,50,1,0
86276,-100,6,2,1,30,0,0

[Colours]
Combo1 : 255,0,0
Combo2 : 128,128,128
Combo3 : 201,201,201

[HitObjects]
380,192,4851,5,4,0:1:0:0:
380,192,5029,2,0,P|387:156|377:121,1,74
331,270,5565,2,0,P|384:285|435:265,1,111,8|0,0:0|0:0,0:0:0:0:
247,223,6458,1,0,0:0:0:0:
247,223,6636,2,0,P|210:216|175:226,1,74,0|8,0:0|0:0,0:0:0:0:
101,165,7350,5,0,0:0:0:0:
130,127,7528,1,0,0:0:0:0:
159,89,7707,2,0,L|152:44,2,37,0|0|8,0:0|0:0|0:0,0:0:0:0:
358,133,8421,22,0,L|347:203,2,55.5,0|2|8,0:0|0:0|0:0,0:0:0:0:
314,112,9135,6,0,L|325:38,1,74,0|0,0:0|0:0,0:0:0:0:
223,142,9849,2,0,P|172:161|122:141,1,111,8|0,0:0|0:0,0:0:0:0:
85,107,10563,2,0,P|97:142|94:179,2,74,0|0|8,0:0|0:0|0:0,0:0:0:0:
60,269,11635,22,0,L|96:264,1,37
156,341,11992,2,0,L|185:319,1,37,0|0,0:0|0:0,0:0:0:0:
275,355,12349,2,0,L|289:321,1,37,8|0,0:0|0:0,0:0:0:0:
400,194,12884,5,0,0:0:0:0:
400,194,13063,2,0,L|395:157,1,37,0|0,0:0|0:0,0:0:0:0:
300,80,13420,2,0,L|304:116,1,37,0|8,0:0|0:0,0:0:0:0:
432,218,13777,22,0,L|428:182,1,37
268,56,14134,2,0,L|272:92,1,37,0|0,0:0|0:0,0:0:0:0:
208,164,14491,1,8,0:0:0:0:
165,185,14669,2,0,P|129:194|92:183,1,74
128,67,15205,6,0,L|132:103,1,37
208,164,15562,2,0,L|203:200,2,37,0|0|8,0:0|0:0|0:0,0:0:0:0:
388,92,16280,22,0,P|414:139|400:193,1,111
256,320,17172,1,0,0:0:0:0:
284,280,17351,2,0,L|272:212,1,55.5,8|8,0:0|0:0,0:0:0:0:
388,92,17887,1,8,0:0:0:0:
388,92,18066,6,0,P|339:77|282:87,1,111,4|2,0:1|0:0,0:0:0:0:
237,107,18780,2,0,L|159:102,1,74,8|0,0:0|0:0,0:0:0:0:
97,173,19316,2,0,L|43:177,2,37,0|0|8,0:0|0:0|0:0,0:0:0:0:
140,259,19851,2,0,L|176:256,1,37,0|2,0:0|0:0,0:0:0:0:
219,342,20208,2,0,L|255:339,1,37,0|0,0:0|0:0,0:0:0:0:
330,276,20566,22,0,P|343:226|331:169,1,111
299,132,21280,2,0,L|221:127,1,74,8|0,0:0|0:0,0:0:0:0:
201,221,21816,2,0,L|241:224,2,37,0|2|0,0:0|0:0|0:0,0:0:0:0:
140,307,22351,2,0,L|180:310,1,37,8|0,0:0|0:0,0:0:0:0:
299,132,22708,2,0,L|259:129,2,37,0|0|8,0:0|0:0|0:0,0:0:0:0:
338,220,23243,2,0,L|378:217,1,37,0|0,0:0|0:0,0:0:0:0:
435,292,23600,1,8,0:0:0:0:
435,292,23958,5,0,0:0:0:0:
468,257,24136,2,0,P|479:221|470:184,2,74,0|8|8,0:0|0:0|0:0,0:0:0:0:
256,336,25208,22,0,P|244:311|245:281,2,55.5,0|8|0,0:0|0:0|0:0,0:0:0:0:
358,185,25922,2,0,P|343:208|319:222,2,55.5,0|2|0,0:0|0:0|0:0,0:0:0:0:
176,171,26636,2,0,P|204:173|228:188,2,55.5,8|2|0,0:0|0:0|0:0,0:0:0:0:
20,185,27350,22,0,L|1:191,7,18.5,0|0|0|0|0|0|0|0,1:0|1:0|1:0|1:0|1:0|1:0|1:0|1:0,0:0:0:0:
43,163,28065,22,0,P|54:128|46:90,1,74,2|0,0:0|0:0,0:0:0:0:
176,171,28779,2,0,P|165:206|173:244,1,74,8|0,0:0|0:0,0:0:0:0:
309,163,29493,2,0,P|320:128|312:90,2,74,0|0|8,0:0|0:0|0:0,0:0:0:0:
309,163,30565,2,0,L|230:158,1,74,2|0,0:0|0:0,0:0:0:0:
322,294,31279,2,0,L|401:289,1,74,0|8,0:0|0:0,0:0:0:0:
494,168,31993,1,0,0:0:0:0:
494,168,32350,22,0,P|461:185|422:184,1,74,2|0,0:0|0:0,0:0:0:0:
330,180,33065,2,0,P|293:179|260:159,1,74,8|0,0:0|0:0,0:0:0:0:
186,100,33779,2,0,P|214:144|210:200,1,111,2|8,0:0|0:0,0:0:0:0:
191,246,34493,6,0,P|255:218|327:238,1,148,2|2,0:0|0:0,0:0:0:0:
327,238,35565,1,8,0:0:0:0:
454,160,35922,1,8,0:0:0:0:
454,160,36100,1,2,0:0:0:0:
323,89,36457,1,8,0:0:0:0:
323,89,36636,22,0,L|243:82,1,74,4|0,0:1|0:0,0:0:0:0:
201,77,37172,2,0,P|212:112|205:149,1,74,8|0,0:0|0:0,0:0:0:0:
174,241,37886,1,8,0:0:0:0:
174,241,38065,2,0,L|247:247,2,74,0|8|0,0:0|0:0|0:0,0:0:0:0:
122,159,39136,1,0,0:0:0:0:
71,77,39493,6,0,P|86:128|78:184,1,111,0|8,0:0|0:0,0:0:0:0:
53,226,40207,2,0,L|61:274,2,37,0|2|8,0:0|0:0|0:0,0:0:0:0:
122,159,40922,22,0,L|198:167,1,74,2|0,0:0|0:0,0:0:0:0:
233,197,41457,1,8,0:0:0:0:
271,228,41636,2,0,L|344:220,2,74,0|2|8,0:0|0:0|0:0,0:0:0:0:
110,70,42886,5,2,0:0:0:0:
144,104,43065,2,0,L|232:100,1,74,4|0,0:1|0:0,0:0:0:0:
289,199,43600,2,0,L|216:196,1,74,4|0,0:1|0:0,0:0:0:0:
288,295,44136,2,0,L|362:292,1,74,4|2,0:1|0:0,0:0:0:0:
452,257,44672,2,0,L|462:300,2,37,0|0|2,0:0|0:0|0:0,0:0:0:0:
377,197,45207,5,0,0:0:0:0:
302,137,45386,2,0,L|295:168,2,18.5,0|0|0,0:0|0:0|0:0,0:0:0:0:
321,43,45743,1,2,0:0:0:0:
205,144,45923,6,0,P|169:156|129:144,1,74,4|0,0:0|0:0,0:0:0:0:
48,107,46458,1,0,0:0:0:0:
40,203,46637,2,0,L|37:251,1,37,8|0,0:0|0:0,0:0:0:0:
131,308,46994,2,0,L|129:272,1,37,8|8,0:0|0:0,0:0:0:0:
212,223,47351,6,0,P|247:215|284:226,1,74
356,288,47887,2,0,L|402:283,1,37,0|8,0:0|0:0,0:0:0:0:
484,115,48423,22,0,P|492:90|486:61,2,55.5,8|0|0,0:0|0:0|0:0,0:0:0:0:
442,202,49137,2,0,L|405:205,1,37,0|8,0:0|0:0,0:0:0:0:
356,288,49494,2,0,L|412:295,2,55.5
261,274,50208,1,8,0:0:0:0:
261,274,50565,5,4,0:0:0:0:
175,316,50743,2,0,P|139:323|104:312,2,74,0|8|0,0:0|0:0|0:0,0:0:0:0:
261,274,51636,2,0,L|261:237,1,37,0|8,0:0|0:0,0:0:0:0:
346,189,51993,2,0,L|347:141,1,37,0|0,0:0|0:0,0:0:0:0:
431,104,52350,22,0,P|467:111|502:100,2,74,8|8|0,0:0|0:0|0:0,0:0:0:0:
283,49,53422,1,8,0:0:0:0:
283,49,53600,2,0,L|291:125,1,74,4|0,0:0|0:0,0:0:0:0:
235,201,54136,2,0,P|200:209|163:198,1,74,12|0,0:0|0:0,0:0:0:0:
110,119,54672,1,0,0:0:0:0:
110,119,54850,1,8,0:0:0:0:
71,277,55208,6,0,P|61:242|69:205,2,74,4|8|0,0:0|0:0|0:0,0:0:0:0:
213,347,56279,2,0,L|252:350,2,37,8|0|0,0:0|0:0|0:0,0:0:0:0:
248,257,56815,6,0,L|303:252,2,55.5,2|2|2,0:0|0:0|0:0,0:0:0:0:
288,168,57529,6,0,P|298:133|290:96,2,74,8|0|0,0:0|0:0|0:0,0:0:0:0:
248,257,58422,1,8,0:0:0:0:
99,308,58779,2,0,L|104:346,2,37,0|0|8,0:0|0:0|0:0,0:0:0:0:
43,229,59315,5,0,0:0:0:0:
49,206,59404,1,0,0:0:0:0:
55,183,59493,2,0,B|63:152|63:152|38:121|48:77,2,111,4|4|12,0:0|0:0|0:0,0:0:0:0:
256,308,61100,21,8,0:0:0:0:
280,311,61190,1,8,0:0:0:0:
304,312,61279,2,0,P|328:311|347:304,1,37,8|8,0:0|0:0,0:0:0:0:
424,260,61636,2,0,P|440:227|438:190,1,74,8|8,0:0|0:0,0:0:0:0:
438,190,62350,5,4,0:0:0:0:
358,65,62707,1,0,0:0:0:0:
358,65,62885,2,0,L|282:57,1,74,4|0,0:0|0:0,0:0:0:0:
247,146,63421,2,0,L|306:139,1,37,4|0,0:0|0:0,0:0:0:0:
307,149,63688,1,0,0:0:0:0:
330,156,63778,2,0,L|389:149,2,37,0|0|8,0:0|0:0|0:0,0:0:0:0:
142,337,64492,21,4,0:0:0:0:
202,262,64671,1,0,0:0:0:0:
202,262,64760,1,0,0:0:0:0:
202,262,64849,2,0,L|192:224,1,37
247,146,65208,2,0,L|257:111,1,37,8|0,0:0|0:0,0:0:0:0:
150,140,65565,6,0,P|114:150|78:141,2,74
370,37,66636,1,8,0:0:0:0:
370,37,66993,21,0,0:0:0:0:
427,115,67172,1,0,0:0:0:0:
370,193,67350,2,0,L|360:252,1,37
348,248,67617,1,0,0:0:0:0:
332,266,67707,2,0,L|322:325,2,37,0|0|8,0:0|0:0|0:0,0:0:0:0:
177,116,68421,6,0,L|183:79,1,37
142,205,68778,2,0,P|176:213|212:204,2,74,0|0|8,0:0|0:0|0:0,0:0:0:0:
263,72,69850,22,0,P|315:56|368:72,1,111
317,153,70564,2,0,P|369:169|421:153,1,111,8|0,0:0|0:0,0:0:0:0:
461,124,71278,1,0,0:0:0:0:
413,265,71635,1,0,0:0:0:0:
268,293,71992,1,8,0:0:0:0:
268,293,72528,5,0,0:0:0:0:
329,218,72707,1,0,0:0:0:0:
304,125,72885,1,0,0:0:0:0:
307,101,72975,1,0,0:0:0:0:
310,77,73064,2,0,L|346:69,1,37
419,132,73421,2,0,P|444:129|468:133,1,49.3333333333333,8|8,0:0|0:0,0:0:0:0:
329,218,73957,21,0,0:0:0:0:
329,218,74135,2,0,P|304:221|280:217,1,49.3333333333333,0|0,0:0|0:0,0:0:0:0:
162,254,74670,2,0,B|148:258|148:258|178:214|152:168,1,111,8|0,0:0|0:0,0:0:0:0:
329,218,75742,5,0,0:0:0:0:
351,208,75831,1,0,0:0:0:0:
373,198,75920,2,0,L|416:203,2,37,2|0|0,0:0|0:0|0:0,0:0:0:0:
340,108,76456,2,0,L|256:97,1,74,2|0,0:0|0:0,0:0:0:0:
183,147,76992,1,0,0:0:0:0:
183,147,77349,1,0,0:0:0:0:
99,195,77527,2,0,L|26:186,1,74,2|0,0:0|0:0,0:0:0:0:
135,286,78242,22,0,L|171:281,1,37
289,339,78599,2,0,L|252:334,2,37,0|0|2,0:0|0:0|0:0,0:0:0:0:
432,300,79313,2,0,P|422:282|420:264,1,37
410,170,79670,2,0,P|406:150|410:132,2,37,0|0|2,0:0|0:0|0:0,0:0:0:0:
332,226,80206,6,0,L|295:230,1,37,4|8,0:0|0:0,0:0:0:0:
273,220,80474,1,8,0:0:0:0:
251,210,80563,2,0,L|208:215,1,37,8|8,0:0|0:0,0:0:0:0:
126,127,80920,2,0,L|163:132,1,37,8|0,0:0|0:0,0:0:0:0:
389,69,81456,21,8,0:0:0:0:
389,69,81634,1,0,0:0:0:0:
389,69,81813,2,0,P|402:103|396:140,1,74,8|0,0:0|0:0,0:0:0:0:
360,228,82349,2,0,L|276:240,1,74,4|0,0:0|0:0,0:0:0:0:
239,322,82884,6,0,L|242:342,2,18.5,0|0|0,1:0|1:0|1:0,0:0:0:0:
146,296,83241,2,0,P|132:262|137:225,1,74,0|0,1:0|1:0,0:0:0:0:
175,136,83776,2,0,P|179:99|165:65,1,74,0|2,1:0|0:0,0:0:0:0:
262,77,84312,22,0,L|302:71,2,37,0|2|0,0:0|0:0|0:0,0:0:0:0:
165,66,84848,2,0,L|125:72,1,37,8|2,0:0|0:0,0:0:0:0:
296,107,85205,2,0,L|336:101,1,37,0|2,0:0|0:0,0:0:0:0:
131,36,85562,6,0,L|91:42,2,37,2|8|0,0:0|0:0|0:0,0:0:0:0:
331,136,86098,2,0,L|371:130,1,37,2|8,0:0|0:0,0:0:0:0:
