osu file format v6

[General]
AudioFilename: Social Networking Ahoy! - Facebook, MySpace, and Twitter!.mp3
AudioLeadIn: 0
PreviewTime: -1
Countdown: 1
SampleSet: None
StackLeniency: 0.7
Mode: 0
LetterboxInBreaks: 1

[Editor]
Bookmarks: 15577,20527
DistanceSpacing: 0.800000011920929
BeatDivisor: 4
GridSize: 16

[Metadata]
Title:Happy Beat
Artist:nsrrenard
Creator:NickCole
Version:Hard
Source:
Tags:

[Difficulty]
HPDrainRate:6
CircleSize:4
OverallDifficulty:7
SliderMultiplier:1.4
SliderTickRate:1

[Events]
//Background and Video events
//Break Periods
//Storyboard Layer 0 (Background)
//Storyboard Layer 1 (Fail)
//Storyboard Layer 2 (Pass)
//Storyboard Layer 3 (Foreground)
//Storyboard Sound Samples
//Background Colour Transformations
3,100,163,162,255

[TimingPoints]
1252.49253731343,300.007462686568,4,0,0,100,1,0

[HitObjects]
128,96,1252,1,8
176,96,1402,1,8
208,128,1552,1,8
160,160,1702,1,8
208,192,1852,1,8
256,192,2152,2,8,B|176:320,1,140
256,320,2602,5,8
304,320,2752,1,8
352,320,2902,1,8
400,320,3052,1,8
400,256,3352,1,8
384,160,3802,5,8
320,160,3952,1,8
304,96,4102,1,8
256,64,4252,1,8
208,96,4552,1,8
80,160,4852,5,8
128,176,5002,1,8
128,176,5077,1,8
144,240,5302,1,8
160,304,5452,1,8
208,336,5752,1,8
320,336,6052,5,8
368,320,6202,1,8
416,288,6352,1,8
432,240,6502,1,8
416,192,6652,1,8
320,160,6952,5,8
368,128,7402,1,8
368,64,7552,1,8
304,64,7702,1,8
256,96,7852,1,8
256,176,8152,2,8,B|32:176,1,210
48,176,8752,1,8
64,224,8902,1,8
112,256,9052,1,8
160,272,9352,1,8
304,304,9652,1,8
352,256,9802,1,8
352,256,9877,1,8
352,192,10102,1,8
320,144,10252,1,8
272,160,10552,1,8
192,160,11002,6,8,B|96:160,1,70
96,208,11302,1,8
96,256,11452,1,8
144,304,11752,2,8,B|288:304,1,140
352,304,12202,5,8
400,304,12352,1,8
448,288,12502,1,8
464,240,12652,1,8
448,192,12952,2,8,B|384:48,1,140
336,80,13402,1,8
288,112,13552,1,8
272,176,13702,1,8
240,224,13852,1,8
192,208,14152,1,8
144,160,14452,5,8
80,176,14602,1,8
80,176,14677,1,8
64,240,14902,1,8
96,288,15052,1,8
192,320,15352,5,8
288,320,15802,2,8,B|288:224,5,70
336,272,17002,1,8
400,256,17152,1,8
416,208,17302,1,8
368,176,17452,1,8
304,112,17752,1,8
208,112,18202,5,8
208,112,18277,1,8
160,160,18502,1,8
112,208,18652,1,8
64,256,18952,1,8
144,336,19252,1,8
176,288,19402,1,8
224,272,19552,1,8
272,256,19702,1,8
272,256,19777,1,8
272,192,20152,1,8
256,192,20452,12,4,21653
