osu file format v9

[General]
AudioFilename: fightooo.mp3
AudioLeadIn: 0
PreviewTime: -1
Countdown: 1
SampleSet: Normal
StackLeniency: 0.7
Mode: 0
LetterboxInBreaks: 1

[Editor]
DistanceSpacing: 0.8
BeatDivisor: 8
GridSize: 8

[Metadata]
Title:fighter
Artist:not indian movie :(
Creator:plotter
Version:fightooo
Source:
Tags:

[Difficulty]
HPDrainRate:0
CircleSize:5
OverallDifficulty:0
ApproachRate:9
SliderMultiplier:1.6
SliderTickRate:1

[Events]
//Background and Video events
Video,0,"fightoo.flv"
//Break Periods
2,85779,91279
//Storyboard Layer 0 (Background)
//Storyboard Layer 1 (Fail)
//Storyboard Layer 2 (Pass)
//Storyboard Layer 3 (Foreground)
//Storyboard Sound Samples
//Background Colour Transformations
3,100,0,0,0

[TimingPoints]
7079.47572815534,400,4,1,0,40,1,0
15360,-50,4,1,0,40,0,0
23629,-133.333333333333,4,1,0,40,0,0
35079,-50,4,1,0,40,0,0
36310,-100,4,1,0,40,0,0
83802,-50,4,1,0,40,0,0

[Colours]
Combo1 : 255,0,0
Combo2 : 255,0,0

[HitObjects]
296,104,7479,1,0
272,216,8129,1,0
320,176,8529,1,0
312,192,8829,1,0
288,272,9379,1,0
280,312,10929,5,0
296,312,12329,1,0
256,256,12529,2,0,B|224:200|176:240,1,80
184,160,14429,5,0
288,328,14729,1,0
336,216,15379,1,0
224,232,15579,2,0,B|208:256|208:256|192:232|192:232|192:256|192:256|160:240|160:240|136:248|136:248|144:224|144:224|120:224|120:224|128:208|128:208|96:208|96:208|112:192|112:192|96:176|96:176|120:176|120:176|112:160|112:160|120:144|120:144|144:144|144:144|144:128|144:128|168:120|168:120|184:136|192:136|192:112|192:112|208:120|208:120|208:144|208:136|240:128|240:128|224:120|224:120|224:144|256:144|256:144,1,560
248,120,18829,5,0
368,112,19179,1,0
384,144,19729,2,0,B|416:120,1,40
328,176,20079,1,0
320,160,20579,1,0
200,224,20979,1,0
392,256,21429,1,0
408,160,21879,2,0,B|376:144|376:144|360:160|360:160|328:144|328:144|304:160|304:160|288:152|288:152|272:176|272:176|256:176|256:176|264:200|264:200|248:208|248:208|256:224|256:224,1,240
288,120,23779,5,0
256,128,23879,2,0,B|224:120|208:64|248:56|296:56|336:104,1,164.999995082617
448,112,24679,1,0
248,168,25429,1,0
304,160,26629,1,0
304,192,26629,1,0
304,160,27979,5,0
304,224,28479,1,0
248,112,30029,1,0
272,184,30279,1,0
288,192,30879,1,0
320,136,31179,1,0
384,208,32229,1,0
376,240,32429,6,0,B|328:264,1,44.9999986588955
344,128,33879,5,0
240,200,34079,1,0
424,232,34629,1,0
232,112,35029,2,0,B|192:88,1,40
200,192,35329,1,0
360,216,35979,1,0
176,152,36529,2,0,B|176:184|192:208|264:192,1,100
240,152,38029,5,0
280,208,38579,1,0
192,200,39279,1,0
200,192,39579,2,0,B|152:176,1,40
240,144,42479,5,0
336,128,43079,1,0
264,112,43579,1,0
240,104,46129,5,0
320,248,46479,1,0
224,216,47279,1,0
208,256,47829,1,0
112,128,48229,2,0,B|136:64|192:32,1,120
208,136,48679,2,0,B|224:152,1,20
160,128,50029,5,0
168,80,50629,2,0,B|240:136|208:248,1,180
144,128,51579,1,0
192,272,52429,2,0,B|176:280|176:280|192:248|192:248|216:272|216:272|200:288|192:280|192:280,3,100
272,144,53879,1,0
184,256,55229,5,0
200,120,55629,1,0
280,208,57479,5,0
128,112,62329,5,0
224,160,63579,1,0
208,224,64779,1,0
192,136,65079,1,0
224,176,65529,1,0
264,112,67479,6,0,B|288:88|320:128,1,60
376,264,67779,1,0
312,104,68279,2,0,B|360:152|288:256|208:272,1,220
168,272,69779,6,0,B|112:216|160:104,1,160
320,144,70429,1,0
296,256,71629,6,0,B|256:192|304:96,1,160
272,264,72829,1,0
248,184,74679,5,0
232,272,75829,6,0,B|208:280|200:256|216:240,1,40
224,200,77629,5,0
256,200,77679,2,0,B|320:200,1,60
216,144,80679,5,0
128,112,81129,2,0,B|184:224,1,120
288,192,81729,1,0
176,112,83029,5,0
376,104,84429,6,0,B|392:80|392:80|408:104|408:104|408:80|408:80|440:96|440:96|464:88|464:88|456:112|456:112|480:112|480:112|472:128|472:128|504:128|504:128|488:144|488:144|504:160|504:160|480:160|480:160|488:176|488:176|480:192|480:192|456:192|456:192|456:208|456:208|432:216|432:216|416:200|408:200|408:224|408:224|392:216|392:216|392:192|392:200|360:208|360:208|376:216|376:216|376:192|344:192|344:192,1,560
336,192,85279,1,0
304,168,85379,1,0
312,200,85429,2,0,B|288:232|288:232|304:224|304:224|296:248|296:248|304:248|304:248|296:256|312:256|312:256|304:264|304:264,1,120
192,168,92029,6,0,B|192:304,1,120
16,48,91879,6,0,B|8:296,1,240
16,48,91929,6,0,B|120:64|152:144|192:144|16:184,1,280
192,168,92079,6,0,B|240:176|264:176|272:192|256:216|256:224|216:240|216:240|272:264|296:296,1,240
392,80,92129,6,0,B|360:120|352:120|336:176|336:176|336:224|336:224|352:280|352:280|400:312|400:312|432:312|432:320|480:272|480:272|496:224|496:224|496:176|496:176|496:128|496:128|472:88|472:88|432:80|432:80|400:80|400:80|384:88,1,640
72,56,93429,2,0,B|72:296,1,240
432,40,93529,2,0,B|432:336,1,280
256,144,93479,2,0,B|192:184|152:248|208:304|256:312|280:312|312:288|336:256|360:232|352:192|328:184|312:160|280:144|280:144|232:152,1,440
192,80,94379,2,0,B|288:80,1,80
80,80,94279,2,0,B|72:312,1,200
176,304,94479,2,0,B|288:304,1,80
344,88,94529,2,0,B|448:88,1,80
232,112,94429,2,0,B|232:296,1,160
80,80,94329,2,0,B|160:112|200:216|184:248|80:272,1,280
352,192,94629,2,0,B|432:192,1,80
344,88,94579,2,0,B|352:280|352:288|352:288|440:288,1,280
80,80,94979,2,0,B|80:296,1,200
80,80,95029,2,0,B|176:96|200:112|200:152|200:184|176:208|144:216|80:208,1,280
240,104,95079,2,0,B|224:304|224:304|368:312,1,320
344,88,95179,2,0,B|464:88|464:88|320:288|320:288|480:288,1,520
