osu file format v14

[General]
AudioFilename: nora2r - VISION [GRV].mp3
AudioLeadIn: 0
PreviewTime: 22369
Countdown: 0
SampleSet: Soft
StackLeniency: 0.7
Mode: 3
LetterboxInBreaks: 0
SpecialStyle: 0
WidescreenStoryboard: 1

[Editor]
Bookmarks: 53142,53489
DistanceSpacing: 0.5
BeatDivisor: 8
GridSize: 16
TimelineZoom: 2.5

[Metadata]
Title:VISION
TitleUnicode:VISION
Artist:nora2r
ArtistUnicode:nora2r
Creator:nyaa_void
Version:EXHAUST Lv. 15
Source:SOUND VOLTEX BOOTH
Tags:sdvx III GRAVITY WARS nora2r after the limitless point. kac2012 farsdewibs0n leoudel
BeatmapID:682035
BeatmapSetID:302528

[Difficulty]
HPDrainRate:7.5
CircleSize:4
OverallDifficulty:8
ApproachRate:5
SliderMultiplier:1.3
SliderTickRate:1

[Events]
//Background and Video events
0,0,"nora2r_w.jpg",0,0
//Break Periods
//Storyboard Layer 0 (Background)
//Storyboard Layer 1 (Fail)
//Storyboard Layer 2 (Pass)
//Storyboard Layer 3 (Foreground)
//Storyboard Sound Samples

[TimingPoints]
773,346.820809248555,4,2,1,100,1,0
1119,-100,4,2,1,25,0,0
2160,-100,4,2,1,35,0,0
2853,-100,4,2,1,45,0,0
4588,-100,4,2,1,60,0,0
18114,-100,4,2,1,50,0,0
18807,-100,4,2,1,40,0,0
19501,-100,4,2,1,30,0,0
20194,-100,4,2,1,20,0,0
22275,-100,4,1,1,70,0,1
22319,-100,4,2,1,70,0,1
27825,-100,4,2,1,50,0,0
28518,-100,4,2,1,70,0,1
32680,-100,4,2,1,65,0,0
34067,-100,4,2,1,70,0,1
38923,-100,4,2,1,60,0,0
72608,-66.6666666666667,4,2,1,60,0,0
72868,-200,4,2,1,60,0,0
72911,-100,4,2,1,60,0,0
75382,-66.6666666666667,4,2,1,60,0,0
75642,-200,4,2,1,60,0,0
75686,-100,4,2,1,60,0,0
78157,-66.6666666666667,4,2,1,60,0,0
78417,-200,4,2,1,60,0,0
78460,-100,4,2,1,60,0,0
80585,-100,4,2,1,60,0,0
92333,-100,4,2,1,70,0,1
108981,-100,4,2,1,65,0,0

[HitObjects]
64,192,773,128,8,2853:2:0:0:0:
448,192,773,1,0,0:0:0:0:
192,192,773,1,8,0:0:0:0:
320,192,1119,1,0,0:0:0:0:
448,192,1466,1,0,0:0:0:0:
192,192,1683,1,0,0:0:0:0:
320,192,1813,1,0,0:0:0:0:
448,192,1813,1,0,0:0:0:0:
192,192,1986,1,0,0:0:0:0:
320,192,2073,1,0,0:0:0:0:
448,192,2160,1,0,0:0:0:0:
448,192,2333,1,0,0:0:0:0:
448,192,2507,1,0,0:0:0:0:
448,192,2680,1,0,0:0:0:0:
192,192,2853,1,8,2:0:0:0:
320,192,2853,1,8,2:0:0:0:
448,192,2853,128,0,3200:2:0:0:0:
320,192,3200,1,8,2:0:0:0:
192,192,3200,1,8,2:0:0:0:
64,192,3200,1,0,0:0:0:0:
448,192,3547,1,0,0:0:0:0:
320,192,3634,1,0,0:0:0:0:
192,192,3720,1,0,0:0:0:0:
64,192,3894,1,0,0:0:0:0:
448,192,4067,1,0,0:0:0:0:
320,192,4154,1,0,0:0:0:0:
192,192,4241,1,0,0:0:0:0:
64,192,4327,1,0,0:0:0:0:
320,192,4414,1,0,0:0:0:0:
320,192,4588,1,0,0:0:0:0:
448,192,4588,1,0,0:0:0:0:
64,192,4674,1,0,0:0:0:0:
192,192,4674,1,0,0:0:0:0:
320,192,4761,1,0,0:0:0:0:
448,192,4761,1,0,0:0:0:0:
192,192,4848,1,0,0:0:0:0:
64,192,4848,1,0,0:0:0:0:
320,192,4934,1,0,0:0:0:0:
448,192,4934,1,0,0:0:0:0:
192,192,4934,128,0,5281:0:0:0:0:
320,192,5281,1,0,0:0:0:0:
64,192,5455,1,0,0:0:0:0:
192,192,5541,1,0,0:0:0:0:
320,192,5628,1,8,2:0:0:0:
448,192,5628,128,8,5975:2:0:0:0:
192,192,5975,1,8,2:0:0:0:
64,192,5975,128,8,6322:2:0:0:0:
448,192,6322,1,0,0:0:0:0:
64,192,6495,1,0,0:0:0:0:
192,192,6582,1,0,0:0:0:0:
320,192,6668,1,0,0:0:0:0:
448,192,6842,1,0,0:0:0:0:
320,192,6929,1,0,0:0:0:0:
192,192,7015,1,0,0:0:0:0:
64,192,7102,1,0,0:0:0:0:
448,192,7189,1,0,0:0:0:0:
320,192,7362,1,0,0:0:0:0:
192,192,7449,1,0,0:0:0:0:
64,192,7536,1,0,0:0:0:0:
192,192,7622,1,0,0:0:0:0:
320,192,7709,1,0,0:0:0:0:
448,192,7709,1,0,0:0:0:0:
64,192,7882,1,0,0:0:0:0:
192,192,7882,1,0,0:0:0:0:
320,192,8056,1,0,0:0:0:0:
448,192,8056,1,0,0:0:0:0:
64,192,8229,1,0,0:0:0:0:
192,192,8229,1,0,0:0:0:0:
192,192,8403,1,8,2:0:0:0:
320,192,8403,1,8,2:0:0:0:
448,192,8403,1,0,2:0:0:0:
448,192,8576,1,0,0:0:0:0:
64,192,8749,1,0,2:0:0:0:
192,192,8749,1,8,2:0:0:0:
320,192,8749,1,8,2:0:0:0:
192,192,8923,1,0,0:0:0:0:
64,192,9096,1,0,0:0:0:0:
192,192,9183,1,0,0:0:0:0:
320,192,9270,1,0,0:0:0:0:
192,192,9443,1,0,0:0:0:0:
448,192,9616,1,0,0:0:0:0:
320,192,9703,1,0,0:0:0:0:
192,192,9790,1,0,0:0:0:0:
64,192,9877,1,0,0:0:0:0:
192,192,9963,1,0,0:0:0:0:
320,192,10137,128,0,10483:0:0:0:0:
448,192,10137,128,0,10483:0:0:0:0:
64,192,10137,1,0,0:0:0:0:
192,192,10223,1,0,0:0:0:0:
64,192,10310,1,0,0:0:0:0:
192,192,10397,1,0,0:0:0:0:
64,192,10483,128,0,10657:0:0:0:0:
448,192,10657,128,0,10830:0:0:0:0:
192,192,10830,128,0,11004:0:0:0:0:
448,192,11004,128,0,11177:0:0:0:0:
64,192,11177,128,0,11351:0:0:0:0:
320,192,11351,128,0,11524:0:0:0:0:
64,192,11524,128,0,11871:0:0:0:0:
448,192,11524,128,0,11871:0:0:0:0:
320,192,11871,1,8,2:0:0:0:
192,192,11871,1,8,2:0:0:0:
192,192,12044,1,0,0:0:0:0:
448,192,12044,1,0,0:0:0:0:
320,192,12218,1,0,0:0:0:0:
64,192,12218,1,0,0:0:0:0:
448,192,12391,1,0,0:0:0:0:
320,192,12391,1,0,0:0:0:0:
64,192,12478,1,0,0:0:0:0:
192,192,12478,1,0,0:0:0:0:
320,192,12564,1,0,0:0:0:0:
448,192,12564,1,0,0:0:0:0:
64,192,12738,1,0,0:0:0:0:
192,192,12738,1,0,0:0:0:0:
448,192,12825,1,0,0:0:0:0:
320,192,12825,1,0,0:0:0:0:
64,192,12911,1,0,0:0:0:0:
192,192,12911,1,0,0:0:0:0:
64,192,13085,1,0,0:0:0:0:
448,192,13085,1,0,0:0:0:0:
192,192,13171,1,0,0:0:0:0:
320,192,13171,1,0,0:0:0:0:
64,192,13258,1,0,0:0:0:0:
448,192,13258,1,0,0:0:0:0:
192,192,13431,1,0,0:0:0:0:
320,192,13431,1,0,0:0:0:0:
64,192,13518,1,0,0:0:0:0:
448,192,13518,1,0,0:0:0:0:
192,192,13605,1,0,0:0:0:0:
320,192,13605,1,0,0:0:0:0:
192,192,13778,1,0,0:0:0:0:
64,192,13778,1,0,0:0:0:0:
320,192,13865,1,0,0:0:0:0:
448,192,13865,1,0,0:0:0:0:
64,192,13952,1,0,0:0:0:0:
192,192,13952,1,0,0:0:0:0:
448,192,14125,1,0,0:0:0:0:
320,192,14125,1,0,0:0:0:0:
192,192,14212,1,0,0:0:0:0:
64,192,14212,1,0,0:0:0:0:
448,192,14299,1,0,0:0:0:0:
320,192,14299,1,0,0:0:0:0:
192,192,14385,1,0,0:0:0:0:
64,192,14385,1,0,0:0:0:0:
192,192,14472,1,0,0:0:0:0:
320,192,14472,1,0,0:0:0:0:
320,192,14645,1,0,0:0:0:0:
448,192,14645,1,0,0:0:0:0:
64,192,14819,1,0,0:0:0:0:
192,192,14819,1,0,0:0:0:0:
320,192,14905,1,0,0:0:0:0:
448,192,14905,1,0,0:0:0:0:
64,192,14992,1,0,0:0:0:0:
192,192,14992,1,0,0:0:0:0:
320,192,15166,1,0,0:0:0:0:
448,192,15166,1,0,0:0:0:0:
64,192,15252,1,0,0:0:0:0:
192,192,15252,1,0,0:0:0:0:
448,192,15339,1,0,0:0:0:0:
320,192,15339,1,0,0:0:0:0:
192,192,15512,1,0,0:0:0:0:
64,192,15512,1,0,0:0:0:0:
448,192,15599,1,0,0:0:0:0:
320,192,15599,1,0,0:0:0:0:
64,192,15686,1,0,0:0:0:0:
192,192,15686,1,0,0:0:0:0:
448,192,15859,1,0,0:0:0:0:
64,192,15859,1,0,0:0:0:0:
192,192,15946,1,0,0:0:0:0:
320,192,15946,1,0,0:0:0:0:
64,192,16033,1,0,0:0:0:0:
448,192,16033,1,0,0:0:0:0:
192,192,16206,1,0,0:0:0:0:
320,192,16206,1,0,0:0:0:0:
64,192,16293,1,0,0:0:0:0:
448,192,16293,1,0,0:0:0:0:
192,192,16379,1,0,0:0:0:0:
320,192,16379,1,0,0:0:0:0:
192,192,16553,1,0,0:0:0:0:
320,192,16553,1,0,0:0:0:0:
448,192,16726,1,0,0:0:0:0:
320,192,16726,1,0,0:0:0:0:
192,192,16813,1,0,0:0:0:0:
64,192,16813,1,0,0:0:0:0:
448,192,16900,1,0,0:0:0:0:
320,192,16900,1,0,0:0:0:0:
64,192,17073,1,0,0:0:0:0:
192,192,17073,1,0,0:0:0:0:
320,192,17160,1,0,0:0:0:0:
448,192,17160,1,0,0:0:0:0:
64,192,17246,1,0,0:0:0:0:
192,192,17246,1,8,0:0:0:0:
64,192,17420,128,0,17593:2:0:0:0:
192,192,17420,1,8,2:0:0:0:
448,192,17420,1,0,0:0:0:0:
448,192,17767,128,0,17940:2:0:0:0:
320,192,17767,1,8,2:0:0:0:
64,192,18114,128,0,18287:2:0:0:0:
192,192,18114,1,8,2:0:0:0:
448,192,18460,128,0,18634:2:0:0:0:
320,192,18460,1,8,2:0:0:0:
64,192,18807,128,0,18981:2:0:0:0:
192,192,18807,1,8,2:0:0:0:
448,192,19154,128,0,19327:2:0:0:0:
320,192,19154,1,8,2:0:0:0:
64,192,19501,128,0,19674:2:0:0:0:
192,192,19501,1,8,2:0:0:0:
448,192,19848,128,0,20021:2:0:0:0:
320,192,19848,1,8,2:0:0:0:
64,192,20194,128,0,20368:2:0:0:0:
192,192,20194,1,8,2:0:0:0:
448,192,20368,1,0,0:0:0:0:
320,192,20455,1,0,0:0:0:0:
192,192,20541,1,0,0:0:0:0:
448,192,20628,1,0,0:0:0:0:
320,192,20715,1,0,0:0:0:0:
192,192,20801,1,0,0:0:0:0:
64,192,20888,1,8,2:0:0:0:
320,192,20888,1,8,2:0:0:0:
448,192,20975,1,0,0:0:0:0:
320,192,21062,1,0,0:0:0:0:
192,192,21148,1,0,0:0:0:0:
64,192,21235,1,0,0:0:0:0:
448,192,21322,1,0,0:0:0:0:
320,192,21408,1,0,0:0:0:0:
192,192,21495,1,0,0:0:0:0:
64,192,21582,1,8,2:0:0:0:
320,192,21582,1,8,2:0:0:0:
448,192,21582,1,8,2:0:0:0:
64,192,21929,1,0,0:0:0:0:
192,192,21929,1,0,0:0:0:0:
320,192,21929,1,0,0:0:0:0:
448,192,22275,1,0,0:0:0:0:
320,192,22275,1,0,0:0:0:0:
192,192,22622,128,0,22969:0:0:0:0:
320,192,22622,128,0,22969:0:0:0:0:
64,192,22969,1,0,0:0:0:0:
448,192,22969,1,0,0:0:0:0:
192,192,23316,1,0,0:0:0:0:
320,192,23316,1,0,0:0:0:0:
64,192,23663,1,0,0:0:0:0:
320,192,23663,1,0,0:0:0:0:
192,192,23836,1,0,0:0:0:0:
192,192,24009,1,0,0:0:0:0:
448,192,24009,1,0,0:0:0:0:
320,192,24183,1,0,0:0:0:0:
448,192,24356,1,0,0:0:0:0:
64,192,24356,1,0,0:0:0:0:
192,192,24530,1,0,0:0:0:0:
64,192,24703,1,0,0:0:0:0:
320,192,24703,1,0,0:0:0:0:
320,192,24877,1,0,0:0:0:0:
64,192,25050,1,0,0:0:0:0:
448,192,25050,1,0,0:0:0:0:
192,192,25223,1,0,0:0:0:0:
192,192,25397,1,0,0:0:0:0:
448,192,25397,1,0,0:0:0:0:
64,192,25570,1,0,0:0:0:0:
64,192,25744,1,0,0:0:0:0:
320,192,25744,1,0,0:0:0:0:
192,192,25917,1,0,0:0:0:0:
448,192,26090,1,0,0:0:0:0:
64,192,26090,1,0,0:0:0:0:
320,192,26264,1,0,0:0:0:0:
448,192,26437,1,0,0:0:0:0:
192,192,26437,1,0,0:0:0:0:
192,192,26611,1,0,0:0:0:0:
64,192,26784,1,0,0:0:0:0:
320,192,26784,1,0,0:0:0:0:
320,192,26957,1,0,0:0:0:0:
64,192,27131,1,0,0:0:0:0:
448,192,27131,1,0,0:0:0:0:
192,192,27304,1,0,0:0:0:0:
192,192,27478,1,0,0:0:0:0:
448,192,27478,1,0,0:0:0:0:
320,192,27651,1,0,0:0:0:0:
64,192,27825,128,0,28345:0:0:0:0:
448,192,27825,128,0,28345:0:0:0:0:
192,192,27825,1,0,0:0:0:0:
320,192,27998,1,0,0:0:0:0:
192,192,28171,1,0,0:0:0:0:
320,192,28345,1,0,0:0:0:0:
64,192,28518,1,0,0:0:0:0:
320,192,28518,1,0,0:0:0:0:
192,192,28692,1,0,0:0:0:0:
64,192,28865,1,0,0:0:0:0:
448,192,28865,1,0,0:0:0:0:
192,192,29038,1,0,0:0:0:0:
192,192,29212,1,0,0:0:0:0:
448,192,29212,1,0,0:0:0:0:
320,192,29385,1,0,0:0:0:0:
64,192,29559,1,0,0:0:0:0:
448,192,29559,1,0,0:0:0:0:
192,192,29732,1,0,0:0:0:0:
320,192,29905,1,0,0:0:0:0:
64,192,29905,1,0,0:0:0:0:
448,192,30079,1,0,0:0:0:0:
320,192,30252,1,0,0:0:0:0:
64,192,30252,1,0,0:0:0:0:
192,192,30426,1,0,0:0:0:0:
192,192,30599,1,0,0:0:0:0:
448,192,30599,1,0,0:0:0:0:
320,192,30773,1,0,0:0:0:0:
64,192,30946,1,0,0:0:0:0:
448,192,30946,1,0,0:0:0:0:
192,192,31119,1,0,0:0:0:0:
64,192,31293,1,0,0:0:0:0:
320,192,31293,1,0,0:0:0:0:
448,192,31466,1,0,0:0:0:0:
320,192,31640,1,0,0:0:0:0:
64,192,31640,1,0,0:0:0:0:
448,192,31640,128,0,31986:0:0:0:0:
64,192,31813,1,0,0:0:0:0:
192,192,31813,1,0,0:0:0:0:
320,192,31986,128,0,32333:0:0:0:0:
192,192,32160,1,0,0:0:0:0:
448,192,32160,1,0,0:0:0:0:
192,192,32333,128,0,32680:0:0:0:0:
64,192,32507,1,0,0:0:0:0:
448,192,32507,1,0,0:0:0:0:
64,192,32680,1,8,0:0:0:0:
320,192,32680,1,8,0:0:0:0:
448,192,32767,1,0,0:0:0:0:
320,192,32853,1,0,0:0:0:0:
192,192,32940,1,0,0:0:0:0:
64,192,33027,1,0,0:0:0:0:
320,192,33027,1,0,0:0:0:0:
192,192,33200,1,0,0:0:0:0:
448,192,33200,1,0,0:0:0:0:
64,192,33374,1,0,0:0:0:0:
320,192,33374,1,0,0:0:0:0:
192,192,33547,1,0,0:0:0:0:
64,192,33720,1,0,0:0:0:0:
320,192,33807,1,0,0:0:0:0:
448,192,33807,1,0,0:0:0:0:
192,192,33894,1,0,0:0:0:0:
64,192,33894,1,0,0:0:0:0:
448,192,33981,1,0,0:0:0:0:
320,192,33981,1,0,0:0:0:0:
64,192,34067,1,0,0:0:0:0:
192,192,34067,1,0,0:0:0:0:
448,192,34241,1,0,0:0:0:0:
64,192,34414,1,0,0:0:0:0:
320,192,34414,1,0,0:0:0:0:
192,192,34588,1,0,0:0:0:0:
64,192,34761,1,0,0:0:0:0:
320,192,34761,1,0,0:0:0:0:
192,192,34934,1,0,0:0:0:0:
448,192,35108,1,0,0:0:0:0:
64,192,35108,1,0,0:0:0:0:
320,192,35281,1,0,0:0:0:0:
448,192,35455,1,0,0:0:0:0:
192,192,35455,1,0,0:0:0:0:
320,192,35628,1,0,0:0:0:0:
64,192,35801,1,0,0:0:0:0:
448,192,35801,1,0,0:0:0:0:
192,192,35975,1,0,0:0:0:0:
192,192,36148,1,0,0:0:0:0:
448,192,36148,1,0,0:0:0:0:
320,192,36322,1,0,0:0:0:0:
448,192,36495,1,0,0:0:0:0:
64,192,36495,1,0,0:0:0:0:
192,192,36668,1,0,0:0:0:0:
64,192,36842,1,0,0:0:0:0:
320,192,36842,1,0,0:0:0:0:
320,192,37015,1,0,0:0:0:0:
448,192,37189,1,0,0:0:0:0:
192,192,37189,1,0,0:0:0:0:
64,192,37362,1,0,0:0:0:0:
192,192,37536,1,0,0:0:0:0:
448,192,37536,1,0,0:0:0:0:
320,192,37709,1,0,0:0:0:0:
64,192,37882,1,0,0:0:0:0:
448,192,37882,1,0,0:0:0:0:
192,192,38056,1,0,0:0:0:0:
448,192,38229,1,0,0:0:0:0:
64,192,38229,1,0,0:0:0:0:
192,192,38403,1,0,0:0:0:0:
192,192,38576,1,0,0:0:0:0:
448,192,38576,1,0,0:0:0:0:
320,192,38749,1,0,0:0:0:0:
448,192,38923,1,0,0:0:0:0:
64,192,38923,1,0,0:0:0:0:
192,192,39096,1,0,0:0:0:0:
320,192,39096,1,0,0:0:0:0:
64,192,39270,1,0,0:0:0:0:
448,192,39270,1,0,0:0:0:0:
192,192,39443,1,0,0:0:0:0:
320,192,39443,1,0,0:0:0:0:
64,192,39616,1,0,0:0:0:0:
320,192,39616,1,0,0:0:0:0:
448,192,39616,1,0,0:0:0:0:
192,192,39790,1,0,0:0:0:0:
448,192,39790,1,0,0:0:0:0:
64,192,39963,1,0,0:0:0:0:
320,192,39963,1,0,0:0:0:0:
192,192,40137,1,0,0:0:0:0:
448,192,40137,1,0,0:0:0:0:
64,192,40310,1,0,0:0:0:0:
448,192,40310,1,0,0:0:0:0:
320,192,40483,1,0,0:0:0:0:
448,192,40483,1,0,0:0:0:0:
64,192,40657,1,0,0:0:0:0:
192,192,40657,1,0,0:0:0:0:
320,192,40830,1,0,0:0:0:0:
448,192,40830,1,0,0:0:0:0:
64,192,41004,128,0,41351:0:0:0:0:
320,192,41004,1,0,0:0:0:0:
192,192,41177,1,0,0:0:0:0:
448,192,41177,1,0,0:0:0:0:
320,192,41351,128,0,41697:0:0:0:0:
192,192,41351,1,0,0:0:0:0:
64,192,41524,1,0,0:0:0:0:
192,192,41524,1,0,0:0:0:0:
192,192,41697,128,0,42044:0:0:0:0:
448,192,41697,1,0,0:0:0:0:
320,192,41871,1,0,0:0:0:0:
64,192,41871,1,0,0:0:0:0:
448,192,42044,128,0,42391:0:0:0:0:
320,192,42044,1,0,0:0:0:0:
320,192,42218,1,0,0:0:0:0:
192,192,42218,1,0,0:0:0:0:
64,192,42391,1,0,0:0:0:0:
320,192,42391,1,0,0:0:0:0:
192,192,42478,1,0,0:0:0:0:
320,192,42564,1,0,0:0:0:0:
448,192,42651,1,0,0:0:0:0:
192,192,42738,1,0,0:0:0:0:
320,192,42825,1,0,0:0:0:0:
192,192,42911,1,0,0:0:0:0:
448,192,42998,1,0,0:0:0:0:
320,192,43085,1,0,0:0:0:0:
64,192,43171,1,0,0:0:0:0:
192,192,43258,1,0,0:0:0:0:
448,192,43345,1,0,0:0:0:0:
320,192,43431,1,0,0:0:0:0:
448,192,43518,1,0,0:0:0:0:
64,192,43605,1,0,0:0:0:0:
192,192,43692,1,0,0:0:0:0:
64,192,43778,1,8,0:0:0:0:
320,192,43778,1,8,0:0:0:0:
448,192,43778,1,0,0:0:0:0:
64,192,44125,1,0,0:0:0:0:
192,192,44125,1,0,0:0:0:0:
64,192,44472,128,0,44819:0:0:0:0:
448,192,44472,128,0,44819:0:0:0:0:
192,192,44645,1,0,0:0:0:0:
320,192,44645,1,0,0:0:0:0:
320,192,44819,1,8,0:0:0:0:
192,192,44819,1,8,0:0:0:0:
64,192,45166,1,0,0:0:0:0:
320,192,45166,1,0,0:0:0:0:
192,192,45166,128,0,45512:0:0:0:0:
320,192,45512,128,0,45859:0:0:0:0:
448,192,45859,128,0,46206:0:0:0:0:
320,192,46206,128,0,46553:0:0:0:0:
64,192,46553,1,0,0:0:0:0:
448,192,46553,1,0,0:0:0:0:
192,192,46553,128,0,47593:0:0:0:0:
320,192,47593,1,8,0:0:0:0:
448,192,47593,1,8,0:0:0:0:
64,192,47940,1,0,0:0:0:0:
448,192,47940,1,0,0:0:0:0:
192,192,48114,1,0,0:0:0:0:
320,192,48114,1,0,0:0:0:0:
64,192,48287,1,0,0:0:0:0:
448,192,48287,1,0,0:0:0:0:
192,192,48460,1,0,0:0:0:0:
320,192,48460,1,0,0:0:0:0:
64,192,48634,1,0,0:0:0:0:
448,192,48634,1,0,0:0:0:0:
192,192,48807,1,0,0:0:0:0:
320,192,48807,1,0,0:0:0:0:
64,192,48981,1,0,0:0:0:0:
192,192,48981,1,0,0:0:0:0:
192,192,49154,1,0,0:0:0:0:
320,192,49154,1,0,0:0:0:0:
320,192,49327,1,0,0:0:0:0:
448,192,49327,1,0,0:0:0:0:
64,192,49501,1,0,0:0:0:0:
192,192,49501,1,0,0:0:0:0:
448,192,49588,1,0,0:0:0:0:
320,192,49588,1,0,0:0:0:0:
64,192,49674,1,0,0:0:0:0:
192,192,49674,1,0,0:0:0:0:
448,192,49761,1,0,0:0:0:0:
320,192,49761,1,0,0:0:0:0:
192,192,49848,1,0,0:0:0:0:
320,192,49934,1,0,0:0:0:0:
448,192,50021,1,0,0:0:0:0:
192,192,50021,128,0,50368:0:0:0:0:
64,192,50021,128,8,50368:0:0:0:0:
448,192,50368,1,8,0:0:0:0:
320,192,50368,1,0,0:0:0:0:
64,192,50715,1,0,0:0:0:0:
320,192,50715,1,0,0:0:0:0:
192,192,50888,1,0,0:0:0:0:
64,192,51062,1,0,0:0:0:0:
320,192,51062,1,0,0:0:0:0:
320,192,51235,1,0,0:0:0:0:
64,192,51322,1,0,0:0:0:0:
448,192,51322,1,0,0:0:0:0:
320,192,51408,1,0,0:0:0:0:
192,192,51408,1,0,0:0:0:0:
448,192,51495,1,0,0:0:0:0:
320,192,51582,1,0,0:0:0:0:
192,192,51755,1,0,0:0:0:0:
448,192,51755,1,0,0:0:0:0:
320,192,51755,128,0,52102:0:0:0:0:
192,192,52102,1,8,0:0:0:0:
64,192,52102,128,0,52796:0:0:0:0:
192,192,52449,1,0,0:0:0:0:
448,192,52449,1,0,0:0:0:0:
320,192,52796,1,8,0:0:0:0:
192,192,52796,128,0,53142:0:0:0:0:
448,192,52796,128,0,53142:0:0:0:0:
320,192,53142,1,0,0:0:0:0:
64,192,53142,128,0,53489:0:0:0:0:
192,192,53489,1,0,0:0:0:0:
320,192,53489,1,0,0:0:0:0:
448,192,53663,1,0,0:0:0:0:
64,192,53836,1,0,0:0:0:0:
192,192,53923,1,0,0:0:0:0:
448,192,54009,1,0,0:0:0:0:
320,192,54183,1,0,0:0:0:0:
64,192,54183,1,0,0:0:0:0:
192,192,54356,1,0,0:0:0:0:
192,192,54530,1,0,0:0:0:0:
448,192,54530,1,0,0:0:0:0:
320,192,54703,1,0,0:0:0:0:
192,192,54877,1,0,0:0:0:0:
448,192,54877,1,0,0:0:0:0:
320,192,54963,1,0,0:0:0:0:
192,192,55050,1,0,0:0:0:0:
64,192,55137,1,0,0:0:0:0:
448,192,55223,1,0,0:0:0:0:
320,192,55310,1,0,0:0:0:0:
192,192,55397,1,0,0:0:0:0:
64,192,55483,1,0,0:0:0:0:
192,192,55570,128,8,55917:0:0:0:0:
448,192,55570,128,8,55917:0:0:0:0:
64,192,55744,1,0,0:0:0:0:
320,192,55744,1,0,0:0:0:0:
64,192,55917,1,8,0:0:0:0:
320,192,55917,1,8,0:0:0:0:
320,192,56264,1,0,0:0:0:0:
448,192,56264,1,0,0:0:0:0:
64,192,56437,128,8,56784:0:0:0:0:
192,192,56437,128,8,56784:0:0:0:0:
320,192,56524,1,0,0:0:0:0:
448,192,56611,1,0,0:0:0:0:
320,192,56697,1,0,0:0:0:0:
448,192,56784,128,8,57304:0:0:0:0:
320,192,56784,128,8,57304:0:0:0:0:
64,192,56871,1,0,0:0:0:0:
192,192,56957,1,0,0:0:0:0:
64,192,57044,1,0,0:0:0:0:
192,192,57131,1,0,0:0:0:0:
64,192,57218,1,0,0:0:0:0:
64,192,57304,128,8,57651:0:0:0:0:
192,192,57304,128,8,57651:0:0:0:0:
320,192,57478,1,0,0:0:0:0:
320,192,57651,128,0,58345:0:0:0:0:
192,192,57738,1,0,0:0:0:0:
64,192,57825,1,0,0:0:0:0:
192,192,57911,1,0,0:0:0:0:
448,192,57998,1,0,0:0:0:0:
192,192,58085,1,0,0:0:0:0:
448,192,58171,1,0,0:0:0:0:
64,192,58258,1,0,0:0:0:0:
192,192,58345,128,8,58692:0:0:0:0:
448,192,58345,1,0,0:0:0:0:
448,192,58692,128,0,59038:0:0:0:0:
320,192,58692,1,0,0:0:0:0:
64,192,58692,1,0,0:0:0:0:
192,192,59038,1,0,0:0:0:0:
320,192,59038,1,0,0:0:0:0:
64,192,59385,1,0,0:0:0:0:
192,192,59385,1,0,0:0:0:0:
320,192,59385,1,0,0:0:0:0:
448,192,59559,1,0,0:0:0:0:
448,192,59732,1,0,0:0:0:0:
320,192,59732,1,0,0:0:0:0:
64,192,59732,1,0,0:0:0:0:
192,192,59905,1,0,0:0:0:0:
64,192,60079,1,0,0:0:0:0:
192,192,60079,1,0,0:0:0:0:
320,192,60079,1,0,0:0:0:0:
64,192,60252,1,0,0:0:0:0:
192,192,60426,1,0,0:0:0:0:
320,192,60426,1,0,0:0:0:0:
448,192,60426,1,0,0:0:0:0:
320,192,60599,1,0,0:0:0:0:
448,192,60773,1,0,0:0:0:0:
192,192,60773,1,0,0:0:0:0:
64,192,60773,1,0,0:0:0:0:
320,192,60946,1,0,0:0:0:0:
64,192,61119,1,0,0:0:0:0:
192,192,61119,128,0,61813:0:0:0:0:
320,192,61119,128,0,61813:0:0:0:0:
448,192,61119,1,0,0:0:0:0:
448,192,61293,1,0,0:0:0:0:
64,192,61293,1,0,0:0:0:0:
64,192,61466,1,0,0:0:0:0:
448,192,61466,1,0,0:0:0:0:
64,192,61813,1,0,0:0:0:0:
448,192,61813,1,0,0:0:0:0:
192,192,61986,1,0,0:0:0:0:
64,192,62160,1,0,0:0:0:0:
320,192,62160,1,0,0:0:0:0:
448,192,62160,1,0,0:0:0:0:
448,192,62333,1,0,0:0:0:0:
192,192,62507,1,0,0:0:0:0:
64,192,62507,1,0,0:0:0:0:
320,192,62507,1,0,0:0:0:0:
192,192,62680,1,0,0:0:0:0:
64,192,62853,1,0,0:0:0:0:
320,192,62853,1,0,0:0:0:0:
448,192,62853,1,0,0:0:0:0:
192,192,63027,1,0,0:0:0:0:
64,192,63200,1,0,0:0:0:0:
192,192,63200,1,0,0:0:0:0:
320,192,63200,1,0,0:0:0:0:
320,192,63374,1,0,0:0:0:0:
448,192,63374,1,0,0:0:0:0:
192,192,63374,1,0,0:0:0:0:
64,192,63547,1,0,0:0:0:0:
192,192,63547,1,0,0:0:0:0:
320,192,63547,1,0,0:0:0:0:
64,192,63720,1,0,0:0:0:0:
320,192,63720,1,0,0:0:0:0:
448,192,63720,1,0,0:0:0:0:
192,192,63894,1,0,0:0:0:0:
448,192,63894,1,0,0:0:0:0:
64,192,63894,1,0,0:0:0:0:
64,192,64067,1,0,0:0:0:0:
320,192,64067,1,0,0:0:0:0:
192,192,64067,1,0,0:0:0:0:
64,192,64241,1,0,0:0:0:0:
448,192,64241,1,0,0:0:0:0:
320,192,64241,1,0,0:0:0:0:
192,192,64414,1,0,0:0:0:0:
320,192,64414,1,0,0:0:0:0:
448,192,64414,1,0,0:0:0:0:
64,192,64588,1,0,0:0:0:0:
448,192,64588,1,0,0:0:0:0:
192,192,64588,1,0,0:0:0:0:
192,192,64761,1,0,0:0:0:0:
320,192,64848,1,0,0:0:0:0:
64,192,64934,1,0,0:0:0:0:
192,192,64934,1,0,0:0:0:0:
448,192,64934,1,0,0:0:0:0:
448,192,65108,1,0,0:0:0:0:
320,192,65281,1,0,0:0:0:0:
192,192,65281,1,0,0:0:0:0:
64,192,65281,1,0,0:0:0:0:
64,192,65455,1,0,0:0:0:0:
320,192,65455,1,0,0:0:0:0:
192,192,65541,1,0,0:0:0:0:
320,192,65628,1,0,0:0:0:0:
448,192,65628,1,0,0:0:0:0:
64,192,65628,1,0,0:0:0:0:
320,192,65801,1,0,0:0:0:0:
448,192,65975,1,0,0:0:0:0:
192,192,65975,1,0,0:0:0:0:
64,192,65975,1,0,0:0:0:0:
448,192,66148,1,0,0:0:0:0:
320,192,66235,1,0,0:0:0:0:
448,192,66322,1,0,0:0:0:0:
192,192,66322,1,0,0:0:0:0:
64,192,66322,1,0,0:0:0:0:
192,192,66495,1,0,0:0:0:0:
64,192,66668,1,0,0:0:0:0:
320,192,66668,1,0,0:0:0:0:
448,192,66668,1,0,0:0:0:0:
192,192,66842,1,0,0:0:0:0:
64,192,66842,1,0,0:0:0:0:
320,192,66842,1,0,0:0:0:0:
448,192,67015,1,0,0:0:0:0:
320,192,67015,1,0,0:0:0:0:
64,192,67015,1,0,0:0:0:0:
320,192,67189,1,0,0:0:0:0:
192,192,67189,1,0,0:0:0:0:
448,192,67189,1,0,0:0:0:0:
448,192,67362,128,0,67666:0:0:0:0:
192,192,67362,1,0,0:0:0:0:
64,192,67362,1,0,0:0:0:0:
320,192,67536,1,0,0:0:0:0:
64,192,67666,1,0,0:0:0:0:
320,192,67666,128,0,67796:0:0:0:0:
192,192,67796,128,0,68056:0:0:0:0:
64,192,68056,128,0,68359:0:0:0:0:
320,192,68056,1,0,0:0:0:0:
448,192,68056,1,0,0:0:0:0:
192,192,68229,1,0,0:0:0:0:
448,192,68359,1,0,0:0:0:0:
192,192,68359,128,0,68489:0:0:0:0:
320,192,68489,128,0,68749:0:0:0:0:
64,192,68749,1,0,0:0:0:0:
192,192,68923,1,0,0:0:0:0:
320,192,69009,1,0,0:0:0:0:
64,192,69443,1,0,0:0:0:0:
192,192,69616,1,0,0:0:0:0:
320,192,69703,1,0,0:0:0:0:
64,192,69790,1,0,0:0:0:0:
448,192,69790,1,0,0:0:0:0:
192,192,70137,1,0,0:0:0:0:
448,192,70137,1,0,0:0:0:0:
64,192,70137,128,0,71524:0:0:0:0:
320,192,70483,1,0,0:0:0:0:
448,192,70657,1,0,0:0:0:0:
192,192,70830,1,0,0:0:0:0:
320,192,71004,1,0,0:0:0:0:
448,192,71177,1,0,0:0:0:0:
320,192,71351,1,0,0:0:0:0:
192,192,71524,1,0,0:0:0:0:
320,192,71524,1,0,0:0:0:0:
448,192,71524,128,8,71871:2:0:0:0:
192,192,71697,1,0,0:0:0:0:
320,192,71871,1,0,0:0:0:0:
192,192,71871,1,0,0:0:0:0:
64,192,71871,128,8,72218:2:0:0:0:
320,192,72044,1,0,0:0:0:0:
192,192,72218,1,0,0:0:0:0:
320,192,72218,1,0,0:0:0:0:
448,192,72218,128,8,72564:0:0:0:0:
192,192,72391,1,0,0:0:0:0:
320,192,72564,1,0,0:0:0:0:
64,192,72564,1,0,0:0:0:0:
192,192,72911,1,0,0:0:0:0:
448,192,72911,128,0,74299:0:0:0:0:
320,192,73258,1,0,0:0:0:0:
64,192,73431,1,0,0:0:0:0:
192,192,73605,1,0,0:0:0:0:
320,192,73778,1,0,0:0:0:0:
64,192,73952,1,0,0:0:0:0:
320,192,74125,1,0,0:0:0:0:
192,192,74299,1,0,0:0:0:0:
320,192,74299,1,0,0:0:0:0:
64,192,74299,128,8,74645:2:0:0:0:
320,192,74472,1,0,0:0:0:0:
192,192,74645,1,0,0:0:0:0:
320,192,74645,1,0,0:0:0:0:
448,192,74645,128,8,74992:2:0:0:0:
192,192,74819,1,0,0:0:0:0:
192,192,74992,1,0,0:0:0:0:
320,192,74992,1,0,0:0:0:0:
64,192,74992,128,8,75339:2:0:0:0:
320,192,75166,1,0,0:0:0:0:
192,192,75339,1,0,0:0:0:0:
448,192,75339,1,0,0:0:0:0:
320,192,75686,1,0,0:0:0:0:
192,192,75686,128,0,77073:0:0:0:0:
448,192,76033,1,0,0:0:0:0:
64,192,76206,1,0,0:0:0:0:
320,192,76379,1,0,0:0:0:0:
64,192,76553,1,0,0:0:0:0:
448,192,76726,1,0,0:0:0:0:
320,192,76900,1,0,0:0:0:0:
320,192,77073,1,0,0:0:0:0:
448,192,77073,1,0,0:0:0:0:
64,192,77073,128,8,77420:0:0:0:0:
320,192,77246,1,0,0:0:0:0:
320,192,77420,1,0,0:0:0:0:
448,192,77420,1,0,0:0:0:0:
192,192,77420,128,8,77767:0:0:0:0:
448,192,77593,1,0,0:0:0:0:
64,192,77767,1,0,0:0:0:0:
448,192,77767,1,0,0:0:0:0:
320,192,77767,128,8,78114:0:0:0:0:
64,192,77940,1,0,0:0:0:0:
64,192,78114,1,0,0:0:0:0:
192,192,78114,1,0,0:0:0:0:
448,192,78460,1,0,0:0:0:0:
320,192,78460,128,0,80541:0:0:0:0:
64,192,78807,1,0,0:0:0:0:
192,192,78807,1,0,0:0:0:0:
64,192,78981,1,0,0:0:0:0:
192,192,79154,1,0,0:0:0:0:
448,192,79154,1,0,0:0:0:0:
448,192,79327,1,0,0:0:0:0:
64,192,79501,1,0,0:0:0:0:
192,192,79501,1,0,0:0:0:0:
60,192,79674,1,0,0:0:0:0:
192,192,79848,1,0,0:0:0:0:
448,192,79848,1,0,0:0:0:0:
448,192,80021,1,0,0:0:0:0:
64,192,80194,1,0,0:0:0:0:
192,192,80194,1,0,0:0:0:0:
448,192,80368,1,0,0:0:0:0:
64,192,80541,1,8,0:0:0:0:
192,192,80541,1,8,0:0:0:0:
64,192,80715,1,0,0:0:0:0:
192,192,80715,1,0,0:0:0:0:
320,192,80715,1,0,0:0:0:0:
448,192,80888,1,0,0:0:0:0:
192,192,80888,1,0,0:0:0:0:
320,192,80888,1,0,0:0:0:0:
64,192,81062,1,0,0:0:0:0:
192,192,81062,1,0,0:0:0:0:
320,192,81062,1,0,0:0:0:0:
192,192,81235,1,0,0:0:0:0:
320,192,81235,1,0,0:0:0:0:
448,192,81235,1,0,0:0:0:0:
192,192,81495,1,0,0:0:0:0:
64,192,81582,1,0,0:0:0:0:
320,192,81582,1,0,0:0:0:0:
448,192,81582,1,0,0:0:0:0:
64,192,81929,1,0,0:0:0:0:
192,192,81929,1,0,0:0:0:0:
320,192,81929,1,0,0:0:0:0:
64,192,82189,1,0,0:0:0:0:
192,192,82275,1,0,0:0:0:0:
448,192,82275,1,0,0:0:0:0:
320,192,82275,1,0,0:0:0:0:
64,192,82622,1,0,0:0:0:0:
192,192,82622,1,0,0:0:0:0:
448,192,82622,1,0,0:0:0:0:
192,192,82882,1,0,0:0:0:0:
64,192,82969,1,0,0:0:0:0:
448,192,82969,1,0,0:0:0:0:
320,192,82969,1,0,0:0:0:0:
192,192,83316,1,0,0:0:0:0:
320,192,83316,1,0,0:0:0:0:
448,192,83316,1,0,0:0:0:0:
320,192,83576,1,0,0:0:0:0:
64,192,83663,1,0,0:0:0:0:
192,192,83663,1,0,0:0:0:0:
448,192,83663,1,0,0:0:0:0:
64,192,84009,1,0,0:0:0:0:
192,192,84009,1,4,0:0:0:0:
320,192,84009,1,4,0:0:0:0:
192,192,84270,1,0,0:0:0:0:
64,192,84356,1,0,0:0:0:0:
320,192,84356,1,0,0:0:0:0:
448,192,84356,1,0,0:0:0:0:
64,192,84703,1,0,0:0:0:0:
192,192,84703,1,0,0:0:0:0:
448,192,84703,1,0,0:0:0:0:
320,192,84963,1,0,0:0:0:0:
192,192,85050,1,0,0:0:0:0:
64,192,85050,1,0,0:0:0:0:
448,192,85050,1,0,0:0:0:0:
64,192,85397,1,0,0:0:0:0:
192,192,85397,1,0,0:0:0:0:
320,192,85397,1,0,0:0:0:0:
448,192,85657,1,0,0:0:0:0:
320,192,85744,1,0,0:0:0:0:
192,192,85744,1,0,0:0:0:0:
64,192,85744,1,0,0:0:0:0:
64,192,86090,1,0,0:0:0:0:
192,192,86090,1,0,0:0:0:0:
448,192,86090,1,0,0:0:0:0:
192,192,86351,1,0,0:0:0:0:
64,192,86437,1,0,0:0:0:0:
320,192,86437,1,0,0:0:0:0:
448,192,86437,1,0,0:0:0:0:
64,192,86784,128,8,88865:0:0:0:0:
320,192,86957,1,0,0:0:0:0:
192,192,87131,1,0,0:0:0:0:
192,192,87478,128,8,89038:0:0:0:0:
448,192,87651,1,0,0:0:0:0:
320,192,87825,1,0,0:0:0:0:
320,192,88171,128,8,89212:0:0:0:0:
448,192,88345,1,0,0:0:0:0:
448,192,88518,1,0,0:0:0:0:
448,192,88865,128,8,89559:0:0:0:0:
64,192,89038,128,0,89212:0:0:0:0:
192,192,89212,128,0,89559:0:0:0:0:
320,192,89559,1,8,0:0:0:0:
64,192,89559,128,0,89905:0:0:0:0:
320,192,89905,128,0,90252:0:0:0:0:
192,192,89905,1,8,0:0:0:0:
192,192,90252,128,0,90599:0:0:0:0:
448,192,90252,1,8,0:0:0:0:
448,192,90599,128,0,90946:0:0:0:0:
64,192,90599,1,8,0:0:0:0:
192,192,90946,1,0,0:0:0:0:
320,192,91033,1,0,0:0:0:0:
64,192,91119,1,0,0:0:0:0:
192,192,91206,1,0,0:0:0:0:
320,192,91293,1,0,0:0:0:0:
192,192,91379,1,0,0:0:0:0:
64,192,91466,1,0,0:0:0:0:
448,192,91553,1,0,0:0:0:0:
320,192,91640,1,0,0:0:0:0:
192,192,91726,1,0,0:0:0:0:
64,192,91813,1,0,0:0:0:0:
448,192,91900,1,0,0:0:0:0:
320,192,91986,1,0,0:0:0:0:
192,192,91986,1,0,0:0:0:0:
64,192,92160,1,0,0:0:0:0:
192,192,92333,1,0,0:0:0:0:
320,192,92333,1,0,0:0:0:0:
448,192,92333,1,0,0:0:0:0:
320,192,92507,1,0,0:0:0:0:
192,192,92680,1,0,0:0:0:0:
64,192,92680,1,0,0:0:0:0:
448,192,92680,1,0,0:0:0:0:
192,192,92853,1,0,0:0:0:0:
192,192,93027,1,0,0:0:0:0:
320,192,93027,1,0,0:0:0:0:
448,192,93027,1,0,0:0:0:0:
64,192,93200,1,0,0:0:0:0:
64,192,93374,1,0,0:0:0:0:
320,192,93374,1,0,0:0:0:0:
448,192,93374,1,0,0:0:0:0:
320,192,93547,1,0,0:0:0:0:
192,192,93720,1,0,0:0:0:0:
64,192,93720,1,0,0:0:0:0:
448,192,93720,1,0,0:0:0:0:
448,192,93894,1,0,0:0:0:0:
448,192,94067,1,0,0:0:0:0:
320,192,94067,1,0,0:0:0:0:
192,192,94067,1,0,0:0:0:0:
64,192,94241,1,0,0:0:0:0:
192,192,94414,1,0,0:0:0:0:
320,192,94414,1,0,0:0:0:0:
448,192,94414,1,0,0:0:0:0:
320,192,94588,1,0,0:0:0:0:
448,192,94761,1,0,0:0:0:0:
320,192,94761,1,0,0:0:0:0:
192,192,94761,1,0,0:0:0:0:
448,192,94934,1,0,0:0:0:0:
320,192,95108,1,0,0:0:0:0:
192,192,95108,1,0,0:0:0:0:
64,192,95108,1,0,0:0:0:0:
320,192,95281,1,0,0:0:0:0:
64,192,95455,1,0,0:0:0:0:
192,192,95455,1,0,0:0:0:0:
448,192,95455,1,0,0:0:0:0:
192,192,95628,1,0,0:0:0:0:
192,192,95801,1,0,0:0:0:0:
320,192,95801,1,0,0:0:0:0:
448,192,95801,1,0,0:0:0:0:
192,192,95975,1,0,0:0:0:0:
64,192,96148,1,0,0:0:0:0:
320,192,96148,1,0,0:0:0:0:
448,192,96148,1,0,0:0:0:0:
192,192,96322,1,0,0:0:0:0:
64,192,96495,1,0,0:0:0:0:
192,192,96495,1,0,0:0:0:0:
320,192,96495,1,0,0:0:0:0:
320,192,96668,1,0,0:0:0:0:
448,192,96842,1,0,0:0:0:0:
320,192,96842,1,0,0:0:0:0:
192,192,96842,1,0,0:0:0:0:
64,192,97015,1,0,0:0:0:0:
448,192,97189,128,0,97275:0:0:0:0:
320,192,97189,128,0,97275:0:0:0:0:
64,192,97189,128,0,97275:0:0:0:0:
192,192,97362,128,0,97449:0:0:0:0:
320,192,97362,128,0,97449:0:0:0:0:
64,192,97362,128,0,97449:0:0:0:0:
64,192,97536,128,0,97622:0:0:0:0:
320,192,97536,128,0,97622:0:0:0:0:
448,192,97536,128,0,97622:0:0:0:0:
64,192,97709,128,0,97796:0:0:0:0:
448,192,97709,128,0,97796:0:0:0:0:
192,192,97709,128,0,97796:0:0:0:0:
64,192,97882,1,0,0:0:0:0:
320,192,97882,1,0,0:0:0:0:
448,192,97882,1,0,0:0:0:0:
192,192,98056,1,0,0:0:0:0:
192,192,98229,1,0,0:0:0:0:
448,192,98229,1,0,0:0:0:0:
64,192,98229,1,0,0:0:0:0:
64,192,98403,1,0,0:0:0:0:
192,192,98576,1,0,0:0:0:0:
448,192,98576,1,0,0:0:0:0:
320,192,98576,1,0,0:0:0:0:
320,192,98749,1,0,0:0:0:0:
448,192,98923,1,0,0:0:0:0:
64,192,98923,1,0,0:0:0:0:
192,192,98923,1,0,0:0:0:0:
320,192,99096,1,0,0:0:0:0:
192,192,99270,1,0,0:0:0:0:
448,192,99270,1,0,0:0:0:0:
320,192,99270,1,0,0:0:0:0:
64,192,99443,1,0,0:0:0:0:
192,192,99616,1,0,0:0:0:0:
448,192,99616,1,0,0:0:0:0:
64,192,99616,1,0,0:0:0:0:
320,192,99790,1,0,0:0:0:0:
448,192,99963,128,0,100657:0:0:0:0:
192,192,100137,128,0,100483:0:0:0:0:
64,192,100310,128,0,100483:0:0:0:0:
320,192,100483,128,0,100657:0:0:0:0:
64,192,100657,1,0,0:0:0:0:
192,192,100657,1,0,0:0:0:0:
64,192,100744,1,0,0:0:0:0:
192,192,100744,1,0,0:0:0:0:
320,192,101004,1,0,0:0:0:0:
448,192,101004,1,0,0:0:0:0:
320,192,101090,1,0,0:0:0:0:
448,192,101090,1,0,0:0:0:0:
192,192,101177,1,0,0:0:0:0:
64,192,101351,128,0,101871:0:0:0:0:
320,192,101351,1,0,0:0:0:0:
320,192,101524,128,0,102044:0:0:0:0:
448,192,101524,1,0,0:0:0:0:
192,192,101697,128,0,102218:0:0:0:0:
448,192,101871,128,0,102391:0:0:0:0:
64,192,102044,128,0,102391:0:0:0:0:
320,192,102218,128,0,102391:0:0:0:0:
192,192,102391,1,0,0:0:0:0:
64,192,102564,1,0,0:0:0:0:
192,192,102564,1,0,0:0:0:0:
448,192,102564,1,0,0:0:0:0:
320,192,102738,1,0,0:0:0:0:
192,192,102825,1,0,0:0:0:0:
64,192,102911,1,0,0:0:0:0:
192,192,102998,1,0,0:0:0:0:
448,192,103085,1,0,0:0:0:0:
64,192,103171,1,0,0:0:0:0:
320,192,103258,1,0,0:0:0:0:
448,192,103345,1,0,0:0:0:0:
192,192,103431,1,0,0:0:0:0:
64,192,103431,1,0,0:0:0:0:
320,192,103605,1,0,0:0:0:0:
320,192,103778,1,0,0:0:0:0:
192,192,103778,1,0,0:0:0:0:
448,192,103778,1,0,0:0:0:0:
64,192,103952,1,0,0:0:0:0:
448,192,104125,1,0,0:0:0:0:
192,192,104125,1,0,0:0:0:0:
64,192,104125,1,0,0:0:0:0:
320,192,104299,1,0,0:0:0:0:
448,192,104472,1,0,0:0:0:0:
64,192,104472,1,0,0:0:0:0:
192,192,104472,1,0,0:0:0:0:
192,192,104645,1,0,0:0:0:0:
64,192,104819,1,0,0:0:0:0:
192,192,104819,1,0,0:0:0:0:
448,192,104819,1,0,0:0:0:0:
320,192,104992,1,0,0:0:0:0:
320,192,105166,1,0,0:0:0:0:
448,192,105166,1,0,0:0:0:0:
64,192,105166,1,0,0:0:0:0:
192,192,105339,1,0,0:0:0:0:
64,192,105512,1,0,0:0:0:0:
320,192,105512,1,0,0:0:0:0:
448,192,105512,1,0,0:0:0:0:
448,192,105686,1,0,0:0:0:0:
448,192,105859,1,0,0:0:0:0:
64,192,105859,1,0,0:0:0:0:
192,192,105859,1,0,0:0:0:0:
320,192,106033,1,0,0:0:0:0:
192,192,106206,1,0,0:0:0:0:
64,192,106206,1,0,0:0:0:0:
448,192,106206,1,0,0:0:0:0:
320,192,106379,1,0,0:0:0:0:
448,192,106553,1,0,0:0:0:0:
192,192,106553,1,0,0:0:0:0:
64,192,106553,1,0,0:0:0:0:
192,192,106726,1,0,0:0:0:0:
64,192,106900,1,0,0:0:0:0:
320,192,106900,1,0,0:0:0:0:
448,192,106900,1,0,0:0:0:0:
448,192,107073,1,0,0:0:0:0:
320,192,107246,1,0,0:0:0:0:
64,192,107246,1,0,0:0:0:0:
448,192,107246,1,0,0:0:0:0:
192,192,107420,1,0,0:0:0:0:
64,192,107593,1,0,0:0:0:0:
448,192,107593,1,0,0:0:0:0:
320,192,107593,1,0,0:0:0:0:
320,192,107767,1,0,0:0:0:0:
448,192,107940,1,0,0:0:0:0:
320,192,107940,1,0,0:0:0:0:
192,192,107940,1,0,0:0:0:0:
192,192,108114,1,0,0:0:0:0:
64,192,108287,1,0,0:0:0:0:
192,192,108287,1,0,0:0:0:0:
448,192,108287,1,0,0:0:0:0:
320,192,108460,1,0,0:0:0:0:
64,192,108634,1,0,0:0:0:0:
448,192,108634,1,0,0:0:0:0:
320,192,108720,1,0,0:0:0:0:
192,192,108807,1,0,0:0:0:0:
320,192,108894,1,0,0:0:0:0:
448,192,108981,1,0,0:0:0:0:
64,192,108981,1,0,0:0:0:0:
192,192,108981,1,0,0:0:0:0:
320,192,109154,1,0,0:0:0:0:
448,192,109327,128,0,110368:0:0:0:0:
64,192,109327,1,0,0:0:0:0:
192,192,109501,1,0,0:0:0:0:
320,192,109674,1,0,0:0:0:0:
64,192,109674,1,0,0:0:0:0:
64,192,109848,1,0,0:0:0:0:
320,192,110021,1,0,0:0:0:0:
192,192,110021,1,0,0:0:0:0:
192,192,110194,1,0,0:0:0:0:
64,192,110368,128,0,111755:0:0:0:0:
320,192,110368,1,0,0:0:0:0:
448,192,110541,1,0,0:0:0:0:
448,192,110715,1,0,0:0:0:0:
192,192,110715,1,0,0:0:0:0:
192,192,110888,1,0,0:0:0:0:
320,192,111062,1,0,0:0:0:0:
448,192,111062,1,0,0:0:0:0:
448,192,111235,1,0,0:0:0:0:
192,192,111408,1,0,0:0:0:0:
320,192,111408,1,0,0:0:0:0:
320,192,111582,1,0,0:0:0:0:
448,192,111755,1,0,0:0:0:0:
320,192,111755,1,0,0:0:0:0:
192,192,111842,1,0,0:0:0:0:
64,192,111842,1,0,0:0:0:0:
448,192,111929,1,0,0:0:0:0:
320,192,111929,1,0,0:0:0:0:
192,192,112015,1,0,0:0:0:0:
64,192,112015,1,0,0:0:0:0:
320,192,112102,1,0,0:0:0:0:
448,192,112102,1,0,0:0:0:0:
192,192,112189,1,0,0:0:0:0:
64,192,112189,1,0,0:0:0:0:
320,192,112275,1,0,0:0:0:0:
448,192,112275,1,0,0:0:0:0:
192,192,112362,1,0,0:0:0:0:
64,192,112362,1,0,0:0:0:0:
192,192,112449,1,0,0:0:0:0:
320,192,112449,1,0,0:0:0:0:
64,192,112536,1,0,0:0:0:0:
448,192,112536,1,0,0:0:0:0:
320,192,112622,1,0,0:0:0:0:
192,192,112622,1,0,0:0:0:0:
64,192,112709,1,0,0:0:0:0:
448,192,112709,1,0,0:0:0:0:
320,192,112796,1,0,0:0:0:0:
192,192,112796,1,0,0:0:0:0:
448,192,112882,1,0,0:0:0:0:
64,192,112882,1,0,0:0:0:0:
192,192,112969,1,0,0:0:0:0:
320,192,112969,1,0,0:0:0:0:
448,192,113056,1,0,0:0:0:0:
64,192,113056,1,0,0:0:0:0:
192,192,113142,1,0,0:0:0:0:
320,192,113142,1,0,0:0:0:0:
192,192,113316,1,0,0:0:0:0:
64,192,113489,128,0,114009:0:0:0:0:
192,192,113489,1,0,0:0:0:0:
192,192,113663,128,0,114530:0:0:0:0:
320,192,113663,1,0,0:0:0:0:
320,192,113836,128,0,114009:0:0:0:0:
448,192,113836,1,0,0:0:0:0:
448,192,114009,128,0,114530:0:0:0:0:
64,192,114183,1,8,0:0:0:0:
320,192,114183,1,8,0:0:0:0:
64,192,114356,1,0,0:0:0:0:
64,192,114530,1,8,0:0:0:0:
320,192,114530,1,8,0:0:0:0:
