osu file format v14

[General]
AudioFilename: 04 - VISION.mp3
AudioLeadIn: 0
PreviewTime: 21385
Countdown: 0
SampleSet: Soft
StackLeniency: 0.7
Mode: 3
LetterboxInBreaks: 0
SpecialStyle: 0
WidescreenStoryboard: 0

[Editor]
Bookmarks: 64565,67513,69247,96039,110345,112426,113119
DistanceSpacing: 0.5
BeatDivisor: 4
GridSize: 4
TimelineZoom: 1.5

[Metadata]
Title:VISION
TitleUnicode:VISION
Artist:nora2r
ArtistUnicode:nora2r
Creator:SanadaYukimura
Version:NOVICE
Source:SOUND VOLTEX BOOTH
Tags:SOUND VOLTEX ULTIMATE TRACKS -LEGEND OF KAC- SDVX FLOOR Marirose III GRAVITY WARS
BeatmapID:723149
BeatmapSetID:325566

[Difficulty]
HPDrainRate:7.5
CircleSize:4
OverallDifficulty:7.5
ApproachRate:5
SliderMultiplier:1.4
SliderTickRate:1

[Events]
//Background and Video events
0,0,"BG.jpg",0,0
//Break Periods
//Storyboard Layer 0 (Background)
//Storyboard Layer 1 (Fail)
//Storyboard Layer 2 (Pass)
//Storyboard Layer 3 (Foreground)
//Storyboard Sound Samples

[TimingPoints]
750,346.820809248555,4,2,1,30,1,0
22946,-100,4,2,1,30,0,1
45143,-100,4,2,1,30,0,0
92310,-100,4,2,1,30,0,1
114507,-100,4,2,1,30,0,0

[HitObjects]
448,192,750,5,2,0:0:0:0:
64,192,750,1,4,0:0:0:0:
320,192,923,1,0,0:0:0:0:
192,192,1096,1,0,0:0:0:0:
448,192,1096,1,0,0:0:0:0:
320,192,1270,1,0,0:0:0:0:
64,192,1443,1,0,0:0:0:0:
192,192,1617,1,0,0:0:0:0:
320,192,1790,1,0,0:0:0:0:
64,192,1790,1,0,0:0:0:0:
448,192,1963,1,0,0:0:0:0:
192,192,2137,1,0,0:0:0:0:
448,192,2310,1,0,0:0:0:0:
64,192,2484,1,0,0:0:0:0:
192,192,2484,1,0,0:0:0:0:
448,192,2657,1,0,0:0:0:0:
192,192,2830,1,0,0:0:0:0:
448,192,3177,1,0,0:0:0:0:
192,192,3177,1,0,0:0:0:0:
320,192,3524,1,0,0:0:0:0:
448,192,3697,1,0,0:0:0:0:
64,192,3871,1,0,0:0:0:0:
320,192,3871,1,0,0:0:0:0:
192,192,4044,1,0,0:0:0:0:
320,192,4218,1,0,0:0:0:0:
192,192,4391,1,0,0:0:0:0:
64,192,4565,1,0,0:0:0:0:
448,192,4565,1,0,0:0:0:0:
320,192,4911,1,0,0:0:0:0:
192,192,5258,1,0,0:0:0:0:
64,192,5258,1,0,0:0:0:0:
448,192,5432,1,0,0:0:0:0:
320,192,5605,1,0,0:0:0:0:
64,192,5952,1,0,0:0:0:0:
448,192,5952,1,0,0:0:0:0:
320,192,6299,1,0,0:0:0:0:
192,192,6472,1,0,0:0:0:0:
64,192,6645,1,0,0:0:0:0:
448,192,6645,1,0,0:0:0:0:
320,192,6819,1,0,0:0:0:0:
64,192,6992,1,0,0:0:0:0:
192,192,7166,1,0,0:0:0:0:
448,192,7339,1,0,0:0:0:0:
64,192,7339,1,0,0:0:0:0:
320,192,7513,1,0,0:0:0:0:
192,192,7686,1,0,0:0:0:0:
448,192,7859,1,0,0:0:0:0:
64,192,8033,1,0,0:0:0:0:
192,192,8033,1,0,0:0:0:0:
448,192,8206,1,0,0:0:0:0:
192,192,8380,1,0,0:0:0:0:
192,192,8726,1,0,0:0:0:0:
448,192,8726,1,0,0:0:0:0:
192,192,9073,1,0,0:0:0:0:
320,192,9247,1,0,0:0:0:0:
448,192,9420,1,0,0:0:0:0:
64,192,9420,1,0,0:0:0:0:
320,192,9593,1,0,0:0:0:0:
192,192,9767,1,0,0:0:0:0:
64,192,9940,1,0,0:0:0:0:
448,192,10114,1,0,0:0:0:0:
320,192,10114,1,0,0:0:0:0:
192,192,10460,1,0,0:0:0:0:
448,192,10634,1,0,0:0:0:0:
64,192,10807,1,0,0:0:0:0:
192,192,10807,1,0,0:0:0:0:
448,192,10981,1,0,0:0:0:0:
192,192,11154,1,0,0:0:0:0:
320,192,11328,1,0,0:0:0:0:
64,192,11501,1,0,0:0:0:0:
448,192,11501,1,0,0:0:0:0:
448,192,11848,1,2,0:0:0:0:
320,192,11848,1,0,0:0:0:0:
64,192,12195,1,0,0:0:0:0:
192,192,12195,1,0,0:0:0:0:
448,192,12541,1,0,0:0:0:0:
64,192,12888,1,0,0:0:0:0:
192,192,12888,1,0,0:0:0:0:
448,192,13235,1,0,0:0:0:0:
64,192,13582,1,0,0:0:0:0:
192,192,13582,1,0,0:0:0:0:
448,192,13929,1,0,0:0:0:0:
64,192,14276,1,0,0:0:0:0:
192,192,14276,1,0,0:0:0:0:
64,192,14622,1,4,0:0:0:0:
448,192,14622,1,0,0:0:0:0:
448,192,14969,1,0,0:0:0:0:
320,192,14969,1,0,0:0:0:0:
64,192,15316,1,0,0:0:0:0:
448,192,15663,1,0,0:0:0:0:
320,192,15663,1,0,0:0:0:0:
64,192,16010,1,0,0:0:0:0:
448,192,16356,1,0,0:0:0:0:
320,192,16356,1,0,0:0:0:0:
64,192,16703,1,0,0:0:0:0:
448,192,17050,1,0,0:0:0:0:
320,192,17050,1,0,0:0:0:0:
64,192,17397,1,4,0:0:0:0:
192,192,17397,1,0,0:0:0:0:
448,192,17570,1,0,0:0:0:0:
64,192,17744,1,0,0:0:0:0:
448,192,17917,1,0,0:0:0:0:
64,192,18091,1,0,0:0:0:0:
448,192,18264,1,0,0:0:0:0:
64,192,18437,1,0,0:0:0:0:
448,192,18611,1,0,0:0:0:0:
64,192,18784,1,4,0:0:0:0:
192,192,18784,1,0,0:0:0:0:
320,192,18958,1,0,0:0:0:0:
192,192,19131,1,0,0:0:0:0:
320,192,19304,1,0,0:0:0:0:
192,192,19478,1,0,0:0:0:0:
320,192,19651,1,0,0:0:0:0:
192,192,19825,1,0,0:0:0:0:
320,192,19998,1,0,0:0:0:0:
448,192,20171,128,0,20865:0:0:0:0:
192,192,20171,1,4,0:0:0:0:
320,192,20865,1,4,0:0:0:0:
192,192,20865,128,0,21559:0:0:0:0:
64,192,21559,128,0,22599:0:0:0:0:
448,192,21559,1,4,0:0:0:0:
320,192,22252,1,0,0:0:0:0:
192,192,22426,1,0,0:0:0:0:
448,192,22599,1,0,0:0:0:0:
320,192,22599,1,8,0:0:0:0:
192,192,22773,1,0,0:0:0:0:
64,192,22946,1,4,0:0:0:0:
448,192,22946,1,2,0:0:0:0:
320,192,23293,1,0,0:0:0:0:
192,192,23293,1,2,0:0:0:0:
320,192,23640,1,0,0:0:0:0:
448,192,23640,1,2,0:0:0:0:
448,192,23986,1,0,0:0:0:0:
192,192,23986,1,2,0:0:0:0:
320,192,24333,1,0,0:0:0:0:
64,192,24333,1,2,0:0:0:0:
192,192,24680,1,0,0:0:0:0:
448,192,24680,1,2,0:0:0:0:
320,192,25027,1,2,0:0:0:0:
64,192,25027,1,0,0:0:0:0:
192,192,25200,1,0,0:0:0:0:
64,192,25374,1,0,0:0:0:0:
448,192,25374,1,2,0:0:0:0:
320,192,25547,1,0,0:0:0:0:
192,192,25721,1,2,0:0:0:0:
64,192,25721,1,0,0:0:0:0:
448,192,26067,1,0,0:0:0:0:
192,192,26067,1,2,0:0:0:0:
448,192,26414,1,2,0:0:0:0:
64,192,26414,1,0,0:0:0:0:
320,192,26761,1,2,0:0:0:0:
192,192,26761,1,0,0:0:0:0:
448,192,27108,1,2,0:0:0:0:
64,192,27108,1,0,0:0:0:0:
64,192,27455,1,0,0:0:0:0:
192,192,27455,1,2,0:0:0:0:
320,192,27802,1,0,0:0:0:0:
448,192,27802,1,2,0:0:0:0:
64,192,27975,1,0,0:0:0:0:
320,192,28148,1,2,0:0:0:0:
448,192,28148,1,0,0:0:0:0:
192,192,28322,1,0,0:0:0:0:
64,192,28495,1,0,0:0:0:0:
320,192,28495,1,2,0:0:0:0:
64,192,28842,1,2,0:0:0:0:
448,192,28842,1,0,0:0:0:0:
192,192,29189,1,2,0:0:0:0:
448,192,29189,1,0,0:0:0:0:
320,192,29536,1,2,0:0:0:0:
64,192,29536,1,0,0:0:0:0:
64,192,29882,1,0,0:0:0:0:
448,192,29882,1,2,0:0:0:0:
448,192,30229,1,0,0:0:0:0:
320,192,30229,1,2,0:0:0:0:
64,192,30576,1,0,0:0:0:0:
320,192,30576,1,2,0:0:0:0:
192,192,30750,1,0,0:0:0:0:
448,192,30923,1,0,0:0:0:0:
64,192,30923,1,2,0:0:0:0:
320,192,31096,1,0,0:0:0:0:
192,192,31270,1,2,0:0:0:0:
64,192,31270,1,0,0:0:0:0:
448,192,31617,1,2,0:0:0:0:
64,192,31617,1,0,0:0:0:0:
448,192,31963,1,0,0:0:0:0:
320,192,31963,1,2,0:0:0:0:
192,192,32310,1,2,0:0:0:0:
64,192,32310,1,0,0:0:0:0:
448,192,32657,1,2,0:0:0:0:
192,192,32657,1,0,0:0:0:0:
320,192,33004,1,2,0:0:0:0:
64,192,33004,1,0,0:0:0:0:
192,192,33351,1,2,0:0:0:0:
448,192,33351,1,0,0:0:0:0:
320,192,33524,1,0,0:0:0:0:
448,192,33697,1,8,0:0:0:0:
192,192,33697,1,0,0:0:0:0:
64,192,33871,1,0,0:0:0:0:
192,192,34044,1,2,0:0:0:0:
320,192,34044,1,4,0:0:0:0:
448,192,34391,1,0,0:0:0:0:
192,192,34391,1,2,0:0:0:0:
64,192,34738,1,0,0:0:0:0:
448,192,34738,1,2,0:0:0:0:
192,192,35085,1,0,0:0:0:0:
320,192,35085,1,2,0:0:0:0:
64,192,35432,1,0,0:0:0:0:
448,192,35432,1,2,0:0:0:0:
192,192,35778,1,2,0:0:0:0:
64,192,35778,1,0,0:0:0:0:
448,192,36125,1,0,0:0:0:0:
320,192,36125,1,2,0:0:0:0:
192,192,36299,1,0,0:0:0:0:
320,192,36472,1,2,0:0:0:0:
64,192,36472,1,0,0:0:0:0:
448,192,36645,1,0,0:0:0:0:
192,192,36819,1,2,0:0:0:0:
64,192,36819,1,0,0:0:0:0:
320,192,37166,1,2,0:0:0:0:
448,192,37166,1,0,0:0:0:0:
192,192,37513,1,2,0:0:0:0:
320,192,37513,1,0,0:0:0:0:
64,192,37859,1,2,0:0:0:0:
448,192,37859,1,0,0:0:0:0:
192,192,38206,1,2,0:0:0:0:
448,192,38206,1,0,0:0:0:0:
320,192,38553,1,2,0:0:0:0:
64,192,38553,1,0,0:0:0:0:
64,192,38900,1,0,0:0:0:0:
448,192,38900,1,2,0:0:0:0:
320,192,39073,1,0,0:0:0:0:
192,192,39247,1,2,0:0:0:0:
64,192,39247,1,0,0:0:0:0:
320,192,39420,1,0,0:0:0:0:
64,192,39593,1,4,0:0:0:0:
448,192,39593,1,2,0:0:0:0:
320,192,39767,1,2,0:0:0:0:
192,192,39940,1,2,0:0:0:0:
64,192,39940,1,0,0:0:0:0:
448,192,40114,1,2,0:0:0:0:
64,192,40287,1,0,0:0:0:0:
192,192,40287,1,2,0:0:0:0:
320,192,40460,1,2,0:0:0:0:
448,192,40634,1,0,0:0:0:0:
192,192,40634,1,2,0:0:0:0:
64,192,40807,1,2,0:0:0:0:
320,192,40981,1,2,0:0:0:0:
448,192,40981,1,4,0:0:0:0:
64,192,41154,1,2,0:0:0:0:
448,192,41328,1,0,0:0:0:0:
192,192,41328,1,2,0:0:0:0:
320,192,41501,1,2,0:0:0:0:
192,192,41674,1,2,0:0:0:0:
64,192,41674,1,0,0:0:0:0:
320,192,41848,1,2,0:0:0:0:
448,192,42021,1,0,0:0:0:0:
64,192,42021,1,2,0:0:0:0:
320,192,42195,1,2,0:0:0:0:
192,192,42368,1,2,0:0:0:0:
448,192,42368,1,4,0:0:0:0:
64,192,42715,1,0,0:0:0:0:
320,192,42715,1,0,0:0:0:0:
448,192,43062,1,4,0:0:0:0:
320,192,43062,1,2,0:0:0:0:
192,192,43322,1,0,0:0:0:0:
64,192,43408,1,0,0:0:0:0:
448,192,43408,1,0,0:0:0:0:
320,192,43582,1,0,0:0:0:0:
64,192,43755,1,4,0:0:0:0:
448,192,43755,1,2,0:0:0:0:
192,192,43929,1,0,0:0:0:0:
320,192,44102,1,0,0:0:0:0:
192,192,44276,1,0,0:0:0:0:
448,192,44449,1,0,0:0:0:0:
320,192,44622,1,0,0:0:0:0:
64,192,44796,1,0,0:0:0:0:
192,192,44796,1,8,0:0:0:0:
320,192,44969,1,0,0:0:0:0:
64,192,45143,1,2,0:0:0:0:
448,192,45143,128,0,47570:0:0:0:0:
192,192,46530,128,0,47570:0:0:0:0:
64,192,47570,1,8,0:0:0:0:
320,192,47570,1,0,0:0:0:0:
320,192,47917,1,0,0:0:0:0:
192,192,47917,1,2,0:0:0:0:
320,192,48264,1,2,0:0:0:0:
448,192,48264,1,0,0:0:0:0:
64,192,48611,1,0,0:0:0:0:
192,192,48611,1,2,0:0:0:0:
192,192,48958,1,0,0:0:0:0:
448,192,48958,1,2,0:0:0:0:
192,192,49131,1,0,0:0:0:0:
64,192,49304,1,0,0:0:0:0:
448,192,49304,1,2,0:0:0:0:
192,192,49478,1,0,0:0:0:0:
64,192,49651,1,0,0:0:0:0:
448,192,49651,1,2,0:0:0:0:
192,192,49825,1,0,0:0:0:0:
448,192,49998,1,0,0:0:0:0:
320,192,49998,1,2,0:0:0:0:
192,192,50345,1,2,0:0:0:0:
64,192,50345,1,0,0:0:0:0:
448,192,50692,1,2,0:0:0:0:
64,192,50692,1,0,0:0:0:0:
320,192,51039,1,2,0:0:0:0:
192,192,51039,1,0,0:0:0:0:
448,192,51385,1,0,0:0:0:0:
320,192,51385,1,2,0:0:0:0:
192,192,51732,1,2,0:0:0:0:
64,192,51732,1,0,0:0:0:0:
448,192,52079,1,4,0:0:0:0:
64,192,52079,1,2,0:0:0:0:
320,192,52599,1,0,0:0:0:0:
64,192,52773,1,2,0:0:0:0:
448,192,52773,1,4,0:0:0:0:
192,192,53119,128,0,53466:0:0:0:0:
64,192,53466,1,4,0:0:0:0:
320,192,53466,1,2,0:0:0:0:
320,192,53813,1,2,0:0:0:0:
448,192,53813,1,0,0:0:0:0:
64,192,54160,1,0,0:0:0:0:
448,192,54160,1,2,0:0:0:0:
64,192,54507,1,0,0:0:0:0:
320,192,54507,1,2,0:0:0:0:
320,192,54680,1,0,0:0:0:0:
448,192,54854,1,2,0:0:0:0:
64,192,54854,1,0,0:0:0:0:
320,192,55027,1,0,0:0:0:0:
448,192,55200,1,2,0:0:0:0:
64,192,55200,1,0,0:0:0:0:
320,192,55374,1,0,0:0:0:0:
64,192,55547,1,0,0:0:0:0:
192,192,55547,1,2,0:0:0:0:
448,192,55894,1,0,0:0:0:0:
320,192,55894,1,2,0:0:0:0:
192,192,56241,1,2,0:0:0:0:
320,192,56328,1,0,0:0:0:0:
448,192,56414,1,0,0:0:0:0:
192,192,56588,1,2,0:0:0:0:
320,192,56674,1,0,0:0:0:0:
448,192,56761,1,0,0:0:0:0:
64,192,56934,1,2,0:0:0:0:
192,192,57021,1,0,0:0:0:0:
320,192,57108,1,0,0:0:0:0:
448,192,57195,1,0,0:0:0:0:
192,192,57281,128,0,57628:0:0:0:0:
64,192,57281,1,2,0:0:0:0:
448,192,57628,1,6,0:0:0:0:
320,192,57715,1,0,0:0:0:0:
192,192,57802,1,0,0:0:0:0:
64,192,57888,1,0,0:0:0:0:
448,192,57975,1,0,0:0:0:0:
320,192,58062,1,0,0:0:0:0:
192,192,58148,1,0,0:0:0:0:
64,192,58235,1,0,0:0:0:0:
320,192,58322,1,2,0:0:0:0:
448,192,58322,1,4,0:0:0:0:
320,192,58669,1,2,0:0:0:0:
448,192,58669,1,4,0:0:0:0:
192,192,59015,1,2,0:0:0:0:
320,192,59015,1,4,0:0:0:0:
192,192,59362,1,0,0:0:0:0:
448,192,59362,1,2,0:0:0:0:
320,192,59536,1,0,0:0:0:0:
192,192,59709,1,0,0:0:0:0:
64,192,59709,1,2,0:0:0:0:
192,192,60056,1,2,0:0:0:0:
448,192,60056,1,0,0:0:0:0:
320,192,60229,1,0,0:0:0:0:
448,192,60403,1,2,0:0:0:0:
64,192,60403,1,0,0:0:0:0:
192,192,60750,1,0,0:0:0:0:
320,192,60750,1,2,0:0:0:0:
448,192,61096,1,0,0:0:0:0:
64,192,61096,1,2,0:0:0:0:
64,192,61270,1,0,0:0:0:0:
320,192,61443,1,0,0:0:0:0:
448,192,61443,1,2,0:0:0:0:
64,192,61790,1,0,0:0:0:0:
320,192,61790,1,2,0:0:0:0:
64,192,62137,1,0,0:0:0:0:
192,192,62137,1,2,0:0:0:0:
448,192,62310,1,0,0:0:0:0:
192,192,62484,1,0,0:0:0:0:
320,192,62484,1,2,0:0:0:0:
320,192,62830,1,2,0:0:0:0:
64,192,62830,1,0,0:0:0:0:
192,192,63004,1,0,0:0:0:0:
448,192,63177,1,0,0:0:0:0:
320,192,63177,1,8,0:0:0:0:
64,192,63351,1,0,0:0:0:0:
192,192,63351,1,8,0:0:0:0:
448,192,63524,1,0,0:0:0:0:
320,192,63524,1,8,0:0:0:0:
64,192,63697,1,0,0:0:0:0:
192,192,63697,1,8,0:0:0:0:
448,192,63871,1,8,0:0:0:0:
64,192,63871,1,0,0:0:0:0:
192,192,64044,1,0,0:0:0:0:
320,192,64044,1,8,0:0:0:0:
64,192,64218,1,0,0:0:0:0:
448,192,64218,1,8,0:0:0:0:
192,192,64391,1,0,0:0:0:0:
320,192,64391,1,8,0:0:0:0:
448,192,64565,1,4,0:0:0:0:
64,192,64565,1,2,0:0:0:0:
320,192,64911,1,0,0:0:0:0:
192,192,64911,1,2,0:0:0:0:
64,192,65085,1,0,0:0:0:0:
448,192,65258,1,0,0:0:0:0:
320,192,65258,1,2,0:0:0:0:
64,192,65605,1,0,0:0:0:0:
448,192,65605,1,2,0:0:0:0:
192,192,65778,1,0,0:0:0:0:
448,192,65952,1,4,0:0:0:0:
64,192,65952,1,2,0:0:0:0:
320,192,66299,1,2,0:0:0:0:
192,192,66645,1,2,0:0:0:0:
64,192,66645,1,0,0:0:0:0:
320,192,66819,1,0,0:0:0:0:
448,192,66992,1,2,0:0:0:0:
64,192,66992,1,0,0:0:0:0:
192,192,67166,1,0,0:0:0:0:
448,192,67339,1,2,0:0:0:0:
320,192,67339,1,4,0:0:0:0:
192,192,67513,1,2,0:0:0:0:
64,192,67513,1,0,0:0:0:0:
64,192,67773,1,0,0:0:0:0:
448,192,67773,1,2,0:0:0:0:
320,192,68033,1,2,0:0:0:0:
448,192,68033,1,4,0:0:0:0:
320,192,68293,1,2,0:0:0:0:
192,192,68293,1,0,0:0:0:0:
192,192,68553,1,2,0:0:0:0:
64,192,68553,1,0,0:0:0:0:
448,192,68726,128,0,70114:0:0:0:0:
64,192,69767,1,8,0:0:0:0:
64,192,70114,1,2,0:0:0:0:
192,192,70114,1,0,0:0:0:0:
320,192,70287,1,0,0:0:0:0:
192,192,70460,1,0,0:0:0:0:
64,192,70634,1,0,0:0:0:0:
320,192,70807,1,0,0:0:0:0:
64,192,70981,1,0,0:0:0:0:
448,192,71154,1,0,0:0:0:0:
320,192,71328,1,0,0:0:0:0:
64,192,71501,1,0,0:0:0:0:
192,192,71674,1,0,0:0:0:0:
320,192,71848,1,0,0:0:0:0:
448,192,72021,1,0,0:0:0:0:
192,192,72195,1,0,0:0:0:0:
64,192,72368,1,0,0:0:0:0:
192,192,72541,1,0,0:0:0:0:
320,192,72715,1,0,0:0:0:0:
64,192,72888,1,0,0:0:0:0:
448,192,73062,1,0,0:0:0:0:
320,192,73235,1,0,0:0:0:0:
192,192,73408,1,0,0:0:0:0:
448,192,73582,1,0,0:0:0:0:
64,192,73755,1,0,0:0:0:0:
192,192,73929,1,0,0:0:0:0:
320,192,74102,1,0,0:0:0:0:
448,192,74276,1,0,0:0:0:0:
192,192,74449,1,0,0:0:0:0:
320,192,74622,1,0,0:0:0:0:
192,192,74796,1,0,0:0:0:0:
64,192,74969,1,0,0:0:0:0:
448,192,75143,1,0,0:0:0:0:
192,192,75316,1,0,0:0:0:0:
320,192,75489,1,0,0:0:0:0:
448,192,75663,1,0,0:0:0:0:
320,192,75836,1,0,0:0:0:0:
64,192,76010,1,0,0:0:0:0:
448,192,76183,1,0,0:0:0:0:
192,192,76356,1,0,0:0:0:0:
320,192,76530,1,0,0:0:0:0:
448,192,76703,1,0,0:0:0:0:
320,192,76877,1,0,0:0:0:0:
64,192,77050,1,0,0:0:0:0:
448,192,77223,1,0,0:0:0:0:
192,192,77397,1,0,0:0:0:0:
320,192,77570,1,0,0:0:0:0:
64,192,77744,1,0,0:0:0:0:
448,192,77917,1,0,0:0:0:0:
320,192,78091,1,0,0:0:0:0:
64,192,78264,1,0,0:0:0:0:
320,192,78437,1,0,0:0:0:0:
192,192,78611,1,0,0:0:0:0:
64,192,78784,1,0,0:0:0:0:
448,192,78958,1,0,0:0:0:0:
192,192,79131,1,0,0:0:0:0:
448,192,79304,1,0,0:0:0:0:
192,192,79478,1,0,0:0:0:0:
320,192,79651,1,0,0:0:0:0:
64,192,79825,1,0,0:0:0:0:
448,192,79998,1,0,0:0:0:0:
192,192,80171,1,0,0:0:0:0:
320,192,80345,1,0,0:0:0:0:
64,192,80518,1,0,0:0:0:0:
192,192,80692,1,0,0:0:0:0:
64,192,80865,1,8,0:0:0:0:
320,192,80865,1,0,0:0:0:0:
448,192,81039,1,0,0:0:0:0:
320,192,81212,1,2,0:0:0:0:
64,192,81212,1,4,0:0:0:0:
64,192,81559,1,2,0:0:0:0:
448,192,81559,1,0,0:0:0:0:
192,192,81906,1,2,0:0:0:0:
448,192,81906,1,0,0:0:0:0:
448,192,82252,1,2,0:0:0:0:
64,192,82252,1,0,0:0:0:0:
320,192,82599,1,2,0:0:0:0:
64,192,82599,1,0,0:0:0:0:
192,192,82946,1,0,0:0:0:0:
320,192,82946,1,2,0:0:0:0:
192,192,83293,1,2,0:0:0:0:
448,192,83293,1,0,0:0:0:0:
448,192,83640,1,0,0:0:0:0:
64,192,83640,1,2,0:0:0:0:
192,192,83986,1,4,0:0:0:0:
320,192,83986,1,2,0:0:0:0:
320,192,84333,1,2,0:0:0:0:
448,192,84333,1,0,0:0:0:0:
192,192,84680,1,2,0:0:0:0:
64,192,84680,1,0,0:0:0:0:
320,192,85027,1,2,0:0:0:0:
192,192,85027,1,0,0:0:0:0:
64,192,85374,1,0,0:0:0:0:
448,192,85374,1,2,0:0:0:0:
192,192,85721,1,0,0:0:0:0:
320,192,85721,1,2,0:0:0:0:
192,192,86067,1,2,0:0:0:0:
64,192,86067,1,0,0:0:0:0:
64,192,86414,1,0,0:0:0:0:
320,192,86414,1,2,0:0:0:0:
448,192,86761,1,2,0:0:0:0:
64,192,86761,1,4,0:0:0:0:
320,192,86934,1,0,0:0:0:0:
64,192,87108,1,0,0:0:0:0:
192,192,87108,1,2,0:0:0:0:
320,192,87281,1,0,0:0:0:0:
64,192,87455,1,4,0:0:0:0:
448,192,87455,1,2,0:0:0:0:
192,192,87628,1,0,0:0:0:0:
320,192,87802,1,2,0:0:0:0:
448,192,87802,1,0,0:0:0:0:
192,192,87975,1,0,0:0:0:0:
64,192,88148,1,4,0:0:0:0:
448,192,88148,1,2,0:0:0:0:
320,192,88322,1,0,0:0:0:0:
448,192,88495,1,2,0:0:0:0:
192,192,88495,1,0,0:0:0:0:
320,192,88669,1,0,0:0:0:0:
448,192,88842,1,2,0:0:0:0:
64,192,88842,1,4,0:0:0:0:
192,192,89015,1,0,0:0:0:0:
320,192,89189,1,2,0:0:0:0:
64,192,89189,1,0,0:0:0:0:
192,192,89362,1,0,0:0:0:0:
64,192,89536,1,4,0:0:0:0:
448,192,89536,1,2,0:0:0:0:
448,192,89882,1,0,0:0:0:0:
448,192,90229,1,0,0:0:0:0:
448,192,90576,1,0,0:0:0:0:
320,192,90923,1,0,0:0:0:0:
64,192,90923,128,0,91963:0:0:0:0:
448,192,91617,1,0,0:0:0:0:
320,192,91790,1,0,0:0:0:0:
448,192,91963,1,0,0:0:0:0:
192,192,91963,1,8,0:0:0:0:
320,192,92137,1,0,0:0:0:0:
64,192,92310,1,2,0:0:0:0:
192,192,92310,1,4,0:0:0:0:
192,192,92657,1,2,0:0:0:0:
320,192,92657,1,0,0:0:0:0:
320,192,93004,1,2,0:0:0:0:
448,192,93004,1,0,0:0:0:0:
64,192,93351,1,0,0:0:0:0:
448,192,93351,1,2,0:0:0:0:
192,192,93697,1,0,0:0:0:0:
320,192,93697,1,2,0:0:0:0:
448,192,94044,1,0,0:0:0:0:
64,192,94044,1,2,0:0:0:0:
192,192,94391,1,2,0:0:0:0:
64,192,94391,1,0,0:0:0:0:
320,192,94565,1,0,0:0:0:0:
448,192,94738,1,2,0:0:0:0:
64,192,94738,1,0,0:0:0:0:
192,192,94911,1,0,0:0:0:0:
320,192,95085,1,2,0:0:0:0:
448,192,95085,1,0,0:0:0:0:
192,192,95432,1,2,0:0:0:0:
64,192,95432,1,0,0:0:0:0:
64,192,95778,1,0,0:0:0:0:
448,192,95778,1,2,0:0:0:0:
192,192,96125,1,0,0:0:0:0:
320,192,96125,1,2,0:0:0:0:
64,192,96472,1,0,0:0:0:0:
320,192,96472,1,2,0:0:0:0:
64,192,96819,1,2,0:0:0:0:
448,192,96819,1,0,0:0:0:0:
192,192,97166,1,2,0:0:0:0:
320,192,97166,1,0,0:0:0:0:
448,192,97513,1,0,0:0:0:0:
320,192,97513,1,2,0:0:0:0:
64,192,97859,1,0,0:0:0:0:
448,192,97859,1,2,0:0:0:0:
320,192,98206,1,2,0:0:0:0:
192,192,98206,1,0,0:0:0:0:
320,192,98553,1,2,0:0:0:0:
448,192,98553,1,0,0:0:0:0:
64,192,98900,1,2,0:0:0:0:
448,192,98900,1,0,0:0:0:0:
192,192,99247,1,0,0:0:0:0:
320,192,99247,1,2,0:0:0:0:
192,192,99593,1,2,0:0:0:0:
64,192,99593,1,0,0:0:0:0:
320,192,99940,1,2,0:0:0:0:
448,192,99940,1,0,0:0:0:0:
64,192,100114,1,0,0:0:0:0:
192,192,100287,1,0,0:0:0:0:
448,192,100287,1,2,0:0:0:0:
320,192,100460,1,0,0:0:0:0:
448,192,100634,1,2,0:0:0:0:
64,192,100634,1,0,0:0:0:0:
192,192,100981,1,0,0:0:0:0:
320,192,100981,1,2,0:0:0:0:
448,192,101328,1,0,0:0:0:0:
64,192,101328,1,2,0:0:0:0:
320,192,101501,1,0,0:0:0:0:
64,192,101674,1,2,0:0:0:0:
448,192,101674,1,0,0:0:0:0:
192,192,101848,1,0,0:0:0:0:
64,192,102021,1,0,0:0:0:0:
320,192,102021,1,2,0:0:0:0:
320,192,102368,1,2,0:0:0:0:
64,192,102368,1,0,0:0:0:0:
192,192,102715,1,2,0:0:0:0:
448,192,102715,1,0,0:0:0:0:
320,192,103062,1,2,0:0:0:0:
448,192,103062,1,0,0:0:0:0:
192,192,103235,1,2,0:0:0:0:
64,192,103235,1,0,0:0:0:0:
320,192,103408,1,2,0:0:0:0:
448,192,103408,1,4,0:0:0:0:
64,192,103755,1,0,0:0:0:0:
448,192,103755,1,2,0:0:0:0:
192,192,104102,1,0,0:0:0:0:
320,192,104102,1,2,0:0:0:0:
448,192,104449,1,2,0:0:0:0:
64,192,104449,1,0,0:0:0:0:
320,192,104796,1,2,0:0:0:0:
448,192,104796,1,0,0:0:0:0:
192,192,105143,1,2,0:0:0:0:
320,192,105143,1,0,0:0:0:0:
64,192,105489,1,2,0:0:0:0:
448,192,105489,1,0,0:0:0:0:
192,192,105663,1,0,0:0:0:0:
320,192,105836,1,2,0:0:0:0:
64,192,105836,1,0,0:0:0:0:
448,192,106010,1,0,0:0:0:0:
320,192,106183,1,2,0:0:0:0:
192,192,106183,1,4,0:0:0:0:
192,192,106530,1,0,0:0:0:0:
320,192,106530,1,2,0:0:0:0:
448,192,106877,1,2,0:0:0:0:
64,192,106877,1,0,0:0:0:0:
320,192,107223,1,0,0:0:0:0:
448,192,107223,1,2,0:0:0:0:
64,192,107570,1,0,0:0:0:0:
192,192,107570,1,2,0:0:0:0:
192,192,107917,1,2,0:0:0:0:
320,192,107917,1,0,0:0:0:0:
320,192,108264,1,2,0:0:0:0:
64,192,108264,1,0,0:0:0:0:
448,192,108611,1,0,0:0:0:0:
64,192,108611,1,2,0:0:0:0:
192,192,108784,1,2,0:0:0:0:
320,192,108784,1,0,0:0:0:0:
448,192,108958,1,4,0:0:0:0:
64,192,108958,1,2,0:0:0:0:
320,192,109131,1,2,0:0:0:0:
64,192,109304,1,0,0:0:0:0:
192,192,109304,1,2,0:0:0:0:
320,192,109478,1,2,0:0:0:0:
448,192,109651,1,2,0:0:0:0:
320,192,109825,1,2,0:0:0:0:
64,192,109998,1,0,0:0:0:0:
192,192,109998,1,2,0:0:0:0:
320,192,110171,1,2,0:0:0:0:
448,192,110345,1,4,0:0:0:0:
64,192,110345,1,2,0:0:0:0:
192,192,110518,1,2,0:0:0:0:
320,192,110692,1,2,0:0:0:0:
448,192,110692,1,0,0:0:0:0:
192,192,110865,1,2,0:0:0:0:
64,192,111039,1,2,0:0:0:0:
192,192,111212,1,2,0:0:0:0:
320,192,111385,1,2,0:0:0:0:
448,192,111385,1,0,0:0:0:0:
192,192,111559,1,2,0:0:0:0:
64,192,111732,1,2,0:0:0:0:
320,192,111732,1,4,0:0:0:0:
448,192,111906,1,2,0:0:0:0:
64,192,112079,1,0,0:0:0:0:
320,192,112079,1,2,0:0:0:0:
192,192,112252,1,2,0:0:0:0:
448,192,112426,1,4,0:0:0:0:
320,192,112426,1,2,0:0:0:0:
192,192,112599,1,2,0:0:0:0:
448,192,112773,1,2,0:0:0:0:
64,192,112773,1,0,0:0:0:0:
320,192,112946,1,2,0:0:0:0:
64,192,113119,1,0,0:0:0:0:
192,192,113119,1,2,0:0:0:0:
320,192,113293,1,0,0:0:0:0:
448,192,113466,1,0,0:0:0:0:
192,192,113466,1,0,0:0:0:0:
64,192,113640,1,0,0:0:0:0:
192,192,113813,1,0,0:0:0:0:
320,192,113986,1,0,0:0:0:0:
64,192,114160,1,0,0:0:0:0:
448,192,114160,1,8,0:0:0:0:
320,192,114333,1,0,0:0:0:0:
64,192,114507,128,4,117281:0:0:0:0:
448,192,114507,1,0,0:0:0:0:
192,192,114507,1,0,0:0:0:0:
