osu file format v13

[General]
AudioFilename: B.B.K.K.B.K.K..mp3
AudioLeadIn: 0
PreviewTime: 10012
Countdown: 0
SampleSet: Soft
StackLeniency: 0.7
Mode: 3
LetterboxInBreaks: 0
SpecialStyle: 0
WidescreenStoryboard: 1

[Editor]
DistanceSpacing: 1
BeatDivisor: 4
GridSize: 32
TimelineZoom: 0.8000001

[Metadata]
Title:B.B.K.K.B.K.K.
TitleUnicode:B.B.K.K.B.K.K.
Artist:nora2r
ArtistUnicode:nora2r
Creator:Anima_Alumi-47
Version:Easy
Source:BMS
Tags:bof2013 u.k. hardcore bof2013 let the bass kick bms of fighters 2013 bbkkbkk
BeatmapID:565248
BeatmapSetID:245297

[Difficulty]
HPDrainRate:6
CircleSize:4
OverallDifficulty:8
ApproachRate:5
SliderMultiplier:1.4
SliderTickRate:1

[Events]
//Background and Video events
0,0,"bg.jpg",0,0
//Break Periods
//Storyboard Layer 0 (Background)
//Storyboard Layer 1 (Fail)
//Storyboard Layer 2 (Pass)
//Storyboard Layer 3 (Foreground)
//Storyboard Sound Samples

[TimingPoints]
130,352.941176470588,4,2,0,40,1,0
101777,-100,4,2,0,40,0,1
122953,-100,4,2,0,40,0,0

[HitObjects]
64,192,130,5,0,0:0:0:0:
64,192,482,1,0,0:0:0:0:
64,192,835,1,0,0:0:0:0:
64,192,1188,1,0,0:0:0:0:
64,192,1541,1,0,0:0:0:0:
64,192,1894,1,0,0:0:0:0:
64,192,2247,1,0,0:0:0:0:
192,192,2953,1,0,0:0:0:0:
320,192,3306,1,0,0:0:0:0:
64,192,3659,1,0,0:0:0:0:
64,192,4012,1,0,0:0:0:0:
192,192,4365,1,0,0:0:0:0:
320,192,4718,1,0,0:0:0:0:
320,192,5071,1,0,0:0:0:0:
64,192,5777,1,0,0:0:0:0:
448,192,6129,1,0,0:0:0:0:
320,192,6129,1,0,0:0:0:0:
64,192,6482,1,0,0:0:0:0:
64,192,6835,1,0,0:0:0:0:
448,192,6835,1,0,0:0:0:0:
192,192,7188,1,0,0:0:0:0:
448,192,7541,1,0,0:0:0:0:
320,192,7541,1,0,0:0:0:0:
64,192,7894,1,0,0:0:0:0:
64,192,8247,1,0,0:0:0:0:
448,192,8247,1,0,0:0:0:0:
64,192,8600,1,0,0:0:0:0:
448,192,8953,1,0,0:0:0:0:
320,192,8953,1,0,0:0:0:0:
320,192,9306,1,0,0:0:0:0:
64,192,9659,1,0,0:0:0:0:
192,192,9659,1,0,0:0:0:0:
192,192,10012,1,0,0:0:0:0:
64,192,11424,1,0,0:0:0:0:
320,192,11777,1,0,0:0:0:0:
64,192,12129,1,0,0:0:0:0:
320,192,12482,1,0,0:0:0:0:
64,192,12835,1,0,0:0:0:0:
320,192,13188,1,0,0:0:0:0:
64,192,13541,1,0,0:0:0:0:
320,192,13894,1,0,0:0:0:0:
64,192,14247,1,0,0:0:0:0:
320,192,14600,1,0,0:0:0:0:
64,192,14953,1,0,0:0:0:0:
320,192,15306,1,0,0:0:0:0:
64,192,15659,1,0,0:0:0:0:
320,192,16012,1,0,0:0:0:0:
192,192,16365,1,0,0:0:0:0:
320,192,16718,1,0,0:0:0:0:
64,192,17071,1,0,0:0:0:0:
448,192,17071,1,0,0:0:0:0:
320,192,17071,1,0,0:0:0:0:
448,192,17424,1,0,0:0:0:0:
192,192,17777,1,0,0:0:0:0:
448,192,18129,1,0,0:0:0:0:
192,192,18482,1,0,0:0:0:0:
448,192,18835,1,0,0:0:0:0:
192,192,19188,1,0,0:0:0:0:
448,192,19541,1,0,0:0:0:0:
192,192,19894,1,0,0:0:0:0:
320,192,20247,1,0,0:0:0:0:
64,192,20600,1,0,0:0:0:0:
192,192,20953,1,0,0:0:0:0:
64,192,21306,1,0,0:0:0:0:
64,192,22012,1,0,0:0:0:0:
192,192,22718,1,0,0:0:0:0:
448,192,23071,1,0,0:0:0:0:
320,192,23071,1,0,0:0:0:0:
192,192,23424,1,0,0:0:0:0:
320,192,23777,1,0,0:0:0:0:
64,192,23777,1,0,0:0:0:0:
192,192,24129,1,0,0:0:0:0:
320,192,24482,1,0,0:0:0:0:
448,192,24482,1,0,0:0:0:0:
192,192,24835,1,0,0:0:0:0:
320,192,25188,1,0,0:0:0:0:
64,192,25188,1,0,0:0:0:0:
448,192,25541,1,0,0:0:0:0:
320,192,25894,1,0,0:0:0:0:
192,192,25894,1,0,0:0:0:0:
64,192,26247,1,0,0:0:0:0:
320,192,26600,1,0,0:0:0:0:
192,192,26600,1,0,0:0:0:0:
448,192,26953,1,0,0:0:0:0:
320,192,27306,1,0,0:0:0:0:
64,192,27306,1,0,0:0:0:0:
192,192,27659,1,0,0:0:0:0:
64,192,28012,1,0,0:0:0:0:
64,192,28365,1,0,0:0:0:0:
192,192,28718,1,0,0:0:0:0:
448,192,28718,1,0,0:0:0:0:
64,192,29071,1,0,0:0:0:0:
192,192,29424,1,0,0:0:0:0:
320,192,29424,1,0,0:0:0:0:
64,192,29777,1,0,0:0:0:0:
192,192,30129,1,0,0:0:0:0:
448,192,30129,1,0,0:0:0:0:
64,192,30482,1,0,0:0:0:0:
448,192,30835,1,0,0:0:0:0:
320,192,30835,1,0,0:0:0:0:
192,192,31188,1,0,0:0:0:0:
448,192,31541,1,0,0:0:0:0:
64,192,31541,1,0,0:0:0:0:
192,192,31894,1,0,0:0:0:0:
448,192,32247,1,0,0:0:0:0:
320,192,32247,1,0,0:0:0:0:
64,192,32600,1,0,0:0:0:0:
64,192,32953,128,0,33659:0:0:0:0:
192,192,32953,128,0,33659:0:0:0:0:
320,192,33659,1,0,0:0:0:0:
64,192,34012,1,0,0:0:0:0:
448,192,34012,1,0,0:0:0:0:
320,192,34012,1,0,0:0:0:0:
192,192,34365,1,0,0:0:0:0:
320,192,34365,1,0,0:0:0:0:
64,192,34718,1,0,0:0:0:0:
64,192,35071,1,0,0:0:0:0:
320,192,35071,1,0,0:0:0:0:
192,192,35424,1,0,0:0:0:0:
320,192,35777,1,0,0:0:0:0:
448,192,35777,1,0,0:0:0:0:
192,192,36129,1,0,0:0:0:0:
64,192,36835,1,0,0:0:0:0:
64,192,37188,1,0,0:0:0:0:
320,192,37188,1,0,0:0:0:0:
64,192,37541,1,0,0:0:0:0:
64,192,37894,1,0,0:0:0:0:
320,192,37894,1,0,0:0:0:0:
192,192,38247,1,0,0:0:0:0:
192,192,38600,1,0,0:0:0:0:
448,192,38600,1,0,0:0:0:0:
320,192,38953,1,0,0:0:0:0:
192,192,39306,1,0,0:0:0:0:
64,192,39659,1,0,0:0:0:0:
64,192,40012,1,0,0:0:0:0:
320,192,40012,1,0,0:0:0:0:
64,192,40365,1,0,0:0:0:0:
64,192,40718,1,0,0:0:0:0:
320,192,40718,1,0,0:0:0:0:
192,192,41071,1,0,0:0:0:0:
448,192,41424,1,0,0:0:0:0:
192,192,41424,1,0,0:0:0:0:
192,192,41777,1,0,0:0:0:0:
64,192,42482,1,0,0:0:0:0:
320,192,42835,1,0,0:0:0:0:
64,192,42835,1,0,0:0:0:0:
64,192,43188,1,0,0:0:0:0:
64,192,43541,1,0,0:0:0:0:
320,192,43541,1,0,0:0:0:0:
320,192,43894,1,0,0:0:0:0:
320,192,44247,1,0,0:0:0:0:
192,192,44600,1,0,0:0:0:0:
320,192,44953,1,0,0:0:0:0:
64,192,45306,1,0,0:0:0:0:
64,192,45659,1,0,0:0:0:0:
320,192,45659,1,0,0:0:0:0:
64,192,46012,1,0,0:0:0:0:
64,192,46365,1,0,0:0:0:0:
320,192,46365,1,0,0:0:0:0:
192,192,46718,1,0,0:0:0:0:
192,192,47071,1,0,0:0:0:0:
448,192,47071,1,0,0:0:0:0:
448,192,47424,1,0,0:0:0:0:
64,192,48129,1,0,0:0:0:0:
64,192,48482,1,0,0:0:0:0:
320,192,48482,1,0,0:0:0:0:
64,192,48835,1,0,0:0:0:0:
64,192,49188,1,0,0:0:0:0:
320,192,49188,1,0,0:0:0:0:
192,192,49541,1,0,0:0:0:0:
192,192,49894,1,0,0:0:0:0:
448,192,49894,1,0,0:0:0:0:
320,192,50247,1,0,0:0:0:0:
192,192,50600,1,0,0:0:0:0:
64,192,50953,1,0,0:0:0:0:
192,192,50953,1,0,0:0:0:0:
320,192,50953,1,0,0:0:0:0:
320,192,51659,1,0,0:0:0:0:
448,192,51659,1,0,0:0:0:0:
64,192,52365,1,0,0:0:0:0:
192,192,52365,1,0,0:0:0:0:
320,192,53071,1,0,0:0:0:0:
448,192,53071,1,0,0:0:0:0:
64,192,53777,1,0,0:0:0:0:
320,192,53777,1,0,0:0:0:0:
192,192,54129,1,0,0:0:0:0:
320,192,54482,1,0,0:0:0:0:
448,192,54482,1,0,0:0:0:0:
192,192,54835,1,0,0:0:0:0:
64,192,56600,128,0,58012:0:0:0:0:
192,192,58012,128,0,59424:0:0:0:0:
320,192,59424,128,0,60835:0:0:0:0:
448,192,60835,128,0,62247:0:0:0:0:
64,192,62247,128,0,63659:0:0:0:0:
192,192,63659,128,0,65071:0:0:0:0:
320,192,65071,128,0,66482:0:0:0:0:
448,192,66482,128,0,67894:0:0:0:0:
64,192,67894,128,0,69306:0:0:0:0:
192,192,69306,128,0,70718:0:0:0:0:
320,192,70718,128,0,72129:0:0:0:0:
448,192,72129,128,0,73541:0:0:0:0:
64,192,73541,1,0,0:0:0:0:
64,192,74247,1,0,0:0:0:0:
64,192,74953,1,0,0:0:0:0:
320,192,74953,1,0,0:0:0:0:
192,192,75659,1,0,0:0:0:0:
320,192,76365,1,0,0:0:0:0:
448,192,76365,1,0,0:0:0:0:
64,192,76718,1,0,0:0:0:0:
320,192,77071,1,0,0:0:0:0:
192,192,77071,1,0,0:0:0:0:
192,192,77424,1,0,0:0:0:0:
64,192,77777,1,0,0:0:0:0:
448,192,77777,1,0,0:0:0:0:
320,192,79188,1,0,0:0:0:0:
64,192,79188,1,0,0:0:0:0:
448,192,79541,1,0,0:0:0:0:
192,192,79894,1,0,0:0:0:0:
320,192,80247,1,0,0:0:0:0:
448,192,80600,1,0,0:0:0:0:
192,192,80953,1,0,0:0:0:0:
320,192,81306,1,0,0:0:0:0:
64,192,81306,1,0,0:0:0:0:
192,192,82012,1,0,0:0:0:0:
320,192,82365,1,0,0:0:0:0:
448,192,82718,1,0,0:0:0:0:
64,192,83071,1,0,0:0:0:0:
192,192,83424,1,0,0:0:0:0:
448,192,83777,1,0,0:0:0:0:
192,192,84129,1,0,0:0:0:0:
64,192,84482,1,0,0:0:0:0:
64,192,84835,1,0,0:0:0:0:
192,192,84835,1,0,0:0:0:0:
320,192,85188,1,0,0:0:0:0:
64,192,85541,1,0,0:0:0:0:
192,192,85894,1,0,0:0:0:0:
64,192,86247,1,0,0:0:0:0:
320,192,86600,1,0,0:0:0:0:
448,192,86953,1,0,0:0:0:0:
192,192,87306,1,0,0:0:0:0:
64,192,87659,1,0,0:0:0:0:
192,192,88012,1,0,0:0:0:0:
64,192,88012,1,0,0:0:0:0:
448,192,88365,1,0,0:0:0:0:
192,192,88718,1,0,0:0:0:0:
64,192,88718,1,0,0:0:0:0:
448,192,89071,1,0,0:0:0:0:
448,192,89424,1,0,0:0:0:0:
320,192,89777,1,0,0:0:0:0:
192,192,90129,1,0,0:0:0:0:
64,192,90482,1,0,0:0:0:0:
192,192,90482,1,0,0:0:0:0:
320,192,90835,1,0,0:0:0:0:
64,192,91188,1,0,0:0:0:0:
192,192,91541,1,0,0:0:0:0:
64,192,91894,1,0,0:0:0:0:
448,192,92247,1,0,0:0:0:0:
64,192,92600,1,0,0:0:0:0:
192,192,92953,1,0,0:0:0:0:
320,192,93306,1,0,0:0:0:0:
192,192,93659,1,0,0:0:0:0:
448,192,94012,1,0,0:0:0:0:
320,192,94365,1,0,0:0:0:0:
192,192,94718,1,0,0:0:0:0:
448,192,95071,1,0,0:0:0:0:
192,192,95424,1,0,0:0:0:0:
320,192,95777,1,0,0:0:0:0:
192,192,96129,1,0,0:0:0:0:
64,192,96129,1,0,0:0:0:0:
320,192,96482,1,0,0:0:0:0:
448,192,96482,1,0,0:0:0:0:
192,192,96835,1,0,0:0:0:0:
320,192,97188,1,0,0:0:0:0:
448,192,97188,1,0,0:0:0:0:
192,192,97541,1,0,0:0:0:0:
320,192,97894,1,0,0:0:0:0:
448,192,97894,1,0,0:0:0:0:
192,192,98247,1,0,0:0:0:0:
320,192,98600,1,0,0:0:0:0:
448,192,98953,1,0,0:0:0:0:
320,192,98953,1,0,0:0:0:0:
192,192,98953,1,0,0:0:0:0:
64,192,99306,1,0,0:0:0:0:
320,192,99659,1,0,0:0:0:0:
192,192,100012,1,0,0:0:0:0:
320,192,100365,1,0,0:0:0:0:
448,192,101071,1,0,0:0:0:0:
320,192,101424,1,0,0:0:0:0:
192,192,101424,1,0,0:0:0:0:
64,192,101777,1,0,0:0:0:0:
448,192,101777,1,0,0:0:0:0:
192,192,101777,1,0,0:0:0:0:
320,192,102129,1,0,0:0:0:0:
64,192,102482,1,0,0:0:0:0:
320,192,102835,1,0,0:0:0:0:
192,192,103188,1,0,0:0:0:0:
448,192,103541,1,0,0:0:0:0:
192,192,103894,1,0,0:0:0:0:
448,192,104247,1,0,0:0:0:0:
320,192,104600,1,0,0:0:0:0:
64,192,104953,1,0,0:0:0:0:
320,192,105306,1,0,0:0:0:0:
64,192,105659,1,0,0:0:0:0:
448,192,106012,1,0,0:0:0:0:
192,192,106365,1,0,0:0:0:0:
448,192,106718,1,0,0:0:0:0:
192,192,107071,1,0,0:0:0:0:
64,192,107424,1,0,0:0:0:0:
192,192,107777,1,0,0:0:0:0:
64,192,108129,1,0,0:0:0:0:
192,192,108482,1,0,0:0:0:0:
448,192,108835,1,0,0:0:0:0:
320,192,109188,1,0,0:0:0:0:
448,192,109541,1,0,0:0:0:0:
320,192,109894,1,0,0:0:0:0:
64,192,110247,1,0,0:0:0:0:
192,192,110600,1,0,0:0:0:0:
320,192,110953,1,0,0:0:0:0:
192,192,111306,1,0,0:0:0:0:
64,192,111659,1,0,0:0:0:0:
448,192,112012,1,0,0:0:0:0:
320,192,112365,1,0,0:0:0:0:
448,192,112718,1,0,0:0:0:0:
64,192,113071,1,0,0:0:0:0:
320,192,113071,1,0,0:0:0:0:
192,192,113424,1,0,0:0:0:0:
320,192,113777,1,0,0:0:0:0:
192,192,114129,1,0,0:0:0:0:
64,192,114482,1,0,0:0:0:0:
448,192,114835,1,0,0:0:0:0:
320,192,115188,1,0,0:0:0:0:
448,192,115541,1,0,0:0:0:0:
64,192,115894,1,0,0:0:0:0:
192,192,115894,1,0,0:0:0:0:
320,192,116247,1,0,0:0:0:0:
448,192,116600,1,0,0:0:0:0:
320,192,116953,1,0,0:0:0:0:
64,192,117306,1,0,0:0:0:0:
448,192,117659,1,0,0:0:0:0:
320,192,118012,1,0,0:0:0:0:
448,192,118365,1,0,0:0:0:0:
64,192,118718,1,0,0:0:0:0:
192,192,118718,1,0,0:0:0:0:
320,192,119071,1,0,0:0:0:0:
192,192,119424,1,0,0:0:0:0:
320,192,119777,1,0,0:0:0:0:
192,192,120129,1,0,0:0:0:0:
64,192,120129,1,0,0:0:0:0:
320,192,120482,1,0,0:0:0:0:
192,192,120835,1,0,0:0:0:0:
320,192,121188,1,0,0:0:0:0:
64,192,121541,1,0,0:0:0:0:
320,192,121894,1,0,0:0:0:0:
192,192,122247,1,0,0:0:0:0:
448,192,122600,1,0,0:0:0:0:
64,192,122953,1,0,0:0:0:0:
64,192,124365,1,0,0:0:0:0:
448,192,124365,1,0,0:0:0:0:
