osu file format v14

[General]
AudioFilename: [nora2r] B.B.K.K.B.K.K (BOF2013).mp3
AudioLeadIn: 0
PreviewTime: 101735
Countdown: 0
SampleSet: Soft
StackLeniency: 0.7
Mode: 3
LetterboxInBreaks: 0
SpecialStyle: 0
WidescreenStoryboard: 0

[Editor]
DistanceSpacing: 1.1
BeatDivisor: 4
GridSize: 4
TimelineZoom: 1.3

[Metadata]
Title:B.B.K.K.B.K.K
TitleUnicode:B.B.K.K.B.K.K
Artist:nora2r
ArtistUnicode:nora2r
Creator:DanSparce
Version:Easy
Source:BMS
Tags:U.K. hardcore BOF2013 Let The Bass Kick BMS Of Fighters 2013 BBKKBKK Adinata28 Nishizumi OzzyOzrock Pharos21 tasuke912
BeatmapID:724586
BeatmapSetID:326284

[Difficulty]
HPDrainRate:6
CircleSize:4
OverallDifficulty:7
ApproachRate:5
SliderMultiplier:1.4
SliderTickRate:1

[Events]
//Background and Video events
0,0,"background.jpg",0,0
Video,0,"bass kick.avi"
//Break Periods
//Storyboard Layer 0 (Background)
//Storyboard Layer 1 (Fail)
//Storyboard Layer 2 (Pass)
//Storyboard Layer 3 (Foreground)
//Storyboard Sound Samples
Sample,51264,0,"soft-hitclap.wav",30
Sample,51970,0,"soft-hitclap.wav",30
Sample,52676,0,"soft-hitclap.wav",30
Sample,53382,0,"soft-hitclap.wav",30
Sample,54087,0,"soft-hitclap.wav",30
Sample,54793,0,"soft-hitclap.wav",30
Sample,67852,0,"soft-hitwhistle.wav",40
Sample,68205,0,"soft-hitwhistle.wav",40
Sample,68558,0,"soft-hitwhistle.wav",40
Sample,68911,0,"soft-hitwhistle.wav",40
Sample,69264,0,"soft-hitwhistle.wav",40
Sample,69617,0,"soft-hitwhistle.wav",40
Sample,69970,0,"soft-hitwhistle.wav",40
Sample,70323,0,"soft-hitwhistle.wav",40
Sample,70676,0,"soft-hitwhistle.wav",40
Sample,71029,0,"soft-hitwhistle.wav",40
Sample,71382,0,"soft-hitwhistle.wav",40
Sample,71735,0,"soft-hitwhistle.wav",40
Sample,72087,0,"soft-hitwhistle.wav",40
Sample,72440,0,"soft-hitwhistle.wav",40
Sample,72793,0,"soft-hitwhistle.wav",40
Sample,73146,0,"soft-hitwhistle.wav",40
Sample,113382,0,"soft-hitclap.wav",30
Sample,114087,0,"soft-hitclap.wav",30
Sample,114793,0,"soft-hitclap.wav",30
Sample,115499,0,"soft-hitclap.wav",30
Sample,116205,0,"soft-hitclap.wav",30
Sample,116911,0,"soft-hitclap.wav",30
Sample,117617,0,"soft-hitclap.wav",30
Sample,118323,0,"soft-hitclap.wav",30
Sample,119029,0,"soft-hitclap.wav",30
Sample,119735,0,"soft-hitclap.wav",30
Sample,120440,0,"soft-hitclap.wav",30
Sample,121146,0,"soft-hitclap.wav",30
Sample,121852,0,"soft-hitclap.wav",30
Sample,122558,0,"soft-hitclap.wav",30

[TimingPoints]
88,352.941176470588,4,2,1,40,1,0
33970,-100,4,2,1,40,0,1
55146,-100,4,2,1,40,0,0
101735,-100,4,2,1,40,0,1
122911,-100,4,2,1,40,0,0

[HitObjects]
448,192,88,5,2,0:0:0:0:
320,192,440,1,2,0:0:0:0:
192,192,793,1,2,0:0:0:0:
64,192,1146,1,2,0:0:0:0:
448,192,1499,1,2,0:0:0:0:
320,192,1852,1,2,0:0:0:0:
192,192,2205,1,2,0:0:0:0:
64,192,2558,1,2,0:0:0:0:
448,192,2911,1,2,0:0:0:0:
192,192,3264,1,2,0:0:0:0:
320,192,3617,1,2,0:0:0:0:
64,192,3970,1,2,0:0:0:0:
448,192,4323,1,2,0:0:0:0:
192,192,4676,1,2,0:0:0:0:
320,192,5029,1,2,0:0:0:0:
64,192,5382,1,2,0:0:0:0:
448,192,5735,1,2,0:0:0:0:
64,192,6087,1,2,0:0:0:0:
192,192,6087,1,8,0:0:0:0:
448,192,6440,1,2,0:0:0:0:
64,192,6793,1,2,0:0:0:0:
192,192,6793,1,8,0:0:0:0:
64,192,7146,1,2,0:0:0:0:
448,192,7499,1,8,0:0:0:0:
320,192,7499,1,2,0:0:0:0:
64,192,7852,1,2,0:0:0:0:
448,192,8205,1,8,0:0:0:0:
320,192,8205,1,2,0:0:0:0:
192,192,8558,1,2,0:0:0:0:
448,192,8911,1,8,0:0:0:0:
64,192,8911,1,2,0:0:0:0:
320,192,9264,1,2,0:0:0:0:
448,192,9617,1,2,0:0:0:0:
64,192,9617,1,8,0:0:0:0:
192,192,9970,1,2,0:0:0:0:
64,192,11382,1,2,0:0:0:50:finish.wav
448,192,11382,1,2,0:0:0:0:
192,192,11735,1,2,0:0:0:0:
320,192,12087,1,2,0:0:0:0:
448,192,12440,1,2,0:0:0:0:
64,192,12793,1,2,0:0:0:0:
320,192,13146,1,2,0:0:0:0:
192,192,13499,1,2,0:0:0:0:
448,192,13852,1,2,0:0:0:0:
64,192,14205,1,2,0:0:0:0:
192,192,14558,1,2,0:0:0:0:
448,192,14911,1,2,0:0:0:0:
320,192,15264,1,2,0:0:0:0:
64,192,15617,1,2,0:0:0:0:
192,192,15970,1,2,0:0:0:0:
320,192,16323,1,2,0:0:0:0:
448,192,17029,1,2,0:0:0:0:
64,192,17029,1,0,0:0:0:50:finish.wav
320,192,17382,1,2,0:0:0:0:
192,192,17735,1,2,0:0:0:0:
64,192,18087,1,2,0:0:0:0:
448,192,18440,1,2,0:0:0:0:
192,192,18793,1,2,0:0:0:0:
320,192,19146,1,2,0:0:0:0:
64,192,19499,1,2,0:0:0:0:
448,192,19852,1,2,0:0:0:0:
320,192,20205,1,2,0:0:0:0:
64,192,20558,1,2,0:0:0:0:
192,192,20911,1,2,0:0:0:0:
320,192,21264,1,2,0:0:0:0:
192,192,21970,1,2,0:0:0:0:
192,192,22676,1,2,0:0:0:0:
64,192,22676,1,0,0:0:0:50:finish.wav
320,192,23029,1,2,0:0:0:0:
448,192,23029,1,8,0:0:0:0:
192,192,23382,1,2,0:0:0:0:
448,192,23735,1,8,0:0:0:0:
64,192,23735,1,2,0:0:0:0:
320,192,24087,1,2,0:0:0:0:
192,192,24440,1,8,0:0:0:0:
64,192,24440,1,2,0:0:0:0:
320,192,24793,1,2,0:0:0:0:
64,192,25146,1,2,0:0:0:0:
448,192,25146,1,8,0:0:0:0:
320,192,25499,1,2,0:0:0:0:
192,192,25852,1,8,0:0:0:0:
64,192,25852,1,2,0:0:0:0:
320,192,26205,1,2,0:0:0:0:
448,192,26558,1,8,0:0:0:0:
64,192,26558,1,2,0:0:0:0:
320,192,26911,1,2,0:0:0:0:
64,192,27264,1,2,0:0:0:0:
448,192,27264,1,8,0:0:0:0:
192,192,27617,1,2,0:0:0:0:
320,192,28323,1,2,0:0:0:0:
448,192,28323,1,0,0:0:0:50:finish.wav
192,192,28676,1,8,0:0:0:0:
64,192,28676,1,2,0:0:0:0:
320,192,29029,1,2,0:0:0:0:
64,192,29382,1,2,0:0:0:0:
448,192,29382,1,8,0:0:0:0:
192,192,29735,1,2,0:0:0:0:
320,192,30087,1,2,0:0:0:0:
448,192,30087,1,8,0:0:0:0:
192,192,30440,1,2,0:0:0:0:
448,192,30793,1,8,0:0:0:0:
64,192,30793,1,2,0:0:0:0:
192,192,31146,1,2,0:0:0:0:
320,192,31499,1,2,0:0:0:0:
448,192,31499,1,8,0:0:0:0:
192,192,31852,1,2,0:0:0:0:
64,192,32205,1,2,0:0:0:0:
448,192,32205,1,8,0:0:0:0:
192,192,32558,1,2,0:0:0:0:
320,192,32911,128,0,33617:0:0:0:0:
64,192,33617,1,2,0:0:0:0:
192,192,33617,1,0,0:0:0:0:
448,192,33970,1,0,0:0:0:50:finish.wav
320,192,33970,1,2,0:0:0:0:
192,192,34323,1,2,0:0:0:0:
64,192,34676,1,2,0:0:0:0:
192,192,35029,1,2,0:0:0:0:
320,192,35382,1,2,0:0:0:0:
448,192,35735,1,2,0:0:0:0:
192,192,36087,1,2,0:0:0:0:
320,192,36440,1,2,0:0:0:0:
192,192,36793,1,2,0:0:0:0:
64,192,37146,1,2,0:0:0:0:
320,192,37499,1,2,0:0:0:0:
192,192,37852,1,2,0:0:0:0:
448,192,38205,1,2,0:0:0:0:
192,192,38558,1,2,0:0:0:0:
320,192,38911,1,2,0:0:0:0:
64,192,39264,1,2,0:0:0:0:
448,192,39617,1,2,0:0:0:0:
320,192,39970,1,2,0:0:0:0:
192,192,40323,1,2,0:0:0:0:
320,192,40676,1,2,0:0:0:0:
64,192,41029,1,2,0:0:0:0:
192,192,41382,1,2,0:0:0:0:
320,192,41735,1,2,0:0:0:0:
192,192,42087,1,2,0:0:0:0:
448,192,42440,1,2,0:0:0:0:
320,192,42793,1,2,0:0:0:0:
192,192,43146,1,2,0:0:0:0:
64,192,43499,1,2,0:0:0:0:
448,192,43852,1,0,0:0:0:50:finish.wav
320,192,43852,1,2,0:0:0:0:
192,192,44205,128,2,45264:0:0:0:0:
448,192,45264,1,0,0:0:0:50:finish.wav
320,192,45264,1,2,0:0:0:0:
192,192,45617,1,8,0:0:0:0:
64,192,45617,1,2,0:0:0:0:
320,192,45970,1,2,0:0:0:0:
448,192,46323,1,8,0:0:0:0:
64,192,46323,1,2,0:0:0:0:
192,192,46676,1,2,0:0:0:0:
320,192,47029,1,2,0:0:0:0:
448,192,47029,1,8,0:0:0:0:
192,192,47382,1,2,0:0:0:0:
320,192,47735,1,2,0:0:0:0:
448,192,47735,1,8,0:0:0:0:
192,192,48087,1,2,0:0:0:0:
64,192,48087,1,0,0:0:0:50:finish.wav
320,192,48440,1,2,0:0:0:0:
448,192,48440,1,8,0:0:0:0:
192,192,48793,1,2,0:0:0:0:
320,192,49146,1,8,0:0:0:0:
64,192,49146,1,2,0:0:0:0:
192,192,49499,1,2,0:0:0:0:
320,192,49852,1,2,0:0:0:0:
448,192,49852,1,8,0:0:0:0:
192,192,50205,1,2,0:0:0:0:
64,192,50558,1,2,0:0:0:0:
448,192,50558,1,8,0:0:0:0:
320,192,50735,1,2,0:0:0:0:
192,192,50911,1,2,0:0:0:0:
64,192,50911,1,0,0:0:0:50:finish.wav
448,192,51440,1,2,0:0:0:0:
320,192,51617,1,2,0:0:0:0:
192,192,51882,1,2,0:0:0:0:
64,192,52146,1,2,0:0:0:0:
320,192,52323,1,2,0:0:0:0:
448,192,52323,1,0,0:0:0:50:finish.wav
192,192,52587,1,2,0:0:0:0:
64,192,52852,1,2,0:0:0:0:
192,192,53029,1,2,0:0:0:0:
320,192,53205,1,2,0:0:0:0:
448,192,53382,1,2,0:0:0:0:
320,192,53558,1,2,0:0:0:0:
64,192,53735,128,2,54087:0:0:0:0:
448,192,53735,1,0,0:0:0:50:finish.wav
192,192,54087,128,2,54440:0:0:0:0:
448,192,54440,128,2,54793:0:0:0:0:
64,192,54440,1,0,0:0:0:50:finish.wav
320,192,54793,128,2,55146:0:0:0:0:
64,192,56558,1,0,0:0:0:0:
64,192,57264,1,0,0:0:0:0:
192,192,57440,1,0,0:0:0:0:
448,192,57617,1,0,0:0:0:0:
320,192,57793,1,0,0:0:0:0:
192,192,57970,1,0,0:0:0:0:
320,192,58676,1,0,0:0:0:0:
64,192,58852,1,0,0:0:0:0:
448,192,59029,1,0,0:0:0:0:
192,192,59205,1,0,0:0:0:0:
320,192,59382,1,0,0:0:0:0:
448,192,60087,1,0,0:0:0:0:
192,192,60264,1,0,0:0:0:0:
320,192,60440,1,0,0:0:0:0:
64,192,60617,1,0,0:0:0:0:
448,192,60793,1,0,0:0:0:0:
64,192,61323,1,0,0:0:0:0:
320,192,61499,1,0,0:0:0:0:
192,192,61676,1,0,0:0:0:0:
448,192,61852,1,0,0:0:0:0:
320,192,62029,1,0,0:0:0:0:
64,192,62205,1,0,0:0:0:0:
64,192,62911,1,0,0:0:0:0:
192,192,63087,1,0,0:0:0:0:
448,192,63264,1,0,0:0:0:0:
320,192,63440,1,0,0:0:0:0:
192,192,63617,1,0,0:0:0:0:
320,192,64323,1,0,0:0:0:0:
64,192,64499,1,0,0:0:0:0:
448,192,64676,1,0,0:0:0:0:
192,192,64852,1,0,0:0:0:0:
320,192,65029,1,0,0:0:0:0:
448,192,65735,1,0,0:0:0:0:
192,192,65911,1,0,0:0:0:0:
320,192,66087,1,0,0:0:0:0:
64,192,66264,1,0,0:0:0:0:
448,192,66440,1,0,0:0:0:0:
64,192,66970,1,0,0:0:0:0:
320,192,67146,1,0,0:0:0:0:
192,192,67323,1,0,0:0:0:0:
448,192,67499,1,0,0:0:0:0:
320,192,67676,1,0,0:0:0:0:
64,192,67852,1,0,0:0:0:0:
64,192,68558,1,0,0:0:0:0:
192,192,68735,1,0,0:0:0:0:
448,192,68911,1,0,0:0:0:0:
320,192,69087,1,0,0:0:0:0:
192,192,69264,1,0,0:0:0:0:
320,192,69970,1,0,0:0:0:0:
64,192,70146,1,0,0:0:0:0:
448,192,70323,1,0,0:0:0:0:
192,192,70499,1,0,0:0:0:0:
320,192,70676,1,0,0:0:0:0:
448,192,71382,1,0,0:0:0:0:
192,192,71558,1,0,0:0:0:0:
320,192,71735,1,0,0:0:0:0:
64,192,71911,1,0,0:0:0:0:
448,192,72087,1,0,0:0:0:0:
64,192,72617,1,0,0:0:0:0:
320,192,72793,1,0,0:0:0:0:
192,192,72970,1,0,0:0:0:0:
448,192,73146,1,0,0:0:0:0:
320,192,73323,1,0,0:0:0:0:
64,192,73499,1,2,0:0:0:0:
192,192,73852,1,2,0:0:0:0:
320,192,74205,1,2,0:0:0:0:
448,192,74558,1,2,0:0:0:0:
64,192,74911,1,2,0:0:0:0:
192,192,75264,1,2,0:0:0:0:
448,192,75617,1,2,0:0:0:0:
320,192,75970,1,2,0:0:0:0:
64,192,76323,128,2,76676:0:0:0:0:
448,192,76323,1,0,0:0:0:50:finish.wav
192,192,76676,128,2,77029:0:0:0:0:
448,192,77029,128,2,77382:0:0:0:0:
64,192,77029,1,0,0:0:0:50:finish.wav
320,192,77382,128,2,77735:0:0:0:0:
64,192,77735,1,2,0:0:0:0:
320,192,78264,1,0,0:0:0:0:
448,192,78440,1,0,0:0:0:0:
320,192,78617,1,0,0:0:0:0:
192,192,78793,1,0,0:0:0:0:
64,192,78970,1,0,0:0:0:0:
448,192,79146,1,0,0:0:0:50:finish.wav
320,192,79146,1,2,0:0:0:0:
192,192,79499,1,2,0:0:0:0:
64,192,79852,1,2,0:0:0:0:
192,192,80205,1,2,0:0:0:0:
320,192,80558,1,2,0:0:0:0:
448,192,80911,1,2,0:0:0:0:
192,192,81264,1,2,0:0:0:0:
320,192,81617,1,2,0:0:0:0:
64,192,81970,1,2,0:0:0:0:
320,192,82323,1,2,0:0:0:0:
192,192,82676,1,2,0:0:0:0:
448,192,83029,1,2,0:0:0:0:
320,192,83382,1,2,0:0:0:0:
192,192,83735,1,2,0:0:0:0:
64,192,84087,1,2,0:0:0:0:
192,192,84440,1,2,0:0:0:0:
448,192,84793,1,0,0:0:0:50:finish.wav
320,192,84793,1,2,0:0:0:0:
192,192,85146,1,8,0:0:0:0:
64,192,85146,1,2,0:0:0:0:
320,192,85499,1,2,0:0:0:0:
448,192,85852,1,8,0:0:0:0:
64,192,85852,1,2,0:0:0:0:
192,192,86205,1,2,0:0:0:0:
320,192,86558,1,2,0:0:0:0:
448,192,86558,1,8,0:0:0:0:
192,192,86911,1,2,0:0:0:0:
64,192,87264,1,2,0:0:0:0:
448,192,87264,1,8,0:0:0:0:
320,192,87617,1,2,0:0:0:0:
192,192,87970,1,2,0:0:0:0:
448,192,87970,1,8,0:0:0:0:
64,192,88323,1,2,0:0:0:0:
320,192,88676,1,2,0:0:0:0:
448,192,88676,1,8,0:0:0:0:
64,192,89029,1,2,0:0:0:0:
192,192,89382,128,0,90440:0:0:0:0:
448,192,90440,1,0,0:0:0:50:finish.wav
320,192,90440,1,2,0:0:0:0:
192,192,90793,1,2,0:0:0:0:
64,192,91146,1,2,0:0:0:0:
320,192,91499,1,2,0:0:0:0:
192,192,91852,1,2,0:0:0:0:
320,192,92205,1,2,0:0:0:0:
448,192,92558,1,2,0:0:0:0:
320,192,92911,1,2,0:0:0:0:
64,192,93264,1,2,0:0:0:0:
320,192,93617,1,2,0:0:0:0:
192,192,93970,1,2,0:0:0:0:
448,192,94323,1,2,0:0:0:0:
320,192,94676,1,2,0:0:0:0:
192,192,95029,1,2,0:0:0:0:
64,192,95382,1,2,0:0:0:0:
192,192,95735,1,2,0:0:0:0:
448,192,96087,1,0,0:0:0:50:finish.wav
320,192,96087,1,2,0:0:0:0:
192,192,96440,1,8,0:0:0:0:
64,192,96440,1,2,0:0:0:0:
320,192,96793,1,2,0:0:0:0:
448,192,97146,1,8,0:0:0:0:
64,192,97146,1,2,0:0:0:0:
192,192,97499,1,2,0:0:0:0:
320,192,97852,1,2,0:0:0:0:
448,192,97852,1,8,0:0:0:0:
192,192,98205,1,2,0:0:0:0:
64,192,98558,1,2,0:0:0:0:
320,192,98558,1,8,0:0:0:0:
192,192,98911,1,2,0:0:0:0:
448,192,98911,1,0,0:0:0:50:finish.wav
320,192,99264,1,8,0:0:0:0:
192,192,99970,1,8,0:0:0:0:
64,192,100323,128,0,100676:0:0:0:0:
320,192,100676,128,0,101029:0:0:0:0:
192,192,101029,128,0,101382:0:0:0:0:
320,192,101382,1,2,0:0:0:0:
448,192,101382,1,0,0:0:0:0:
192,192,101735,1,2,0:0:0:0:
64,192,101735,1,0,0:0:0:50:finish.wav
320,192,102087,1,2,0:0:0:0:
448,192,102087,1,8,0:0:0:0:
192,192,102440,1,2,0:0:0:0:
64,192,102793,1,2,0:0:0:0:
448,192,102793,1,8,0:0:0:0:
320,192,103146,1,2,0:0:0:0:
192,192,103499,1,8,0:0:0:0:
64,192,103499,1,2,0:0:0:0:
320,192,103852,128,2,104205:0:0:0:0:
64,192,104205,1,2,0:0:0:0:
448,192,104205,128,8,104558:0:0:0:0:
192,192,104558,1,2,0:0:0:0:
320,192,104911,1,2,0:0:0:0:
448,192,104911,1,8,0:0:0:0:
192,192,105264,1,2,0:0:0:0:
64,192,105617,1,2,0:0:0:0:
448,192,105617,1,8,0:0:0:0:
320,192,105970,1,2,0:0:0:0:
448,192,106323,1,8,0:0:0:0:
64,192,106323,1,2,0:0:0:0:
192,192,106676,128,2,107029:0:0:0:0:
64,192,107029,128,2,107382:0:0:0:0:
320,192,107029,1,8,0:0:0:0:
448,192,107382,1,2,0:0:0:0:
320,192,107735,1,8,0:0:0:0:
64,192,107735,1,2,0:0:0:0:
192,192,108087,1,2,0:0:0:0:
320,192,108440,1,2,0:0:0:0:
448,192,108440,1,8,0:0:0:0:
192,192,108793,1,2,0:0:0:0:
64,192,109146,1,2,0:0:0:0:
448,192,109146,1,8,0:0:0:0:
320,192,109499,128,2,109852:0:0:0:0:
448,192,109852,128,8,110205:0:0:0:0:
192,192,109852,1,2,0:0:0:0:
64,192,110205,1,2,0:0:0:0:
192,192,110558,1,2,0:0:0:0:
448,192,110558,1,8,0:0:0:0:
320,192,110911,1,2,0:0:0:0:
192,192,111264,1,8,0:0:0:0:
64,192,111264,1,2,0:0:0:0:
448,192,111617,1,2,0:0:0:0:
320,192,111970,1,8,0:0:0:0:
64,192,111970,1,2,0:0:0:0:
192,192,112323,128,2,112676:0:0:0:0:
64,192,112676,128,2,113029:0:0:0:0:
320,192,112676,1,8,0:0:0:0:
448,192,113029,1,0,0:0:0:50:finish.wav
192,192,113029,1,2,0:0:0:0:
320,192,113293,1,2,0:0:0:0:
192,192,113558,1,2,0:0:0:0:
64,192,113735,1,2,0:0:0:0:
192,192,113999,1,2,0:0:0:0:
320,192,114264,1,2,0:0:0:0:
448,192,114440,1,2,0:0:0:0:
320,192,114705,1,2,0:0:0:0:
192,192,114970,1,2,0:0:0:0:
64,192,115146,1,2,0:0:0:0:
192,192,115411,1,2,0:0:0:0:
320,192,115676,1,2,0:0:0:0:
64,192,115852,1,0,0:0:0:50:finish.wav
448,192,115852,1,2,0:0:0:0:
320,192,116117,1,2,0:0:0:0:
192,192,116382,1,2,0:0:0:0:
64,192,116558,1,2,0:0:0:0:
192,192,116823,1,2,0:0:0:0:
320,192,117087,1,2,0:0:0:0:
448,192,117264,1,2,0:0:0:0:
320,192,117529,1,2,0:0:0:0:
192,192,117793,1,2,0:0:0:0:
64,192,117970,1,2,0:0:0:0:
192,192,118235,1,2,0:0:0:0:
320,192,118499,1,2,0:0:0:0:
64,192,118676,1,2,0:0:0:0:
448,192,118676,1,0,0:0:0:50:finish.wav
192,192,119029,1,2,0:0:0:0:
320,192,119382,1,2,0:0:0:0:
192,192,119735,1,2,0:0:0:0:
64,192,120087,1,0,0:0:0:50:finish.wav
448,192,120087,1,2,0:0:0:0:
320,192,120440,1,2,0:0:0:0:
192,192,120793,1,2,0:0:0:0:
320,192,121146,1,2,0:0:0:0:
64,192,121499,128,2,121852:0:0:0:0:
448,192,121499,1,0,0:0:0:50:finish.wav
192,192,121852,128,2,122205:0:0:0:0:
448,192,122205,128,2,122558:0:0:0:0:
64,192,122205,1,2,0:0:0:50:finish.wav
320,192,122558,128,2,122911:0:0:0:0:
64,192,122911,1,2,0:0:0:0:
320,192,124323,1,2,0:0:0:0:
448,192,124323,1,0,0:0:0:50:finish.wav
