osu file format v14

[General]
AudioFilename: [nora2r] B.B.K.K.B.K.K (BOF2013).mp3
AudioLeadIn: 0
PreviewTime: 101735
Countdown: 0
SampleSet: Soft
StackLeniency: 0.7
Mode: 3
LetterboxInBreaks: 0
SpecialStyle: 0
WidescreenStoryboard: 0

[Editor]
DistanceSpacing: 1.1
BeatDivisor: 4
GridSize: 4
TimelineZoom: 1.4

[Metadata]
Title:B.B.K.K.B.K.K
TitleUnicode:B.B.K.K.B.K.K
Artist:nora2r
ArtistUnicode:nora2r
Creator:DanSparce
Version:Another
Source:BMS
Tags:U.K. hardcore BOF2013 Let The Bass Kick BMS Of Fighters 2013 BBKKBKK Adinata28 Nishizumi OzzyOzrock Pharos21 tasuke912
BeatmapID:724585
BeatmapSetID:326284

[Difficulty]
HPDrainRate:9
CircleSize:4
OverallDifficulty:8.5
ApproachRate:5
SliderMultiplier:1.4
SliderTickRate:1

[Events]
//Background and Video events
0,0,"background.jpg",0,0
Video,0,"bass kick.avi"
//Break Periods
//Storyboard Layer 0 (Background)
//Storyboard Layer 1 (Fail)
//Storyboard Layer 2 (Pass)
//Storyboard Layer 3 (Foreground)
//Storyboard Sound Samples
Sample,53735,0,"finish.wav",40
Sample,54440,0,"finish.wav",40
Sample,76323,0,"finish.wav",40
Sample,77029,0,"finish.wav",40
Sample,121499,0,"finish.wav",40
Sample,122205,0,"finish.wav",40

[TimingPoints]
88,352.941176470588,4,2,1,20,1,0
9970,-133.333333333333,4,2,1,20,0,0
11029,-80,4,2,1,20,0,0
11382,-100,4,2,1,20,0,0
16323,-80,4,2,1,20,0,0
16499,-200,4,2,1,20,0,0
16676,-80,4,2,1,20,0,0
16852,-200,4,2,1,20,0,0
17029,-100,4,2,1,20,0,0
21264,-133.333333333333,4,2,1,20,0,0
22676,-100,4,2,1,20,0,0
27617,-80,4,2,1,20,0,0
27793,-200,4,2,1,20,0,0
27970,-80,4,2,1,20,0,0
28146,-200,4,2,1,20,0,0
28323,-100,4,2,1,20,0,0
32558,-133.333333333333,4,2,1,20,0,0
33617,-80,4,2,1,20,0,0
33970,-100,4,2,1,20,0,1
44205,-80,4,2,1,20,0,1
44293,-133.333333333333,4,2,1,20,0,1
44382,-80,4,2,1,20,0,1
44470,-133.333333333333,4,2,1,20,0,1
44558,-80,4,2,1,20,0,1
44646,-133.333333333333,4,2,1,20,0,1
44735,-80,4,2,1,20,0,1
44823,-133.333333333333,4,2,1,20,0,1
44911,-80,4,2,1,20,0,1
44999,-133.333333333333,4,2,1,20,0,1
45087,-80,4,2,1,20,0,1
45176,-133.333333333333,4,2,1,20,0,1
45264,-100,4,2,1,20,0,1
55146,-133.333333333333,4,2,1,20,0,0
67852,-125,4,2,1,20,0,0
69264,-117.647058823529,4,2,1,20,0,0
70676,-111.111111111111,4,2,1,20,0,0
72087,-105.263157894737,4,2,1,20,0,0
73499,-100,4,2,1,20,0,0
77735,-133.333333333333,4,2,1,20,0,0
79146,-100,4,2,1,20,0,0
89029,-133.333333333333,4,2,1,20,0,0
89382,-100,4,2,1,20,0,0
89470,-200,4,2,1,20,0,0
89558,-100,4,2,1,20,0,0
89646,-200,4,2,1,20,0,0
89735,-100,4,2,1,20,0,0
89823,-200,4,2,1,20,0,0
89911,-100,4,2,1,20,0,0
89999,-200,4,2,1,20,0,0
90087,-100,4,2,1,20,0,0
90176,-200,4,2,1,20,0,0
90264,-100,4,2,1,20,0,0
90352,-200,4,2,1,20,0,0
90440,-100,4,2,1,20,0,0
98911,-133.333333333333,4,2,1,20,0,0
101382,-80,4,2,1,20,0,0
101735,-100,4,2,1,20,0,1
122911,-133.333333333333,4,2,1,20,0,0
123970,-80,4,2,1,20,0,0
124323,-100,4,2,1,20,0,0

[HitObjects]
64,192,88,5,2,0:0:0:0:
448,192,88,1,2,0:0:0:0:
192,192,264,1,0,0:0:0:0:
320,192,440,1,2,0:0:0:0:
448,192,440,1,2,0:0:0:0:
192,192,617,1,0,0:0:0:0:
64,192,793,1,2,0:0:0:0:
448,192,793,1,2,0:0:0:0:
320,192,970,1,0,0:0:0:0:
192,192,1146,1,2,0:0:0:0:
64,192,1146,1,2,0:0:0:0:
320,192,1323,1,0,0:0:0:0:
192,192,1499,1,2,0:0:0:0:
64,192,1499,1,2,0:0:0:0:
448,192,1676,1,0,0:0:0:0:
320,192,1852,1,2,0:0:0:0:
192,192,1852,1,2,0:0:0:0:
64,192,2029,1,0,0:0:0:0:
448,192,2205,1,2,0:0:0:0:
320,192,2205,1,2,0:0:0:0:
64,192,2382,1,0,0:0:0:0:
192,192,2558,1,2,0:0:0:0:
320,192,2558,1,2,0:0:0:0:
448,192,2735,1,0,0:0:0:0:
192,192,2911,1,2,0:0:0:0:
64,192,2911,1,2,0:0:0:0:
320,192,3087,1,0,0:0:0:0:
448,192,3264,1,2,0:0:0:0:
64,192,3264,1,2,0:0:0:0:
192,192,3440,1,0,0:0:0:0:
448,192,3617,1,2,0:0:0:0:
320,192,3617,1,2,0:0:0:0:
192,192,3793,1,0,0:0:0:0:
448,192,3970,1,2,0:0:0:0:
64,192,3970,1,2,0:0:0:0:
320,192,4146,1,0,0:0:0:0:
192,192,4323,1,2,0:0:0:0:
64,192,4323,1,2,0:0:0:0:
448,192,4499,1,0,0:0:0:0:
320,192,4676,1,2,0:0:0:0:
64,192,4676,1,2,0:0:0:0:
192,192,4852,1,0,0:0:0:0:
448,192,5029,1,2,0:0:0:0:
320,192,5029,1,2,0:0:0:0:
64,192,5205,1,0,0:0:0:0:
192,192,5382,1,2,0:0:0:0:
448,192,5382,1,2,0:0:0:0:
320,192,5558,1,0,0:0:0:0:
64,192,5735,1,2,0:0:0:0:
448,192,5735,1,2,0:0:0:0:
320,192,5911,1,0,0:0:0:0:
448,192,6087,1,8,0:0:0:0:
192,192,6087,1,2,0:0:0:0:
64,192,6087,1,2,0:0:0:0:
320,192,6264,1,0,0:0:0:0:
64,192,6440,1,2,0:0:0:0:
448,192,6440,1,2,0:0:0:0:
320,192,6617,1,0,0:0:0:0:
64,192,6793,1,2,0:0:0:0:
192,192,6793,1,2,0:0:0:0:
448,192,6793,1,8,0:0:0:0:
320,192,6970,1,0,0:0:0:0:
448,192,7146,1,2,0:0:0:0:
64,192,7146,1,2,0:0:0:0:
192,192,7323,1,0,0:0:0:0:
320,192,7499,1,2,0:0:0:0:
448,192,7499,1,2,0:0:0:0:
64,192,7499,1,8,0:0:0:0:
192,192,7676,1,0,0:0:0:0:
64,192,7852,1,2,0:0:0:0:
448,192,7852,1,2,0:0:0:0:
192,192,8029,1,0,0:0:0:0:
448,192,8205,1,2,0:0:0:0:
64,192,8205,1,8,0:0:0:0:
320,192,8205,1,2,0:0:0:0:
192,192,8382,1,0,0:0:0:0:
448,192,8558,1,2,0:0:0:0:
320,192,8558,1,2,0:0:0:0:
64,192,8735,1,0,0:0:0:0:
192,192,8911,1,8,0:0:0:0:
320,192,8911,1,2,0:0:0:0:
448,192,8911,1,2,0:0:0:0:
64,192,9087,1,0,0:0:0:0:
320,192,9264,1,2,0:0:0:0:
448,192,9264,1,2,0:0:0:0:
64,192,9440,1,0,0:0:0:0:
448,192,9617,1,2,0:0:0:0:
320,192,9617,1,2,0:0:0:0:
192,192,9617,1,8,0:0:0:0:
64,192,9793,1,0,0:0:0:0:
320,192,9970,1,2,0:0:0:0:
448,192,9970,1,2,0:0:0:0:
448,192,11382,1,2,0:0:0:0:
64,192,11382,1,0,0:0:0:40:finish.wav
320,192,11382,1,2,0:0:0:0:
192,192,11558,1,4,0:0:0:0:
448,192,11558,1,0,0:0:0:0:
320,192,11646,1,0,0:0:0:0:
448,192,11735,1,2,0:0:0:0:
64,192,11735,1,2,0:0:0:0:
192,192,11911,1,4,0:0:0:0:
320,192,11911,1,0,0:0:0:0:
192,192,12087,1,2,0:0:0:0:
448,192,12087,1,2,0:0:0:0:
64,192,12264,1,4,0:0:0:0:
320,192,12264,1,0,0:0:0:0:
192,192,12352,1,0,0:0:0:0:
320,192,12440,1,2,0:0:0:0:
448,192,12440,1,2,0:0:0:0:
192,192,12617,1,0,0:0:0:0:
64,192,12617,1,4,0:0:0:0:
64,192,12793,1,2,0:0:0:0:
320,192,12793,1,2,0:0:0:0:
192,192,12970,1,4,0:0:0:0:
448,192,12970,1,0,0:0:0:0:
320,192,13058,1,0,0:0:0:0:
192,192,13146,1,2,0:0:0:0:
64,192,13146,1,2,0:0:0:0:
448,192,13323,1,0,0:0:0:0:
320,192,13323,1,4,0:0:0:0:
448,192,13499,1,2,0:0:0:0:
64,192,13499,1,2,0:0:0:0:
192,192,13676,1,4,0:0:0:0:
320,192,13676,1,0,0:0:0:0:
448,192,13764,1,0,0:0:0:0:
320,192,13852,1,2,0:0:0:0:
64,192,13852,1,2,0:0:0:0:
192,192,14029,1,4,0:0:0:0:
448,192,14029,1,0,0:0:0:0:
448,192,14205,1,2,0:0:0:0:
320,192,14205,1,2,0:0:0:0:
64,192,14382,1,4,0:0:0:0:
192,192,14382,1,0,0:0:0:0:
320,192,14470,1,0,0:0:0:0:
448,192,14558,1,2,0:0:0:0:
64,192,14558,1,2,0:0:0:0:
192,192,14735,1,0,0:0:0:0:
64,192,14735,1,4,0:0:0:0:
320,192,14911,1,2,0:0:0:0:
448,192,14911,1,2,0:0:0:0:
64,192,15087,1,4,0:0:0:0:
320,192,15087,1,0,0:0:0:0:
192,192,15176,1,0,0:0:0:0:
448,192,15264,1,2,0:0:0:0:
64,192,15264,1,2,0:0:0:0:
192,192,15440,1,4,0:0:0:0:
320,192,15440,1,0,0:0:0:0:
448,192,15617,1,2,0:0:0:0:
320,192,15617,1,2,0:0:0:0:
64,192,15793,1,4,0:0:0:0:
192,192,15793,1,0,0:0:0:0:
320,192,15882,1,0,0:0:0:0:
448,192,15970,1,2,0:0:0:0:
192,192,15970,1,2,0:0:0:0:
320,192,16146,1,0,0:0:0:0:
64,192,16146,1,4,0:0:0:0:
64,192,16323,1,2,0:0:0:0:
192,192,16323,1,2,0:0:0:0:
320,192,16676,1,0,0:0:0:0:
448,192,16676,1,0,0:0:0:0:
192,192,17029,1,2,0:0:0:0:
64,192,17029,1,0,0:0:0:40:finish.wav
448,192,17029,1,2,0:0:0:0:
64,192,17205,1,0,0:0:0:0:
320,192,17205,1,4,0:0:0:0:
192,192,17293,1,0,0:0:0:0:
448,192,17382,1,2,0:0:0:0:
64,192,17382,1,2,0:0:0:0:
192,192,17558,1,0,0:0:0:0:
320,192,17558,1,4,0:0:0:0:
320,192,17735,1,2,0:0:0:0:
64,192,17735,1,2,0:0:0:0:
448,192,17911,1,4,0:0:0:0:
192,192,17911,1,0,0:0:0:0:
320,192,17999,1,0,0:0:0:0:
192,192,18087,1,2,0:0:0:0:
64,192,18087,1,2,0:0:0:0:
320,192,18264,1,0,0:0:0:0:
448,192,18264,1,4,0:0:0:0:
448,192,18440,1,2,0:0:0:0:
192,192,18440,1,2,0:0:0:0:
320,192,18617,1,4,0:0:0:0:
64,192,18617,1,0,0:0:0:0:
192,192,18705,1,0,0:0:0:0:
320,192,18793,1,2,0:0:0:0:
448,192,18793,1,2,0:0:0:0:
64,192,18970,1,0,0:0:0:0:
192,192,18970,1,4,0:0:0:0:
64,192,19146,1,2,0:0:0:0:
448,192,19146,1,2,0:0:0:0:
320,192,19323,1,4,0:0:0:0:
192,192,19323,1,0,0:0:0:0:
64,192,19411,1,0,0:0:0:0:
192,192,19499,1,2,0:0:0:0:
448,192,19499,1,2,0:0:0:0:
320,192,19676,1,4,0:0:0:0:
64,192,19676,1,0,0:0:0:0:
64,192,19852,1,2,0:0:0:0:
192,192,19852,1,2,0:0:0:0:
448,192,20029,1,4,0:0:0:0:
320,192,20029,1,0,0:0:0:0:
192,192,20117,1,0,0:0:0:0:
64,192,20205,1,2,0:0:0:0:
448,192,20205,1,2,0:0:0:0:
320,192,20382,1,0,0:0:0:0:
448,192,20382,1,4,0:0:0:0:
64,192,20558,1,2,0:0:0:0:
192,192,20558,1,2,0:0:0:0:
448,192,20735,1,4,0:0:0:0:
192,192,20735,1,0,0:0:0:0:
320,192,20823,1,0,0:0:0:0:
64,192,20911,1,2,0:0:0:0:
448,192,20911,1,2,0:0:0:0:
320,192,21087,1,4,0:0:0:0:
192,192,21087,1,0,0:0:0:0:
64,192,21264,1,2,0:0:0:0:
192,192,21264,1,2,0:0:0:0:
64,192,21440,1,4,0:0:0:0:
192,192,21529,1,0,0:0:0:0:
192,192,21793,1,0,0:0:0:0:
320,192,21970,1,2,0:0:0:0:
448,192,21970,1,2,0:0:0:0:
448,192,22146,1,4,0:0:0:0:
320,192,22235,1,0,0:0:0:0:
320,192,22499,1,0,0:0:0:0:
192,192,22676,1,2,0:0:0:0:
64,192,22676,1,0,0:0:0:40:finish.wav
448,192,22676,1,2,0:0:0:0:
320,192,22852,1,4,0:0:0:0:
448,192,22852,1,0,0:0:0:0:
192,192,22940,1,0,0:0:0:0:
320,192,23029,1,2,0:0:0:0:
64,192,23029,1,8,0:0:0:0:
448,192,23029,1,2,0:0:0:0:
192,192,23117,1,0,0:0:0:0:
320,192,23205,1,4,0:0:0:0:
448,192,23205,1,0,0:0:0:0:
192,192,23293,1,0,0:0:0:0:
64,192,23382,1,2,0:0:0:0:
448,192,23382,1,2,0:0:0:0:
320,192,23470,1,0,0:0:0:0:
64,192,23558,1,4,0:0:0:0:
448,192,23558,1,0,0:0:0:0:
192,192,23646,1,0,0:0:0:0:
64,192,23735,1,8,0:0:0:0:
320,192,23735,1,2,0:0:0:0:
448,192,23735,1,2,0:0:0:0:
192,192,23823,1,0,0:0:0:0:
320,192,23911,1,0,0:0:0:0:
64,192,23911,1,4,0:0:0:0:
448,192,24087,1,2,0:0:0:0:
192,192,24087,1,2,0:0:0:0:
320,192,24264,1,4,0:0:0:0:
448,192,24264,1,0,0:0:0:0:
192,192,24352,1,0,0:0:0:0:
64,192,24440,1,8,0:0:0:0:
320,192,24440,1,2,0:0:0:0:
448,192,24440,1,2,0:0:0:0:
192,192,24529,1,0,0:0:0:0:
448,192,24617,1,0,0:0:0:0:
64,192,24617,1,4,0:0:0:0:
320,192,24705,1,0,0:0:0:0:
192,192,24793,1,2,0:0:0:0:
64,192,24793,1,2,0:0:0:0:
320,192,24882,1,0,0:0:0:0:
448,192,24970,1,0,0:0:0:0:
64,192,24970,1,4,0:0:0:0:
192,192,25058,1,0,0:0:0:0:
320,192,25146,1,2,0:0:0:0:
448,192,25146,1,2,0:0:0:0:
64,192,25146,1,8,0:0:0:0:
192,192,25235,1,0,0:0:0:0:
448,192,25323,1,0,0:0:0:0:
320,192,25323,1,4,0:0:0:0:
192,192,25499,1,2,0:0:0:0:
64,192,25499,1,2,0:0:0:0:
448,192,25676,1,0,0:0:0:0:
320,192,25676,1,4,0:0:0:0:
192,192,25764,1,0,0:0:0:0:
64,192,25852,1,8,0:0:0:0:
320,192,25852,1,2,0:0:0:0:
448,192,25852,1,2,0:0:0:0:
192,192,25940,1,0,0:0:0:0:
448,192,26029,1,0,0:0:0:0:
320,192,26029,1,4,0:0:0:0:
192,192,26117,1,0,0:0:0:0:
448,192,26205,1,2,0:0:0:0:
64,192,26205,1,2,0:0:0:0:
320,192,26293,1,0,0:0:0:0:
64,192,26382,1,4,0:0:0:0:
192,192,26382,1,0,0:0:0:0:
320,192,26470,1,0,0:0:0:0:
448,192,26558,1,8,0:0:0:0:
192,192,26558,1,2,0:0:0:0:
64,192,26558,1,2,0:0:0:0:
320,192,26646,1,0,0:0:0:0:
64,192,26735,1,4,0:0:0:0:
448,192,26735,1,0,0:0:0:0:
192,192,26911,1,2,0:0:0:0:
320,192,26911,1,2,0:0:0:0:
64,192,27087,1,4,0:0:0:0:
448,192,27087,1,0,0:0:0:0:
192,192,27176,1,0,0:0:0:0:
64,192,27264,1,8,0:0:0:0:
320,192,27264,1,2,0:0:0:0:
448,192,27264,1,2,0:0:0:0:
192,192,27352,1,0,0:0:0:0:
320,192,27440,1,4,0:0:0:0:
448,192,27440,1,0,0:0:0:0:
192,192,27529,1,0,0:0:0:0:
64,192,27617,1,2,0:0:0:0:
320,192,27617,1,2,0:0:0:0:
192,192,27970,1,0,0:0:0:0:
448,192,27970,1,0,0:0:0:0:
320,192,28323,1,2,0:0:0:0:
64,192,28323,1,0,0:0:0:40:finish.wav
448,192,28323,1,2,0:0:0:0:
192,192,28499,1,4,0:0:0:0:
64,192,28499,1,0,0:0:0:0:
320,192,28587,1,0,0:0:0:0:
192,192,28676,1,2,0:0:0:0:
448,192,28676,1,8,0:0:0:0:
64,192,28676,1,2,0:0:0:0:
320,192,28764,1,0,0:0:0:0:
64,192,28852,1,0,0:0:0:0:
192,192,28852,1,4,0:0:0:0:
320,192,28940,1,0,0:0:0:0:
64,192,29029,1,2,0:0:0:0:
448,192,29029,1,2,0:0:0:0:
192,192,29117,1,0,0:0:0:0:
64,192,29205,1,0,0:0:0:0:
448,192,29205,1,4,0:0:0:0:
320,192,29293,1,0,0:0:0:0:
192,192,29382,1,2,0:0:0:0:
448,192,29382,1,8,0:0:0:0:
64,192,29382,1,2,0:0:0:0:
320,192,29470,1,0,0:0:0:0:
448,192,29558,1,4,0:0:0:0:
192,192,29558,1,0,0:0:0:0:
320,192,29735,1,2,0:0:0:0:
64,192,29735,1,2,0:0:0:0:
64,192,29911,1,0,0:0:0:0:
192,192,29911,1,4,0:0:0:0:
320,192,29999,1,0,0:0:0:0:
192,192,30087,1,2,0:0:0:0:
448,192,30087,1,8,0:0:0:0:
64,192,30087,1,2,0:0:0:0:
320,192,30176,1,0,0:0:0:0:
64,192,30264,1,0,0:0:0:0:
448,192,30264,1,4,0:0:0:0:
192,192,30352,1,0,0:0:0:0:
448,192,30440,1,2,0:0:0:0:
320,192,30440,1,2,0:0:0:0:
192,192,30529,1,0,0:0:0:0:
64,192,30617,1,0,0:0:0:0:
448,192,30617,1,4,0:0:0:0:
320,192,30705,1,0,0:0:0:0:
192,192,30793,1,2,0:0:0:0:
448,192,30793,1,8,0:0:0:0:
64,192,30793,1,2,0:0:0:0:
320,192,30882,1,0,0:0:0:0:
64,192,30970,1,0,0:0:0:0:
192,192,30970,1,4,0:0:0:0:
320,192,31146,1,2,0:0:0:0:
448,192,31146,1,2,0:0:0:0:
192,192,31323,1,4,0:0:0:0:
64,192,31323,1,0,0:0:0:0:
320,192,31411,1,0,0:0:0:0:
64,192,31499,1,2,0:0:0:0:
192,192,31499,1,2,0:0:0:0:
448,192,31499,1,8,0:0:0:0:
320,192,31587,1,0,0:0:0:0:
192,192,31676,1,4,0:0:0:0:
64,192,31676,1,0,0:0:0:0:
320,192,31764,1,0,0:0:0:0:
64,192,31852,1,2,0:0:0:0:
448,192,31852,1,2,0:0:0:0:
192,192,31940,1,0,0:0:0:0:
320,192,32029,1,0,0:0:0:0:
448,192,32029,1,4,0:0:0:0:
192,192,32117,1,0,0:0:0:0:
64,192,32205,1,8,0:0:0:0:
448,192,32205,1,2,0:0:0:0:
320,192,32205,1,2,0:0:0:0:
192,192,32293,1,0,0:0:0:0:
64,192,32382,1,0,0:0:0:0:
448,192,32382,1,4,0:0:0:0:
192,192,32558,1,2,0:0:0:0:
320,192,32558,1,2,0:0:0:0:
192,192,32911,128,0,33617:0:0:0:0:
448,192,33617,1,2,0:0:0:0:
320,192,33617,1,2,0:0:0:0:
64,192,33617,1,0,0:0:0:0:
320,192,33970,1,2,0:0:0:0:
448,192,33970,1,2,0:0:0:0:
192,192,33970,1,0,0:0:0:0:
64,192,33970,1,0,0:0:0:40:finish.wav
192,192,34146,1,0,0:0:0:0:
448,192,34146,1,0,0:0:0:0:
448,192,34323,1,2,0:0:0:0:
320,192,34323,1,2,0:0:0:0:
64,192,34323,1,0,0:0:0:0:
192,192,34499,1,0,0:0:0:0:
64,192,34499,1,0,0:0:0:0:
64,192,34676,1,0,0:0:0:0:
448,192,34676,1,2,0:0:0:0:
320,192,34676,1,2,0:0:0:0:
192,192,34852,1,0,0:0:0:0:
320,192,34852,1,0,0:0:0:0:
320,192,35029,1,2,0:0:0:0:
448,192,35029,1,2,0:0:0:0:
64,192,35029,1,0,0:0:0:0:
64,192,35205,1,0,0:0:0:0:
192,192,35205,1,0,0:0:0:0:
64,192,35382,1,2,0:0:0:0:
320,192,35382,1,0,0:0:0:0:
192,192,35382,1,2,0:0:0:0:
448,192,35558,1,0,0:0:0:0:
192,192,35558,1,0,0:0:0:0:
448,192,35735,1,2,0:0:0:0:
320,192,35735,1,2,0:0:0:0:
64,192,35735,1,0,0:0:0:0:
320,192,35911,1,0,0:0:0:0:
192,192,35911,1,0,0:0:0:0:
64,192,36087,128,0,36264:0:0:0:0:
320,192,36087,1,2,0:0:0:0:
448,192,36087,1,2,0:0:0:0:
192,192,36264,128,0,36440:0:0:0:0:
448,192,36264,1,0,0:0:0:0:
448,192,36440,128,2,36617:0:0:0:0:
64,192,36440,1,0,0:0:0:0:
320,192,36440,1,2,0:0:0:0:
320,192,36617,128,0,36793:0:0:0:0:
192,192,36617,1,0,0:0:0:0:
64,192,36793,1,2,0:0:0:0:
192,192,36793,1,2,0:0:0:0:
448,192,36793,1,0,0:0:0:0:
448,192,36970,1,0,0:0:0:0:
320,192,36970,1,0,0:0:0:0:
64,192,37146,1,0,0:0:0:0:
320,192,37146,1,2,0:0:0:0:
448,192,37146,1,2,0:0:0:0:
192,192,37323,1,0,0:0:0:0:
64,192,37323,1,0,0:0:0:0:
64,192,37499,1,2,0:0:0:0:
192,192,37499,1,2,0:0:0:0:
448,192,37499,1,0,0:0:0:0:
192,192,37676,1,0,0:0:0:0:
320,192,37676,1,0,0:0:0:0:
64,192,37852,1,2,0:0:0:0:
448,192,37852,1,0,0:0:0:0:
192,192,37852,1,2,0:0:0:0:
64,192,38029,1,0,0:0:0:0:
320,192,38029,1,0,0:0:0:0:
192,192,38205,1,2,0:0:0:0:
448,192,38205,1,0,0:0:0:0:
64,192,38205,128,2,38382:0:0:0:0:
320,192,38382,1,0,0:0:0:0:
192,192,38382,128,0,38558:0:0:0:0:
448,192,38558,128,2,38735:0:0:0:0:
64,192,38558,1,0,0:0:0:0:
320,192,38558,1,2,0:0:0:0:
320,192,38735,128,0,38911:0:0:0:0:
192,192,38735,1,0,0:0:0:0:
64,192,38911,128,2,39087:0:0:0:0:
448,192,38911,1,0,0:0:0:0:
192,192,38911,1,2,0:0:0:0:
192,192,39087,128,0,39264:0:0:0:0:
320,192,39087,1,0,0:0:0:0:
448,192,39264,128,2,39440:0:0:0:0:
320,192,39264,1,2,0:0:0:0:
64,192,39264,1,0,0:0:0:0:
320,192,39440,128,0,39617:0:0:0:0:
192,192,39440,1,0,0:0:0:0:
448,192,39617,1,0,0:0:0:0:
192,192,39617,1,2,0:0:0:0:
64,192,39617,1,2,0:0:0:0:
192,192,39793,1,0,0:0:0:0:
448,192,39793,1,0,0:0:0:0:
448,192,39970,1,2,0:0:0:0:
320,192,39970,1,2,0:0:0:0:
64,192,39970,1,0,0:0:0:0:
64,192,40146,1,0,0:0:0:0:
192,192,40146,1,0,0:0:0:0:
448,192,40323,1,2,0:0:0:0:
192,192,40323,1,0,0:0:0:0:
320,192,40323,1,2,0:0:0:0:
448,192,40499,1,0,0:0:0:0:
64,192,40499,1,0,0:0:0:0:
64,192,40676,1,2,0:0:0:0:
192,192,40676,1,2,0:0:0:0:
448,192,40676,1,0,0:0:0:0:
64,192,40852,1,0,0:0:0:0:
320,192,40852,1,0,0:0:0:0:
448,192,41029,1,2,0:0:0:0:
320,192,41029,1,2,0:0:0:0:
192,192,41029,1,0,0:0:0:0:
192,192,41205,1,0,0:0:0:0:
64,192,41205,1,0,0:0:0:0:
64,192,41382,1,2,0:0:0:0:
192,192,41382,1,2,0:0:0:0:
448,192,41382,1,0,0:0:0:0:
320,192,41558,1,0,0:0:0:0:
64,192,41558,1,0,0:0:0:0:
448,192,41735,1,2,0:0:0:0:
320,192,41735,1,2,0:0:0:0:
64,192,41735,128,0,41911:0:0:0:0:
192,192,41911,128,0,42087:0:0:0:0:
448,192,41911,1,0,0:0:0:0:
64,192,42087,1,0,0:0:0:0:
320,192,42087,1,2,0:0:0:0:
448,192,42087,128,2,42264:0:0:0:0:
192,192,42264,1,0,0:0:0:0:
320,192,42264,128,0,42440:0:0:0:0:
448,192,42440,1,0,0:0:0:0:
192,192,42440,1,2,0:0:0:0:
64,192,42440,1,2,0:0:0:0:
192,192,42617,1,0,0:0:0:0:
320,192,42617,1,0,0:0:0:0:
448,192,42793,1,2,0:0:0:0:
320,192,42793,1,2,0:0:0:0:
64,192,42793,1,0,0:0:0:0:
64,192,42970,1,0,0:0:0:0:
192,192,42970,1,0,0:0:0:0:
448,192,43146,1,0,0:0:0:0:
192,192,43146,1,2,0:0:0:0:
64,192,43146,1,2,0:0:0:0:
192,192,43323,1,0,0:0:0:0:
320,192,43323,1,0,0:0:0:0:
448,192,43499,1,2,0:0:0:0:
320,192,43499,1,2,0:0:0:0:
64,192,43499,1,0,0:0:0:0:
192,192,43676,1,0,0:0:0:0:
64,192,43676,1,0,0:0:0:0:
320,192,43852,1,2,0:0:0:0:
448,192,43852,1,2,0:0:0:0:
192,192,43852,1,0,0:0:0:0:
64,192,43852,1,0,0:0:0:40:finish.wav
320,192,44029,1,0,0:0:0:0:
192,192,44029,1,0,0:0:0:0:
448,192,44205,1,2,0:0:0:0:
64,192,44205,1,0,0:0:0:0:
320,192,44205,1,2,0:0:0:0:
448,192,44382,1,0,0:0:0:0:
320,192,44382,1,0,0:0:0:0:
448,192,44558,1,0,0:0:0:0:
320,192,44558,1,0,0:0:0:0:
448,192,44735,1,0,0:0:0:0:
320,192,44735,1,0,0:0:0:0:
448,192,44911,1,0,0:0:0:0:
320,192,44911,1,0,0:0:0:0:
448,192,45087,1,0,0:0:0:0:
320,192,45087,1,0,0:0:0:0:
448,192,45264,1,2,0:0:0:0:
320,192,45264,1,2,0:0:0:0:
192,192,45264,1,0,0:0:0:0:
64,192,45264,1,0,0:0:0:40:finish.wav
64,192,45440,1,0,0:0:0:0:
320,192,45440,1,0,0:0:0:0:
64,192,45617,1,2,0:0:0:0:
192,192,45617,1,2,0:0:0:0:
448,192,45617,1,8,0:0:0:0:
448,192,45793,1,0,0:0:0:0:
320,192,45793,1,0,0:0:0:0:
448,192,45970,1,0,0:0:0:0:
64,192,45970,1,2,0:0:0:0:
192,192,45970,1,2,0:0:0:0:
320,192,46146,1,0,0:0:0:0:
192,192,46146,1,0,0:0:0:0:
64,192,46323,1,2,0:0:0:0:
448,192,46323,1,8,0:0:0:0:
192,192,46323,1,2,0:0:0:0:
448,192,46499,1,0,0:0:0:0:
320,192,46499,1,0,0:0:0:0:
320,192,46676,1,2,0:0:0:0:
448,192,46676,1,2,0:0:0:0:
192,192,46676,1,0,0:0:0:0:
320,192,46852,1,0,0:0:0:0:
64,192,46852,1,0,0:0:0:0:
448,192,47029,1,8,0:0:0:0:
64,192,47029,1,2,0:0:0:0:
192,192,47029,1,2,0:0:0:0:
320,192,47205,1,0,0:0:0:0:
192,192,47205,1,0,0:0:0:0:
192,192,47382,1,2,0:0:0:0:
64,192,47382,1,2,0:0:0:0:
448,192,47382,128,0,47558:0:0:0:0:
64,192,47558,1,0,0:0:0:0:
320,192,47558,128,0,47735:0:0:0:0:
448,192,47735,1,8,0:0:0:0:
192,192,47735,1,2,0:0:0:0:
64,192,47735,128,2,47911:0:0:0:0:
320,192,47911,1,0,0:0:0:0:
192,192,47911,1,0,0:0:0:0:
64,192,48087,1,0,0:0:0:40:finish.wav
320,192,48087,1,2,0:0:0:0:
448,192,48087,1,2,0:0:0:0:
192,192,48087,1,0,0:0:0:0:
64,192,48264,1,0,0:0:0:0:
192,192,48264,1,0,0:0:0:0:
64,192,48440,1,2,0:0:0:0:
448,192,48440,1,8,0:0:0:0:
192,192,48440,1,2,0:0:0:0:
448,192,48617,1,0,0:0:0:0:
320,192,48617,1,0,0:0:0:0:
448,192,48793,1,2,0:0:0:0:
64,192,48793,1,0,0:0:0:0:
320,192,48793,1,2,0:0:0:0:
192,192,48970,1,0,0:0:0:0:
320,192,48970,1,0,0:0:0:0:
448,192,49146,1,2,0:0:0:0:
320,192,49146,1,2,0:0:0:0:
64,192,49146,1,8,0:0:0:0:
448,192,49323,1,0,0:0:0:0:
192,192,49323,1,0,0:0:0:0:
64,192,49499,1,0,0:0:0:0:
448,192,49499,128,2,49676:0:0:0:0:
320,192,49499,1,2,0:0:0:0:
320,192,49676,128,0,49852:0:0:0:0:
192,192,49676,1,0,0:0:0:0:
448,192,49852,1,8,0:0:0:0:
192,192,49852,1,2,0:0:0:0:
64,192,49852,128,2,50029:0:0:0:0:
320,192,50029,1,0,0:0:0:0:
192,192,50029,128,0,50205:0:0:0:0:
448,192,50205,128,2,50382:0:0:0:0:
64,192,50205,1,0,0:0:0:0:
320,192,50205,1,2,0:0:0:0:
192,192,50382,1,0,0:0:0:0:
64,192,50382,1,0,0:0:0:0:
320,192,50470,1,2,0:0:0:0:
448,192,50470,1,2,0:0:0:0:
448,192,50558,1,8,0:0:0:0:
192,192,50558,1,2,0:0:0:0:
64,192,50558,1,2,0:0:0:0:
64,192,50735,1,2,0:0:0:0:
192,192,50735,1,2,0:0:0:0:
448,192,50735,1,0,0:0:0:0:
192,192,50911,1,2,0:0:0:0:
448,192,50911,1,2,0:0:0:0:
320,192,50911,1,2,0:0:0:0:
64,192,50911,1,0,0:0:0:40:finish.wav
192,192,51087,1,0,0:0:0:0:
320,192,51264,1,0,0:0:0:0:
448,192,51264,1,8,0:0:0:0:
64,192,51440,1,2,0:0:0:0:
192,192,51440,1,2,0:0:0:0:
320,192,51529,1,2,0:0:0:0:
448,192,51529,1,2,0:0:0:0:
448,192,51617,1,0,0:0:0:0:
192,192,51617,1,2,0:0:0:0:
64,192,51617,1,2,0:0:0:0:
320,192,51793,1,0,0:0:0:0:
448,192,51882,1,0,0:0:0:0:
192,192,51882,1,2,0:0:0:0:
64,192,51882,1,2,0:0:0:0:
64,192,51970,1,0,0:0:0:0:
192,192,51970,1,8,0:0:0:0:
320,192,52146,1,2,0:0:0:0:
64,192,52146,1,0,0:0:0:0:
448,192,52146,1,2,0:0:0:0:
448,192,52323,1,2,0:0:0:0:
64,192,52323,1,0,0:0:0:40:finish.wav
320,192,52323,1,2,0:0:0:0:
192,192,52323,1,0,0:0:0:0:
192,192,52499,1,0,0:0:0:0:
448,192,52587,1,2,0:0:0:0:
320,192,52587,1,2,0:0:0:0:
64,192,52587,1,0,0:0:0:0:
448,192,52676,1,8,0:0:0:0:
320,192,52676,1,0,0:0:0:0:
192,192,52852,1,2,0:0:0:0:
64,192,52852,1,2,0:0:0:0:
320,192,52940,1,2,0:0:0:0:
448,192,52940,1,2,0:0:0:0:
448,192,53029,1,0,0:0:0:0:
192,192,53029,1,2,0:0:0:0:
64,192,53029,1,2,0:0:0:0:
320,192,53205,1,2,0:0:0:0:
448,192,53205,1,2,0:0:0:0:
64,192,53205,1,0,0:0:0:0:
64,192,53382,1,2,0:0:0:0:
192,192,53382,1,2,0:0:0:0:
448,192,53382,1,8,0:0:0:0:
448,192,53558,1,2,0:0:0:0:
320,192,53558,1,2,0:0:0:0:
64,192,53558,1,0,0:0:0:0:
64,192,53735,1,2,0:0:0:0:
192,192,53735,1,2,0:0:0:0:
320,192,53823,1,2,0:0:0:0:
448,192,53823,1,2,0:0:0:0:
192,192,53911,1,2,0:0:0:0:
64,192,53911,1,2,0:0:0:0:
320,192,53999,1,2,0:0:0:0:
448,192,53999,1,2,0:0:0:0:
192,192,54087,1,10,0:0:0:0:
64,192,54087,1,2,0:0:0:0:
320,192,54176,1,2,0:0:0:0:
448,192,54176,1,2,0:0:0:0:
64,192,54264,1,2,0:0:0:0:
192,192,54264,1,2,0:0:0:0:
320,192,54352,1,2,0:0:0:0:
448,192,54352,1,2,0:0:0:0:
64,192,54440,1,2,0:0:0:0:
320,192,54440,1,2,0:0:0:0:
192,192,54529,1,2,0:0:0:0:
448,192,54529,1,2,0:0:0:0:
320,192,54617,1,2,0:0:0:0:
64,192,54617,1,2,0:0:0:0:
192,192,54705,1,2,0:0:0:0:
448,192,54705,1,2,0:0:0:0:
64,192,54793,1,2,0:0:0:0:
320,192,54793,1,10,0:0:0:0:
192,192,54882,1,2,0:0:0:0:
448,192,54882,1,2,0:0:0:0:
320,192,54970,1,2,0:0:0:0:
64,192,54970,1,2,0:0:0:0:
192,192,55058,1,2,0:0:0:0:
448,192,55058,1,2,0:0:0:0:
192,192,56558,1,0,0:0:0:0:
64,192,56558,128,0,57970:0:0:0:0:
448,192,57264,1,0,0:0:0:0:
320,192,57440,1,0,0:0:0:0:
192,192,57617,1,0,0:0:0:0:
320,192,57793,1,0,0:0:0:0:
192,192,57970,128,0,59382:0:0:0:0:
448,192,57970,1,0,0:0:0:0:
448,192,58676,1,0,0:0:0:0:
320,192,58852,1,0,0:0:0:0:
64,192,59029,1,0,0:0:0:0:
448,192,59205,1,0,0:0:0:0:
320,192,59382,128,0,60793:0:0:0:0:
64,192,59382,1,0,0:0:0:0:
64,192,60087,1,0,0:0:0:0:
192,192,60264,1,0,0:0:0:0:
448,192,60440,1,0,0:0:0:0:
192,192,60617,1,0,0:0:0:0:
448,192,60793,128,0,62205:0:0:0:0:
64,192,60793,1,0,0:0:0:0:
320,192,61323,1,0,0:0:0:0:
192,192,61499,1,0,0:0:0:0:
64,192,61676,1,0,0:0:0:0:
192,192,61852,1,0,0:0:0:0:
320,192,62029,1,0,0:0:0:0:
64,192,62205,128,0,63617:0:0:0:0:
192,192,62205,1,0,0:0:0:0:
448,192,62911,1,0,0:0:0:0:
320,192,63087,1,0,0:0:0:0:
192,192,63264,1,0,0:0:0:0:
320,192,63440,1,0,0:0:0:0:
192,192,63617,128,0,65029:0:0:0:0:
448,192,63617,1,0,0:0:0:0:
448,192,64323,1,0,0:0:0:0:
320,192,64499,1,0,0:0:0:0:
64,192,64676,1,0,0:0:0:0:
448,192,64852,1,0,0:0:0:0:
320,192,65029,128,0,66440:0:0:0:0:
64,192,65029,1,0,0:0:0:0:
64,192,65735,1,0,0:0:0:0:
192,192,65911,1,0,0:0:0:0:
448,192,66087,1,0,0:0:0:0:
192,192,66264,1,0,0:0:0:0:
448,192,66440,128,0,67852:0:0:0:0:
64,192,66440,1,0,0:0:0:0:
320,192,66970,1,0,0:0:0:0:
192,192,67146,1,0,0:0:0:0:
64,192,67323,1,0,0:0:0:0:
192,192,67499,1,0,0:0:0:0:
320,192,67676,1,0,0:0:0:0:
192,192,67852,1,2,0:0:0:0:
64,192,67852,1,2,0:0:0:0:
320,192,68029,1,0,0:0:0:0:
192,192,68117,1,0,0:0:0:0:
64,192,68205,1,2,0:0:0:0:
448,192,68205,1,2,0:0:0:0:
192,192,68382,1,0,0:0:0:0:
448,192,68558,1,2,0:0:0:0:
320,192,68558,1,2,0:0:0:0:
192,192,68735,1,0,0:0:0:0:
320,192,68823,1,0,0:0:0:0:
448,192,68911,1,2,0:0:0:0:
64,192,68911,1,2,0:0:0:0:
320,192,69087,1,0,0:0:0:0:
64,192,69264,1,2,0:0:0:0:
448,192,69264,1,2,0:0:0:0:
192,192,69440,1,0,0:0:0:0:
64,192,69529,1,0,0:0:0:0:
448,192,69617,1,2,0:0:0:0:
320,192,69617,1,2,0:0:0:0:
192,192,69793,1,0,0:0:0:0:
64,192,69970,1,2,0:0:0:0:
448,192,69970,1,2,0:0:0:0:
320,192,70146,1,0,0:0:0:0:
448,192,70235,1,0,0:0:0:0:
192,192,70323,1,2,0:0:0:0:
64,192,70323,1,2,0:0:0:0:
320,192,70499,1,0,0:0:0:0:
64,192,70676,1,2,0:0:0:0:
448,192,70676,1,2,0:0:0:0:
320,192,70852,1,0,0:0:0:0:
192,192,70940,1,0,0:0:0:0:
448,192,71029,1,2,0:0:0:0:
64,192,71029,1,2,0:0:0:0:
192,192,71205,1,0,0:0:0:0:
64,192,71382,1,2,0:0:0:0:
448,192,71382,1,2,0:0:0:0:
192,192,71558,1,0,0:0:0:0:
320,192,71646,1,0,0:0:0:0:
64,192,71735,1,2,0:0:0:0:
448,192,71735,1,2,0:0:0:0:
320,192,71911,1,0,0:0:0:0:
192,192,72087,1,2,0:0:0:0:
64,192,72087,1,2,0:0:0:0:
320,192,72264,1,0,0:0:0:0:
192,192,72352,1,0,0:0:0:0:
64,192,72440,1,2,0:0:0:0:
448,192,72440,1,2,0:0:0:0:
192,192,72617,1,0,0:0:0:0:
320,192,72793,1,2,0:0:0:0:
448,192,72793,1,2,0:0:0:0:
192,192,72970,1,0,0:0:0:0:
320,192,73058,1,0,0:0:0:0:
448,192,73146,1,2,0:0:0:0:
64,192,73146,1,2,0:0:0:0:
320,192,73323,1,0,0:0:0:0:
64,192,73499,1,2,0:0:0:0:
192,192,73499,1,2,0:0:0:0:
448,192,73499,1,0,0:0:0:0:
448,192,73676,1,2,0:0:0:0:
64,192,73676,1,0,0:0:0:0:
320,192,73676,1,2,0:0:0:0:
64,192,73852,1,2,0:0:0:0:
192,192,73852,1,2,0:0:0:0:
448,192,73852,1,0,0:0:0:0:
192,192,74029,1,2,0:0:0:0:
320,192,74029,1,0,0:0:0:0:
64,192,74029,1,2,0:0:0:0:
192,192,74205,1,0,0:0:0:0:
320,192,74205,1,2,0:0:0:0:
448,192,74205,1,2,0:0:0:0:
320,192,74382,1,2,0:0:0:0:
448,192,74382,1,2,0:0:0:0:
64,192,74382,1,0,0:0:0:0:
192,192,74558,1,2,0:0:0:0:
64,192,74558,1,2,0:0:0:0:
448,192,74558,1,0,0:0:0:0:
320,192,74735,1,0,0:0:0:0:
192,192,74735,1,2,0:0:0:0:
64,192,74735,1,2,0:0:0:0:
448,192,74911,1,2,0:0:0:0:
320,192,74911,1,2,0:0:0:0:
64,192,74911,1,0,0:0:0:0:
448,192,75087,1,2,0:0:0:0:
192,192,75087,1,0,0:0:0:0:
320,192,75087,1,2,0:0:0:0:
192,192,75264,1,2,0:0:0:0:
320,192,75264,1,0,0:0:0:0:
64,192,75264,1,2,0:0:0:0:
64,192,75440,1,2,0:0:0:0:
192,192,75440,1,2,0:0:0:0:
448,192,75440,1,0,0:0:0:0:
64,192,75617,1,0,0:0:0:0:
320,192,75617,1,2,0:0:0:0:
448,192,75617,1,2,0:0:0:0:
192,192,75793,1,2,0:0:0:0:
320,192,75793,1,0,0:0:0:0:
64,192,75793,1,2,0:0:0:0:
64,192,75970,1,2,0:0:0:0:
192,192,75970,1,2,0:0:0:0:
448,192,75970,1,0,0:0:0:0:
448,192,76146,1,2,0:0:0:0:
64,192,76146,1,0,0:0:0:0:
320,192,76146,1,2,0:0:0:0:
64,192,76323,1,2,0:0:0:0:
192,192,76323,1,2,0:0:0:0:
320,192,76411,1,2,0:0:0:0:
448,192,76411,1,2,0:0:0:0:
64,192,76499,1,2,0:0:0:0:
192,192,76499,1,2,0:0:0:0:
320,192,76587,1,2,0:0:0:0:
448,192,76587,1,2,0:0:0:0:
64,192,76676,1,2,0:0:0:0:
192,192,76676,1,2,0:0:0:0:
320,192,76764,1,2,0:0:0:0:
448,192,76764,1,2,0:0:0:0:
64,192,76852,1,2,0:0:0:0:
192,192,76852,1,2,0:0:0:0:
320,192,76940,1,2,0:0:0:0:
448,192,76940,1,2,0:0:0:0:
64,192,77029,1,2,0:0:0:0:
320,192,77029,1,2,0:0:0:0:
192,192,77117,1,2,0:0:0:0:
448,192,77117,1,2,0:0:0:0:
64,192,77205,1,2,0:0:0:0:
320,192,77205,1,2,0:0:0:0:
448,192,77293,1,2,0:0:0:0:
192,192,77293,1,2,0:0:0:0:
64,192,77382,1,2,0:0:0:0:
320,192,77382,1,2,0:0:0:0:
192,192,77470,1,2,0:0:0:0:
448,192,77470,1,2,0:0:0:0:
64,192,77558,1,2,0:0:0:0:
320,192,77558,1,2,0:0:0:0:
448,192,77646,1,2,0:0:0:0:
192,192,77646,1,2,0:0:0:0:
64,192,77735,1,2,0:0:0:0:
320,192,77735,1,2,0:0:0:0:
192,192,78264,1,0,0:0:0:0:
448,192,78440,1,0,0:0:0:0:
320,192,78617,1,0,0:0:0:0:
64,192,78793,1,0,0:0:0:0:
192,192,78970,1,0,0:0:0:0:
448,192,79146,1,2,0:0:0:0:
320,192,79146,1,2,0:0:0:0:
64,192,79146,1,0,0:0:0:40:finish.wav
192,192,79323,1,0,0:0:0:0:
64,192,79323,1,4,0:0:0:0:
320,192,79411,1,0,0:0:0:0:
448,192,79499,1,2,0:0:0:0:
192,192,79499,1,2,0:0:0:0:
320,192,79676,1,0,0:0:0:0:
64,192,79676,1,4,0:0:0:0:
192,192,79764,1,0,0:0:0:0:
448,192,79852,1,2,0:0:0:0:
64,192,79852,1,2,0:0:0:0:
192,192,79940,1,0,0:0:0:0:
320,192,80029,1,4,0:0:0:0:
448,192,80029,1,0,0:0:0:0:
192,192,80117,1,0,0:0:0:0:
448,192,80205,1,2,0:0:0:0:
64,192,80205,1,2,0:0:0:0:
192,192,80293,1,0,0:0:0:0:
320,192,80382,1,4,0:0:0:0:
64,192,80382,1,0,0:0:0:0:
448,192,80470,1,0,0:0:0:0:
192,192,80558,1,2,0:0:0:0:
64,192,80558,1,2,0:0:0:0:
320,192,80646,1,0,0:0:0:0:
448,192,80735,1,0,0:0:0:0:
192,192,80735,1,4,0:0:0:0:
320,192,80823,1,0,0:0:0:0:
64,192,80911,1,2,0:0:0:0:
192,192,80911,1,2,0:0:0:0:
320,192,81087,1,0,0:0:0:0:
64,192,81087,1,4,0:0:0:0:
192,192,81176,1,0,0:0:0:0:
64,192,81264,1,2,0:0:0:0:
448,192,81264,1,2,0:0:0:0:
320,192,81352,1,0,0:0:0:0:
192,192,81440,1,0,0:0:0:0:
64,192,81440,1,4,0:0:0:0:
320,192,81529,1,0,0:0:0:0:
448,192,81617,1,2,0:0:0:0:
192,192,81617,1,2,0:0:0:0:
320,192,81705,1,0,0:0:0:0:
64,192,81793,1,4,0:0:0:0:
192,192,81793,1,0,0:0:0:0:
320,192,81882,1,0,0:0:0:0:
448,192,81970,1,2,0:0:0:0:
64,192,81970,1,2,0:0:0:0:
448,192,82146,1,4,0:0:0:0:
320,192,82146,1,0,0:0:0:0:
192,192,82235,1,0,0:0:0:0:
64,192,82323,1,2,0:0:0:0:
320,192,82323,1,2,0:0:0:0:
192,192,82499,1,0,0:0:0:0:
448,192,82499,1,4,0:0:0:0:
320,192,82587,1,0,0:0:0:0:
64,192,82676,1,2,0:0:0:0:
448,192,82676,1,2,0:0:0:0:
320,192,82764,1,0,0:0:0:0:
192,192,82852,1,4,0:0:0:0:
64,192,82852,1,0,0:0:0:0:
320,192,82940,1,0,0:0:0:0:
64,192,83029,1,2,0:0:0:0:
448,192,83029,1,2,0:0:0:0:
320,192,83117,1,0,0:0:0:0:
192,192,83205,1,4,0:0:0:0:
448,192,83205,1,0,0:0:0:0:
64,192,83293,1,0,0:0:0:0:
448,192,83382,1,2,0:0:0:0:
320,192,83382,1,2,0:0:0:0:
192,192,83470,1,0,0:0:0:0:
320,192,83558,1,4,0:0:0:0:
64,192,83558,1,0,0:0:0:0:
192,192,83646,1,0,0:0:0:0:
448,192,83735,1,2,0:0:0:0:
320,192,83735,1,2,0:0:0:0:
448,192,83911,1,4,0:0:0:0:
192,192,83911,1,0,0:0:0:0:
320,192,83999,1,0,0:0:0:0:
64,192,84087,1,2,0:0:0:0:
448,192,84087,1,2,0:0:0:0:
192,192,84176,1,0,0:0:0:0:
448,192,84264,1,4,0:0:0:0:
320,192,84264,1,0,0:0:0:0:
192,192,84352,1,0,0:0:0:0:
64,192,84440,1,2,0:0:0:0:
320,192,84440,1,2,0:0:0:0:
192,192,84529,1,0,0:0:0:0:
448,192,84617,1,4,0:0:0:0:
320,192,84617,1,0,0:0:0:0:
192,192,84705,1,0,0:0:0:0:
320,192,84793,1,2,0:0:0:0:
448,192,84793,1,2,0:0:0:0:
64,192,84793,1,0,0:0:0:40:finish.wav
448,192,84970,1,0,0:0:0:0:
192,192,84970,1,4,0:0:0:0:
320,192,85058,1,0,0:0:0:0:
448,192,85146,1,8,0:0:0:0:
192,192,85146,1,2,0:0:0:0:
64,192,85146,1,2,0:0:0:0:
448,192,85323,1,0,0:0:0:0:
320,192,85323,1,4,0:0:0:0:
192,192,85411,1,0,0:0:0:0:
448,192,85499,1,2,0:0:0:0:
64,192,85499,1,2,0:0:0:0:
192,192,85587,1,0,0:0:0:0:
320,192,85676,1,0,0:0:0:0:
64,192,85676,1,4,0:0:0:0:
448,192,85764,1,0,0:0:0:0:
64,192,85852,1,2,0:0:0:0:
192,192,85852,1,2,0:0:0:0:
320,192,85852,1,8,0:0:0:0:
448,192,85940,1,0,0:0:0:0:
320,192,86029,1,0,0:0:0:0:
64,192,86029,1,4,0:0:0:0:
192,192,86117,1,0,0:0:0:0:
448,192,86205,1,2,0:0:0:0:
320,192,86205,1,2,0:0:0:0:
192,192,86293,1,0,0:0:0:0:
320,192,86382,1,0,0:0:0:0:
64,192,86382,1,4,0:0:0:0:
192,192,86470,1,0,0:0:0:0:
320,192,86558,1,2,0:0:0:0:
64,192,86558,1,8,0:0:0:0:
448,192,86558,1,2,0:0:0:0:
448,192,86735,1,0,0:0:0:0:
192,192,86735,1,4,0:0:0:0:
320,192,86823,1,0,0:0:0:0:
448,192,86911,1,2,0:0:0:0:
64,192,86911,1,2,0:0:0:0:
320,192,86999,1,0,0:0:0:0:
64,192,87087,1,4,0:0:0:0:
192,192,87087,1,0,0:0:0:0:
448,192,87176,1,0,0:0:0:0:
192,192,87264,1,2,0:0:0:0:
64,192,87264,1,2,0:0:0:0:
320,192,87264,1,8,0:0:0:0:
448,192,87352,1,0,0:0:0:0:
64,192,87440,1,0,0:0:0:0:
320,192,87440,1,4,0:0:0:0:
192,192,87529,1,0,0:0:0:0:
64,192,87617,1,2,0:0:0:0:
320,192,87617,1,2,0:0:0:0:
192,192,87793,1,0,0:0:0:0:
448,192,87793,1,4,0:0:0:0:
320,192,87882,1,0,0:0:0:0:
448,192,87970,1,8,0:0:0:0:
64,192,87970,1,2,0:0:0:0:
192,192,87970,1,2,0:0:0:0:
448,192,88146,1,4,0:0:0:0:
192,192,88146,1,0,0:0:0:0:
320,192,88235,1,0,0:0:0:0:
192,192,88323,1,2,0:0:0:0:
64,192,88323,1,2,0:0:0:0:
320,192,88411,1,0,0:0:0:0:
448,192,88499,1,0,0:0:0:0:
64,192,88499,1,4,0:0:0:0:
192,192,88587,1,0,0:0:0:0:
320,192,88676,1,2,0:0:0:0:
448,192,88676,1,2,0:0:0:0:
64,192,88676,1,8,0:0:0:0:
192,192,88764,1,0,0:0:0:0:
320,192,88852,1,4,0:0:0:0:
448,192,88852,1,0,0:0:0:0:
192,192,88940,1,0,0:0:0:0:
64,192,89029,1,2,0:0:0:0:
448,192,89029,1,2,0:0:0:0:
448,192,89382,1,0,0:0:0:0:
320,192,89382,1,0,0:0:0:0:
448,192,89558,1,0,0:0:0:0:
320,192,89558,1,0,0:0:0:0:
448,192,89735,1,0,0:0:0:0:
320,192,89735,1,0,0:0:0:0:
448,192,89911,1,0,0:0:0:0:
320,192,89911,1,0,0:0:0:0:
448,192,90087,1,0,0:0:0:0:
320,192,90087,1,0,0:0:0:0:
448,192,90264,1,0,0:0:0:0:
320,192,90264,1,0,0:0:0:0:
448,192,90440,1,2,0:0:0:0:
320,192,90440,1,2,0:0:0:0:
64,192,90440,1,0,0:0:0:40:finish.wav
64,192,90617,1,4,0:0:0:0:
192,192,90617,1,0,0:0:0:0:
320,192,90705,1,0,0:0:0:0:
448,192,90705,1,0,0:0:0:0:
192,192,90793,1,2,0:0:0:0:
64,192,90793,1,2,0:0:0:0:
448,192,90970,1,0,0:0:0:0:
320,192,90970,1,4,0:0:0:0:
192,192,91058,1,0,0:0:0:0:
64,192,91146,1,2,0:0:0:0:
448,192,91146,1,2,0:0:0:0:
320,192,91235,1,0,0:0:0:0:
192,192,91235,1,0,0:0:0:0:
448,192,91323,1,0,0:0:0:0:
64,192,91323,1,4,0:0:0:0:
320,192,91411,1,0,0:0:0:0:
192,192,91499,1,2,0:0:0:0:
448,192,91499,1,2,0:0:0:0:
320,192,91587,1,0,0:0:0:0:
64,192,91676,1,4,0:0:0:0:
192,192,91676,1,0,0:0:0:0:
320,192,91764,1,0,0:0:0:0:
448,192,91852,1,2,0:0:0:0:
64,192,91852,1,2,0:0:0:0:
320,192,91940,1,0,0:0:0:0:
192,192,92029,1,4,0:0:0:0:
448,192,92029,1,0,0:0:0:0:
64,192,92117,1,0,0:0:0:0:
320,192,92117,1,0,0:0:0:0:
448,192,92205,1,2,0:0:0:0:
192,192,92205,1,2,0:0:0:0:
320,192,92382,1,0,0:0:0:0:
64,192,92382,1,4,0:0:0:0:
192,192,92470,1,0,0:0:0:0:
448,192,92558,1,2,0:0:0:0:
320,192,92558,1,2,0:0:0:0:
192,192,92646,1,0,0:0:0:0:
64,192,92735,1,4,0:0:0:0:
448,192,92735,1,0,0:0:0:0:
320,192,92823,1,0,0:0:0:0:
192,192,92911,1,2,0:0:0:0:
64,192,92911,1,2,0:0:0:0:
320,192,92999,1,0,0:0:0:0:
64,192,93087,1,4,0:0:0:0:
448,192,93087,1,0,0:0:0:0:
192,192,93176,1,0,0:0:0:0:
448,192,93264,1,2,0:0:0:0:
320,192,93264,1,2,0:0:0:0:
64,192,93440,1,4,0:0:0:0:
320,192,93440,1,0,0:0:0:0:
192,192,93529,1,0,0:0:0:0:
448,192,93529,1,0,0:0:0:0:
64,192,93617,1,2,0:0:0:0:
320,192,93617,1,2,0:0:0:0:
448,192,93793,1,0,0:0:0:0:
192,192,93793,1,4,0:0:0:0:
320,192,93882,1,0,0:0:0:0:
64,192,93970,1,2,0:0:0:0:
192,192,93970,1,2,0:0:0:0:
320,192,94058,1,0,0:0:0:0:
448,192,94146,1,0,0:0:0:0:
64,192,94146,1,4,0:0:0:0:
192,192,94235,1,0,0:0:0:0:
320,192,94323,1,2,0:0:0:0:
448,192,94323,1,2,0:0:0:0:
192,192,94411,1,0,0:0:0:0:
448,192,94499,1,0,0:0:0:0:
64,192,94499,1,4,0:0:0:0:
192,192,94587,1,0,0:0:0:0:
320,192,94676,1,2,0:0:0:0:
448,192,94676,1,2,0:0:0:0:
192,192,94764,1,0,0:0:0:0:
320,192,94852,1,0,0:0:0:0:
64,192,94852,1,4,0:0:0:0:
448,192,94940,1,0,0:0:0:0:
192,192,95029,1,2,0:0:0:0:
64,192,95029,1,2,0:0:0:0:
320,192,95117,1,0,0:0:0:0:
448,192,95117,1,0,0:0:0:0:
192,192,95205,1,0,0:0:0:0:
64,192,95205,1,4,0:0:0:0:
320,192,95293,1,0,0:0:0:0:
448,192,95382,1,2,0:0:0:0:
64,192,95382,1,2,0:0:0:0:
192,192,95470,1,0,0:0:0:0:
448,192,95558,1,0,0:0:0:0:
320,192,95558,1,4,0:0:0:0:
64,192,95646,1,0,0:0:0:0:
192,192,95646,1,0,0:0:0:0:
320,192,95735,1,2,0:0:0:0:
448,192,95735,1,2,0:0:0:0:
192,192,95823,1,0,0:0:0:0:
448,192,95911,1,4,0:0:0:0:
64,192,95911,1,0,0:0:0:0:
320,192,95999,1,0,0:0:0:0:
192,192,96087,1,2,0:0:0:0:
448,192,96087,1,2,0:0:0:0:
64,192,96087,1,0,0:0:0:40:finish.wav
320,192,96264,1,0,0:0:0:0:
448,192,96264,1,4,0:0:0:0:
64,192,96352,1,0,0:0:0:0:
192,192,96352,1,0,0:0:0:0:
448,192,96440,1,2,0:0:0:0:
320,192,96440,1,2,0:0:0:0:
64,192,96440,1,8,0:0:0:0:
64,192,96617,1,0,0:0:0:0:
192,192,96617,1,4,0:0:0:0:
320,192,96705,1,0,0:0:0:0:
448,192,96793,1,2,0:0:0:0:
64,192,96793,1,2,0:0:0:0:
320,192,96882,1,0,0:0:0:0:
192,192,96882,1,0,0:0:0:0:
448,192,96970,1,4,0:0:0:0:
64,192,96970,1,0,0:0:0:0:
192,192,97058,1,0,0:0:0:0:
320,192,97146,1,2,0:0:0:0:
64,192,97146,1,2,0:0:0:0:
448,192,97146,1,8,0:0:0:0:
192,192,97235,1,0,0:0:0:0:
320,192,97323,1,0,0:0:0:0:
448,192,97323,1,4,0:0:0:0:
192,192,97411,1,0,0:0:0:0:
448,192,97499,1,2,0:0:0:0:
64,192,97499,1,2,0:0:0:0:
192,192,97587,1,0,0:0:0:0:
320,192,97676,1,4,0:0:0:0:
64,192,97676,1,0,0:0:0:0:
192,192,97764,1,0,0:0:0:0:
448,192,97764,1,0,0:0:0:0:
320,192,97852,1,2,0:0:0:0:
64,192,97852,1,2,0:0:0:0:
448,192,97852,1,8,0:0:0:0:
192,192,98029,1,0,0:0:0:0:
448,192,98029,1,4,0:0:0:0:
320,192,98117,1,0,0:0:0:0:
192,192,98205,1,2,0:0:0:0:
64,192,98205,1,2,0:0:0:0:
320,192,98293,1,0,0:0:0:0:
448,192,98382,1,4,0:0:0:0:
64,192,98382,1,0,0:0:0:0:
192,192,98470,1,0,0:0:0:0:
448,192,98558,1,2,0:0:0:0:
320,192,98558,1,2,0:0:0:0:
64,192,98558,1,8,0:0:0:0:
192,192,98646,1,0,0:0:0:0:
448,192,98735,1,4,0:0:0:0:
320,192,98823,1,0,0:0:0:0:
448,192,98911,1,2,0:0:0:0:
192,192,98911,1,2,0:0:0:0:
64,192,98911,1,0,0:0:0:40:finish.wav
64,192,99087,1,4,0:0:0:0:
192,192,99176,1,0,0:0:0:0:
320,192,99264,1,8,0:0:0:0:
192,192,99440,1,4,0:0:0:0:
448,192,99617,1,0,0:0:0:0:
320,192,99617,1,0,0:0:0:0:
448,192,99793,1,4,0:0:0:0:
320,192,99882,1,0,0:0:0:0:
192,192,99970,1,8,0:0:0:0:
320,192,100146,1,4,0:0:0:0:
64,192,100323,128,0,100411:0:0:0:0:
192,192,100323,128,0,100411:0:0:0:0:
320,192,100499,128,0,100587:0:0:0:0:
448,192,100499,128,0,100587:0:0:0:0:
64,192,100676,1,0,0:0:0:0:
192,192,100676,1,0,0:0:0:0:
192,192,100793,1,0,0:0:0:0:
320,192,100793,1,0,0:0:0:0:
320,192,100911,1,0,0:0:0:0:
448,192,100911,1,0,0:0:0:0:
192,192,101029,128,0,101117:0:0:0:0:
64,192,101029,128,0,101117:0:0:0:0:
320,192,101205,128,0,101293:0:0:0:0:
448,192,101205,128,0,101293:0:0:0:0:
64,192,101382,1,2,0:0:0:0:
448,192,101382,1,0,0:0:0:0:
192,192,101382,1,2,0:0:0:0:
448,192,101735,1,2,0:0:0:0:
320,192,101735,1,2,0:0:0:0:
64,192,101735,1,0,0:0:0:40:finish.wav
192,192,101735,1,0,0:0:0:0:
192,192,101911,1,0,0:0:0:0:
448,192,101911,1,0,0:0:0:0:
320,192,101999,1,0,0:0:0:0:
192,192,102087,1,2,0:0:0:0:
64,192,102087,1,2,0:0:0:0:
448,192,102087,1,8,0:0:0:0:
320,192,102176,1,0,0:0:0:0:
192,192,102264,1,0,0:0:0:0:
64,192,102264,1,0,0:0:0:0:
448,192,102440,1,2,0:0:0:0:
192,192,102440,1,0,0:0:0:0:
320,192,102440,1,2,0:0:0:0:
64,192,102617,1,0,0:0:0:0:
192,192,102617,1,0,0:0:0:0:
320,192,102705,1,0,0:0:0:0:
64,192,102793,1,2,0:0:0:0:
192,192,102793,1,2,0:0:0:0:
448,192,102793,1,8,0:0:0:0:
320,192,102882,1,0,0:0:0:0:
192,192,102970,1,0,0:0:0:0:
448,192,102970,1,0,0:0:0:0:
320,192,103146,1,2,0:0:0:0:
448,192,103146,1,2,0:0:0:0:
64,192,103146,1,0,0:0:0:0:
192,192,103323,1,0,0:0:0:0:
448,192,103323,1,0,0:0:0:0:
320,192,103411,1,0,0:0:0:0:
448,192,103499,1,8,0:0:0:0:
192,192,103499,1,2,0:0:0:0:
64,192,103499,1,2,0:0:0:0:
320,192,103587,1,0,0:0:0:0:
64,192,103676,1,0,0:0:0:0:
192,192,103676,1,0,0:0:0:0:
320,192,103852,1,2,0:0:0:0:
448,192,103852,1,2,0:0:0:0:
64,192,103852,1,0,0:0:0:0:
192,192,103940,1,0,0:0:0:0:
64,192,104029,1,0,0:0:0:0:
448,192,104029,1,0,0:0:0:0:
320,192,104117,1,0,0:0:0:0:
192,192,104205,1,2,0:0:0:0:
64,192,104205,1,2,0:0:0:0:
448,192,104205,1,8,0:0:0:0:
320,192,104293,1,0,0:0:0:0:
64,192,104382,1,0,0:0:0:0:
448,192,104382,1,0,0:0:0:0:
192,192,104470,1,0,0:0:0:0:
320,192,104558,1,2,0:0:0:0:
448,192,104558,1,2,0:0:0:0:
64,192,104558,1,0,0:0:0:0:
64,192,104735,1,0,0:0:0:0:
192,192,104735,1,0,0:0:0:0:
320,192,104823,1,0,0:0:0:0:
448,192,104911,1,8,0:0:0:0:
192,192,104911,1,2,0:0:0:0:
64,192,104911,1,2,0:0:0:0:
320,192,104999,1,0,0:0:0:0:
192,192,105087,1,0,0:0:0:0:
448,192,105087,1,0,0:0:0:0:
448,192,105264,1,2,0:0:0:0:
320,192,105264,1,2,0:0:0:0:
64,192,105264,1,0,0:0:0:0:
192,192,105440,1,0,0:0:0:0:
448,192,105440,1,0,0:0:0:0:
320,192,105529,1,0,0:0:0:0:
192,192,105617,1,2,0:0:0:0:
64,192,105617,1,2,0:0:0:0:
448,192,105617,1,8,0:0:0:0:
320,192,105705,1,0,0:0:0:0:
64,192,105793,1,0,0:0:0:0:
192,192,105793,1,0,0:0:0:0:
448,192,105970,1,2,0:0:0:0:
320,192,105970,1,2,0:0:0:0:
64,192,105970,1,0,0:0:0:0:
192,192,106146,1,0,0:0:0:0:
448,192,106146,1,0,0:0:0:0:
320,192,106235,1,0,0:0:0:0:
192,192,106323,1,2,0:0:0:0:
64,192,106323,1,2,0:0:0:0:
448,192,106323,1,8,0:0:0:0:
320,192,106411,1,0,0:0:0:0:
64,192,106499,1,0,0:0:0:0:
448,192,106499,1,0,0:0:0:0:
448,192,106676,1,2,0:0:0:0:
320,192,106676,1,2,0:0:0:0:
64,192,106676,1,0,0:0:0:0:
192,192,106764,1,0,0:0:0:0:
320,192,106852,1,0,0:0:0:0:
448,192,106852,1,0,0:0:0:0:
192,192,106940,1,0,0:0:0:0:
64,192,107029,1,8,0:0:0:0:
320,192,107029,1,2,0:0:0:0:
448,192,107029,1,2,0:0:0:0:
192,192,107117,1,0,0:0:0:0:
448,192,107205,1,0,0:0:0:0:
64,192,107205,1,0,0:0:0:0:
192,192,107293,1,0,0:0:0:0:
448,192,107382,1,2,0:0:0:0:
320,192,107382,1,2,0:0:0:0:
64,192,107382,1,0,0:0:0:0:
320,192,107558,1,0,0:0:0:0:
64,192,107558,1,0,0:0:0:0:
192,192,107646,1,0,0:0:0:0:
64,192,107735,1,8,0:0:0:0:
320,192,107735,1,2,0:0:0:0:
448,192,107735,1,2,0:0:0:0:
192,192,107823,1,0,0:0:0:0:
320,192,107911,1,0,0:0:0:0:
448,192,107911,1,0,0:0:0:0:
320,192,108087,1,0,0:0:0:0:
192,192,108087,1,2,0:0:0:0:
64,192,108087,1,2,0:0:0:0:
448,192,108264,1,0,0:0:0:0:
320,192,108264,1,0,0:0:0:0:
192,192,108352,1,0,0:0:0:0:
64,192,108440,1,8,0:0:0:0:
448,192,108440,1,2,0:0:0:0:
320,192,108440,1,2,0:0:0:0:
192,192,108529,1,0,0:0:0:0:
320,192,108617,1,0,0:0:0:0:
64,192,108617,1,0,0:0:0:0:
64,192,108793,1,2,0:0:0:0:
448,192,108793,1,0,0:0:0:0:
192,192,108793,1,2,0:0:0:0:
320,192,108970,1,0,0:0:0:0:
64,192,108970,1,0,0:0:0:0:
192,192,109058,1,0,0:0:0:0:
320,192,109146,1,2,0:0:0:0:
448,192,109146,1,2,0:0:0:0:
64,192,109146,1,8,0:0:0:0:
192,192,109235,1,0,0:0:0:0:
320,192,109323,1,0,0:0:0:0:
448,192,109323,1,0,0:0:0:0:
64,192,109499,1,2,0:0:0:0:
448,192,109499,1,0,0:0:0:0:
192,192,109499,1,2,0:0:0:0:
320,192,109587,1,0,0:0:0:0:
64,192,109676,1,0,0:0:0:0:
448,192,109676,1,0,0:0:0:0:
192,192,109764,1,0,0:0:0:0:
448,192,109852,1,2,0:0:0:0:
320,192,109852,1,2,0:0:0:0:
64,192,109852,1,8,0:0:0:0:
192,192,109940,1,0,0:0:0:0:
448,192,110029,1,0,0:0:0:0:
64,192,110029,1,0,0:0:0:0:
320,192,110117,1,0,0:0:0:0:
64,192,110205,1,2,0:0:0:0:
448,192,110205,1,0,0:0:0:0:
192,192,110205,1,2,0:0:0:0:
448,192,110382,1,0,0:0:0:0:
320,192,110382,1,0,0:0:0:0:
192,192,110470,1,0,0:0:0:0:
64,192,110558,1,8,0:0:0:0:
320,192,110558,1,2,0:0:0:0:
448,192,110558,1,2,0:0:0:0:
192,192,110646,1,0,0:0:0:0:
320,192,110735,1,0,0:0:0:0:
64,192,110735,1,0,0:0:0:0:
448,192,110911,1,0,0:0:0:0:
192,192,110911,1,2,0:0:0:0:
64,192,110911,1,2,0:0:0:0:
320,192,111087,1,0,0:0:0:0:
64,192,111087,1,0,0:0:0:0:
192,192,111176,1,0,0:0:0:0:
64,192,111264,1,8,0:0:0:0:
448,192,111264,1,2,0:0:0:0:
320,192,111264,1,2,0:0:0:0:
192,192,111352,1,0,0:0:0:0:
448,192,111440,1,0,0:0:0:0:
320,192,111440,1,0,0:0:0:0:
448,192,111617,1,0,0:0:0:0:
192,192,111617,1,2,0:0:0:0:
64,192,111617,1,2,0:0:0:0:
64,192,111793,1,0,0:0:0:0:
320,192,111793,1,0,0:0:0:0:
192,192,111882,1,0,0:0:0:0:
448,192,111970,1,2,0:0:0:0:
320,192,111970,1,2,0:0:0:0:
64,192,111970,1,8,0:0:0:0:
192,192,112058,1,0,0:0:0:0:
64,192,112146,1,0,0:0:0:0:
448,192,112146,1,0,0:0:0:0:
192,192,112323,1,2,0:0:0:0:
448,192,112323,1,0,0:0:0:0:
64,192,112323,1,2,0:0:0:0:
320,192,112411,1,0,0:0:0:0:
192,192,112499,1,0,0:0:0:0:
64,192,112499,1,0,0:0:0:0:
320,192,112587,1,0,0:0:0:0:
64,192,112676,1,2,0:0:0:0:
192,192,112676,1,2,0:0:0:0:
448,192,112676,1,8,0:0:0:0:
320,192,112764,1,0,0:0:0:0:
64,192,112852,1,0,0:0:0:0:
448,192,112852,1,0,0:0:0:0:
320,192,112940,1,0,0:0:0:0:
192,192,113029,1,0,0:0:0:0:
64,192,113029,1,0,0:0:0:40:finish.wav
320,192,113029,1,2,0:0:0:0:
448,192,113029,1,2,0:0:0:0:
320,192,113205,1,0,0:0:0:0:
64,192,113293,1,2,0:0:0:0:
192,192,113293,1,2,0:0:0:0:
448,192,113293,1,0,0:0:0:0:
192,192,113382,1,2,0:0:0:0:
64,192,113382,1,10,0:0:0:0:
448,192,113470,1,0,0:0:0:0:
192,192,113558,1,2,0:0:0:0:
64,192,113558,1,2,0:0:0:0:
320,192,113558,1,0,0:0:0:0:
448,192,113735,1,2,0:0:0:0:
320,192,113735,1,2,0:0:0:0:
64,192,113735,1,0,0:0:0:0:
320,192,113911,1,0,0:0:0:0:
192,192,113999,1,2,0:0:0:0:
64,192,113999,1,2,0:0:0:0:
448,192,113999,1,0,0:0:0:0:
192,192,114087,1,2,0:0:0:0:
64,192,114087,1,10,0:0:0:0:
448,192,114176,1,0,0:0:0:0:
64,192,114264,1,2,0:0:0:0:
192,192,114264,1,2,0:0:0:0:
320,192,114264,1,0,0:0:0:0:
192,192,114440,1,2,0:0:0:0:
64,192,114440,1,2,0:0:0:0:
448,192,114440,1,0,0:0:0:0:
192,192,114617,1,0,0:0:0:0:
64,192,114705,1,0,0:0:0:0:
320,192,114705,1,2,0:0:0:0:
448,192,114705,1,2,0:0:0:0:
448,192,114793,1,10,0:0:0:0:
320,192,114793,1,2,0:0:0:0:
64,192,114882,1,0,0:0:0:0:
192,192,114970,5,0,0:0:0:0:
320,192,114970,1,2,0:0:0:0:
448,192,114970,1,2,0:0:0:0:
192,192,115146,1,2,0:0:0:0:
448,192,115146,1,0,0:0:0:0:
64,192,115146,1,2,0:0:0:0:
320,192,115235,1,0,0:0:0:0:
192,192,115323,1,0,0:0:0:0:
320,192,115411,1,2,0:0:0:0:
448,192,115411,1,2,0:0:0:0:
64,192,115411,1,0,0:0:0:0:
320,192,115499,1,2,0:0:0:0:
448,192,115499,1,10,0:0:0:0:
64,192,115587,1,0,0:0:0:0:
192,192,115676,1,0,0:0:0:0:
320,192,115676,1,2,0:0:0:0:
448,192,115676,1,2,0:0:0:0:
64,192,115764,1,0,0:0:0:0:
448,192,115852,1,2,0:0:0:0:
320,192,115852,1,2,0:0:0:0:
64,192,115852,1,0,0:0:0:40:finish.wav
192,192,115852,1,0,0:0:0:0:
64,192,116029,1,0,0:0:0:0:
320,192,116117,1,2,0:0:0:0:
448,192,116117,1,2,0:0:0:0:
192,192,116117,1,0,0:0:0:0:
448,192,116205,1,10,0:0:0:0:
320,192,116205,1,2,0:0:0:0:
64,192,116293,1,0,0:0:0:0:
448,192,116382,1,2,0:0:0:0:
320,192,116382,1,2,0:0:0:0:
192,192,116382,1,0,0:0:0:0:
448,192,116558,1,0,0:0:0:0:
192,192,116558,1,2,0:0:0:0:
64,192,116558,1,2,0:0:0:0:
64,192,116735,1,0,0:0:0:0:
320,192,116823,1,2,0:0:0:0:
192,192,116823,1,0,0:0:0:0:
448,192,116823,1,2,0:0:0:0:
320,192,116911,1,2,0:0:0:0:
448,192,116911,1,10,0:0:0:0:
64,192,116999,1,0,0:0:0:0:
192,192,117087,1,0,0:0:0:0:
320,192,117087,1,2,0:0:0:0:
448,192,117087,1,2,0:0:0:0:
64,192,117264,1,0,0:0:0:0:
320,192,117264,1,2,0:0:0:0:
448,192,117264,1,2,0:0:0:0:
448,192,117440,1,0,0:0:0:0:
192,192,117529,1,2,0:0:0:0:
64,192,117529,1,2,0:0:0:0:
320,192,117529,1,0,0:0:0:0:
192,192,117617,1,2,0:0:0:0:
64,192,117617,1,10,0:0:0:0:
320,192,117705,1,0,0:0:0:0:
448,192,117793,1,0,0:0:0:0:
192,192,117793,1,2,0:0:0:0:
64,192,117793,1,2,0:0:0:0:
448,192,117970,1,2,0:0:0:0:
320,192,117970,1,2,0:0:0:0:
64,192,117970,1,0,0:0:0:0:
192,192,118058,1,0,0:0:0:0:
448,192,118146,1,0,0:0:0:0:
192,192,118235,1,2,0:0:0:0:
64,192,118235,1,2,0:0:0:0:
320,192,118235,1,0,0:0:0:0:
192,192,118323,1,2,0:0:0:0:
64,192,118323,1,10,0:0:0:0:
320,192,118411,1,0,0:0:0:0:
448,192,118499,1,0,0:0:0:0:
192,192,118499,1,2,0:0:0:0:
64,192,118499,1,2,0:0:0:0:
320,192,118587,1,0,0:0:0:0:
448,192,118676,1,2,0:0:0:0:
192,192,118676,1,0,0:0:0:0:
64,192,118676,1,0,0:0:0:40:finish.wav
320,192,118676,1,2,0:0:0:0:
192,192,118852,1,0,0:0:0:0:
320,192,118852,1,2,0:0:0:0:
448,192,118852,1,2,0:0:0:0:
64,192,119029,1,8,0:0:0:0:
320,192,119029,1,2,0:0:0:0:
448,192,119029,1,2,0:0:0:0:
320,192,119205,1,0,0:0:0:0:
192,192,119205,1,2,0:0:0:0:
64,192,119205,1,2,0:0:0:0:
192,192,119382,1,2,0:0:0:0:
64,192,119382,1,2,0:0:0:0:
448,192,119382,1,0,0:0:0:0:
448,192,119558,1,2,0:0:0:0:
320,192,119558,1,2,0:0:0:0:
192,192,119558,1,0,0:0:0:0:
64,192,119735,1,8,0:0:0:0:
320,192,119735,1,2,0:0:0:0:
448,192,119735,1,2,0:0:0:0:
192,192,119911,1,2,0:0:0:0:
64,192,119911,1,2,0:0:0:0:
320,192,119911,1,0,0:0:0:0:
448,192,120087,1,2,0:0:0:0:
192,192,120087,1,0,0:0:0:0:
320,192,120087,1,2,0:0:0:0:
64,192,120087,1,0,0:0:0:40:finish.wav
448,192,120264,1,0,0:0:0:0:
64,192,120264,1,2,0:0:0:0:
192,192,120264,1,2,0:0:0:0:
320,192,120440,1,2,0:0:0:0:
448,192,120440,1,2,0:0:0:0:
64,192,120440,1,8,0:0:0:0:
64,192,120617,1,2,0:0:0:0:
192,192,120617,1,2,0:0:0:0:
448,192,120617,1,0,0:0:0:0:
320,192,120793,1,0,0:0:0:0:
192,192,120793,1,2,0:0:0:0:
64,192,120793,1,2,0:0:0:0:
192,192,120970,1,0,0:0:0:0:
320,192,120970,1,2,0:0:0:0:
448,192,120970,1,2,0:0:0:0:
320,192,121146,1,2,0:0:0:0:
64,192,121146,1,8,0:0:0:0:
448,192,121146,1,2,0:0:0:0:
320,192,121323,1,0,0:0:0:0:
192,192,121323,1,2,0:0:0:0:
64,192,121323,1,2,0:0:0:0:
64,192,121499,1,2,0:0:0:0:
192,192,121499,1,2,0:0:0:0:
320,192,121587,1,2,0:0:0:0:
448,192,121587,1,2,0:0:0:0:
192,192,121676,1,2,0:0:0:0:
64,192,121676,1,2,0:0:0:0:
320,192,121764,1,2,0:0:0:0:
448,192,121764,1,2,0:0:0:0:
192,192,121852,1,10,0:0:0:0:
64,192,121852,1,2,0:0:0:0:
320,192,121940,1,2,0:0:0:0:
448,192,121940,1,2,0:0:0:0:
192,192,122029,1,2,0:0:0:0:
64,192,122029,1,2,0:0:0:0:
320,192,122117,1,2,0:0:0:0:
448,192,122117,1,2,0:0:0:0:
320,192,122205,1,2,0:0:0:0:
64,192,122205,1,2,0:0:0:0:
192,192,122293,1,2,0:0:0:0:
448,192,122293,1,2,0:0:0:0:
64,192,122382,1,2,0:0:0:0:
320,192,122382,1,2,0:0:0:0:
192,192,122470,1,2,0:0:0:0:
448,192,122470,1,2,0:0:0:0:
320,192,122558,1,10,0:0:0:0:
64,192,122558,1,2,0:0:0:0:
192,192,122646,1,2,0:0:0:0:
448,192,122646,1,2,0:0:0:0:
320,192,122735,1,2,0:0:0:0:
64,192,122735,1,2,0:0:0:0:
192,192,122823,1,2,0:0:0:0:
448,192,122823,1,2,0:0:0:0:
320,192,122911,1,2,0:0:0:0:
64,192,122911,1,2,0:0:0:0:
448,192,124323,1,2,0:0:0:0:
320,192,124323,1,2,0:0:0:0:
192,192,124323,1,0,0:0:0:0:
64,192,124323,1,0,0:0:0:40:finish.wav
