osu file format v14

[General]
AudioFilename: nonet - Now On Stage!!.mp3
AudioLeadIn: 0
PreviewTime: 62329
Countdown: 0
SampleSet: Soft
StackLeniency: 0.7
Mode: 3
LetterboxInBreaks: 0
SpecialStyle: 0
WidescreenStoryboard: 0

[Editor]
DistanceSpacing: 1.2
BeatDivisor: 8
GridSize: 4
TimelineZoom: 2

[Metadata]
Title:Now On Stage!!
TitleUnicode:Now On Stage!!
Artist:nonet
ArtistUnicode:nonet
Creator:Reyzra
Version:HD
Source:ガールフレンド(♪)
Tags:Girlfriend Note Kari Fumio Murakami Chloe Lemaire Kokomi Shina Mutsumi Shigino Momoko Asahina Haruka Kazemachi Akane Sakurai Saya Kagurazaka Kaori Nazuka Sakura Tange Satomi Sato Minami Tsuda Yui Ogura Saori Hayami Rina Sato Minako Kotobuki livetune ameba R-force kz
BeatmapID:1026562
BeatmapSetID:480904

[Difficulty]
HPDrainRate:8
CircleSize:4
OverallDifficulty:8
ApproachRate:10
SliderMultiplier:1.4
SliderTickRate:1

[Events]
//Background and Video events
0,0,"haruka.jpg",0,0
//Break Periods
//Storyboard Layer 0 (Background)
//Storyboard Layer 1 (Fail)
//Storyboard Layer 2 (Pass)
//Storyboard Layer 3 (Foreground)
//Storyboard Sound Samples

[TimingPoints]
-670,352.941176470588,4,2,0,50,1,0
6388,-100,4,2,0,50,0,0
7447,-100,4,2,2,50,0,0
7800,-100,4,2,0,50,0,0
8506,-100,4,2,2,50,0,0
9212,-100,4,2,2,50,0,0
62859,-100,4,2,2,50,0,1
73800,-100,4,2,2,50,0,0
74153,-100,4,2,2,50,0,1
84829,-133.333333333333,4,2,2,50,0,1
84918,-100,4,2,2,50,0,1
85006,-76.9230769230769,4,2,2,50,0,1
85094,-62.5,4,2,2,50,0,1
85138,-100,4,2,2,50,0,1
85182,-133.333333333333,4,2,2,50,0,1
85227,-200,4,2,2,50,0,1
85271,-133.333333333333,4,2,2,50,0,1
85315,-100,4,2,2,50,0,1
85359,-79.9999999999999,4,2,2,50,0,1
85403,-66.6666666666667,4,2,2,50,0,0
85447,-100,4,2,2,50,0,0
107153,-100,4,2,2,5,0,0
109447,371.517027863777,4,2,2,50,1,0
109447,-95.2380952380952,4,2,2,50,0,0
111676,320.855614973262,4,2,0,50,1,0
111676,-109.89010989011,4,2,0,50,0,0
111985,526.315789473684,4,2,0,50,1,0
111985,-67.1140939597315,4,2,0,50,0,0
112511,360.36036036036,4,2,2,50,1,0
112511,-98.0392156862745,4,2,2,50,0,0

[HitObjects]
320,192,741,5,4,1:0:0:0:
448,192,741,1,6,0:0:0:0:
64,192,741,128,2,2153:0:0:0:0:
192,192,1447,1,2,0:0:0:0:
320,192,1800,1,2,0:0:0:0:
192,192,2153,128,2,3565:0:0:0:0:
448,192,2153,1,2,0:0:0:0:
64,192,2859,1,2,0:0:0:0:
448,192,3212,1,2,0:0:0:0:
320,192,3565,128,2,4271:0:0:0:0:
64,192,3565,1,2,0:0:0:0:
448,192,3918,1,2,0:0:0:0:
192,192,4271,128,2,4977:0:0:0:0:
64,192,4271,1,2,0:0:0:0:
448,192,4977,128,2,5329:0:0:0:0:
64,192,4977,1,2,0:0:0:0:
320,192,5329,128,2,5682:0:0:0:0:
64,192,5329,1,2,0:0:0:0:
192,192,5682,128,2,6035:0:0:0:0:
448,192,5682,1,2,0:0:0:0:
64,192,6035,128,2,6388:0:0:0:0:
320,192,6035,1,2,0:0:0:0:
448,192,6388,128,4,7094:1:0:0:0:
192,192,6388,1,6,0:0:0:0:
192,192,7094,128,6,7800:0:0:0:0:
320,192,7094,1,4,1:0:0:0:
64,192,7447,1,2,0:0:0:0:
320,192,7800,128,6,8506:0:0:0:0:
448,192,7800,1,4,1:0:0:0:
64,192,8153,1,2,0:0:0:0:
192,192,8329,1,2,0:0:0:0:
64,192,8506,1,4,0:0:0:0:
448,192,8506,128,4,9212:1:0:0:0:
192,192,9035,1,0,0:0:0:0:
320,192,9124,1,0,0:0:0:0:
64,192,9212,1,8,0:0:0:0:
192,192,9212,1,12,1:0:0:0:
320,192,9388,1,2,0:0:0:0:
448,192,9565,1,8,0:0:0:0:
64,192,9565,1,8,0:0:0:0:
192,192,9741,1,2,0:0:0:0:
320,192,9918,1,8,0:0:0:0:
448,192,9918,1,8,0:0:0:0:
64,192,10094,1,2,0:0:0:0:
192,192,10271,1,8,0:0:0:0:
448,192,10271,1,8,0:0:0:0:
320,192,10447,1,2,0:0:0:0:
64,192,10624,1,8,0:0:0:0:
448,192,10624,1,8,0:0:0:0:
320,192,10800,1,8,0:0:0:0:
192,192,10800,1,8,0:0:0:0:
64,192,10977,1,8,0:0:0:0:
448,192,10977,1,8,0:0:0:0:
64,192,11506,1,2,0:0:0:0:
192,192,11594,1,2,0:0:0:0:
64,192,11682,1,0,0:0:0:0:
320,192,11682,1,8,0:0:0:0:
448,192,11682,128,8,12035:0:0:0:0:
64,192,12035,1,6,0:0:0:0:
320,192,12035,1,4,1:0:0:0:
192,192,12212,1,2,0:0:0:0:
448,192,12388,1,8,0:0:0:0:
320,192,12388,1,8,0:0:0:0:
192,192,12565,1,2,0:0:0:0:
64,192,12565,1,0,0:0:0:0:
64,192,12918,1,2,0:0:0:0:
192,192,12918,1,0,0:0:0:0:
448,192,13094,1,8,0:0:0:0:
320,192,13094,1,8,0:0:0:0:
448,192,13447,1,0,0:0:0:0:
192,192,13447,1,2,0:0:0:0:
320,192,13624,1,2,0:0:0:0:
448,192,13800,1,8,0:0:0:0:
64,192,13800,1,8,0:0:0:0:
192,192,13977,1,2,0:0:0:0:
320,192,13977,1,0,0:0:0:0:
192,192,14329,1,2,0:0:0:0:
320,192,14329,1,0,0:0:0:0:
64,192,14506,1,8,0:0:0:0:
448,192,14506,1,8,0:0:0:0:
192,192,14682,1,8,0:0:0:0:
320,192,14771,1,8,0:0:0:0:
448,192,14859,1,2,0:0:0:0:
64,192,14859,1,0,0:0:0:0:
320,192,15035,1,2,0:0:0:0:
192,192,15212,1,8,0:0:0:0:
448,192,15212,1,8,0:0:0:0:
64,192,15388,1,8,0:0:0:0:
448,192,15388,1,4,0:0:0:0:
320,192,15388,1,8,0:0:0:0:
320,192,15741,1,8,0:0:0:0:
192,192,15741,1,4,0:0:0:0:
64,192,15741,1,8,0:0:0:0:
64,192,16094,128,4,16447:1:0:0:0:
192,192,16094,1,4,0:0:0:0:
448,192,16094,1,2,0:0:0:0:
320,192,16447,128,0,16624:0:0:0:0:
448,192,16624,1,8,0:0:0:0:
192,192,16624,128,0,16800:0:0:0:0:
320,192,16800,128,0,16977:0:0:0:0:
448,192,16977,128,8,17153:0:0:0:0:
64,192,16977,128,12,17153:0:0:0:0:
192,192,17329,128,8,17682:0:0:0:0:
320,192,17329,128,12,17682:0:0:0:0:
64,192,17682,1,4,1:0:0:0:
448,192,17682,1,6,0:0:0:0:
192,192,17859,1,2,0:0:0:0:
64,192,18035,1,8,0:0:0:0:
320,192,18035,1,8,0:0:0:0:
448,192,18212,1,2,0:0:0:0:
192,192,18212,1,0,0:0:0:0:
448,192,18565,1,2,0:0:0:0:
192,192,18565,1,0,0:0:0:0:
64,192,18741,1,8,0:0:0:0:
320,192,18741,1,8,0:0:0:0:
192,192,19094,1,2,0:0:0:0:
448,192,19094,1,0,0:0:0:0:
320,192,19271,1,2,0:0:0:0:
192,192,19447,1,8,0:0:0:0:
64,192,19447,1,8,0:0:0:0:
448,192,19624,1,2,0:0:0:0:
320,192,19624,1,0,0:0:0:0:
448,192,19977,5,2,0:0:0:0:
320,192,19977,1,0,0:0:0:0:
192,192,20153,1,8,0:0:0:0:
64,192,20153,1,8,0:0:0:0:
64,192,20506,1,2,0:0:0:0:
448,192,20506,1,0,0:0:0:0:
320,192,20682,1,2,0:0:0:0:
64,192,20859,1,8,0:0:0:0:
192,192,20859,1,8,0:0:0:0:
448,192,21035,1,12,0:0:0:0:
320,192,21035,1,8,0:0:0:0:
64,192,21035,1,0,0:0:0:0:
64,192,21388,1,8,0:0:0:0:
192,192,21388,1,12,0:0:0:0:
448,192,21388,1,0,0:0:0:0:
320,192,21565,1,2,0:0:0:0:
192,192,21653,1,2,0:0:0:0:
448,192,21741,128,4,23329:1:0:0:0:
64,192,21741,1,4,0:0:0:0:
320,192,21741,1,2,0:0:0:0:
192,192,22094,1,0,0:0:0:0:
64,192,22271,1,0,0:0:0:0:
192,192,22447,1,0,0:0:0:0:
320,192,22624,1,0,0:0:0:0:
192,192,22800,1,0,0:0:0:0:
64,192,22977,1,8,0:0:0:0:
320,192,22977,1,8,0:0:0:0:
64,192,23329,1,4,0:0:0:0:
192,192,23329,1,4,1:0:0:0:
320,192,23506,1,0,0:0:0:0:
448,192,23682,1,2,0:0:0:0:
64,192,23859,1,0,0:0:0:0:
320,192,24035,1,2,0:0:0:0:
192,192,24212,1,0,0:0:0:0:
448,192,24388,1,2,0:0:0:0:
64,192,24565,1,0,0:0:0:0:
192,192,24653,1,0,0:0:0:0:
448,192,24741,1,2,0:0:0:0:
320,192,24741,1,0,0:0:0:0:
64,192,24918,1,0,0:0:0:0:
192,192,25094,1,2,0:0:0:0:
320,192,25271,1,0,0:0:0:0:
64,192,25447,1,2,0:0:0:0:
448,192,25447,1,0,0:0:0:0:
320,192,25624,1,0,0:0:0:0:
192,192,25800,1,2,0:0:0:0:
448,192,25977,1,0,0:0:0:0:
320,192,26153,1,0,0:0:0:0:
64,192,26153,1,2,0:0:0:0:
192,192,26329,1,0,0:0:0:0:
448,192,26506,1,2,0:0:0:0:
64,192,26682,1,0,0:0:0:0:
320,192,26859,1,2,0:0:0:0:
192,192,27035,1,0,0:0:0:0:
448,192,27212,1,2,0:0:0:0:
64,192,27388,1,0,0:0:0:0:
192,192,27477,1,0,0:0:0:0:
320,192,27565,1,2,0:0:0:0:
448,192,27741,1,0,0:0:0:0:
64,192,27918,1,2,0:0:0:0:
320,192,28094,1,0,0:0:0:0:
448,192,28271,1,2,0:0:0:0:
192,192,28447,1,0,0:0:0:0:
448,192,28624,1,2,0:0:0:0:
64,192,28624,128,0,28977:0:0:0:0:
320,192,28800,128,0,28977:0:0:0:0:
448,192,28977,1,2,0:0:0:0:
192,192,28977,128,0,30388:0:0:0:0:
320,192,29153,1,0,0:0:0:0:
64,192,29329,1,2,0:0:0:0:
448,192,29506,1,0,0:0:0:0:
320,192,29682,1,2,0:0:0:0:
64,192,29859,1,0,0:0:0:0:
320,192,30035,1,2,0:0:0:0:
448,192,30212,1,0,0:0:0:0:
64,192,30300,1,0,0:0:0:0:
448,192,30388,1,2,0:0:0:0:
320,192,30388,128,0,31800:0:0:0:0:
64,192,30565,1,0,0:0:0:0:
192,192,30741,1,2,0:0:0:0:
448,192,30918,1,0,0:0:0:0:
64,192,31094,1,2,0:0:0:0:
192,192,31271,1,0,0:0:0:0:
448,192,31447,1,2,0:0:0:0:
192,192,31624,1,0,0:0:0:0:
448,192,31800,1,2,0:0:0:0:
64,192,31800,128,0,33212:0:0:0:0:
192,192,31977,1,0,0:0:0:0:
320,192,32153,1,2,0:0:0:0:
448,192,32329,1,0,0:0:0:0:
192,192,32506,1,2,0:0:0:0:
448,192,32682,1,0,0:0:0:0:
192,192,32859,1,2,0:0:0:0:
320,192,33035,1,0,0:0:0:0:
448,192,33212,1,0,0:0:0:0:
192,192,33212,1,2,0:0:0:0:
64,192,33388,1,2,0:0:0:0:
320,192,33388,1,0,0:0:0:0:
192,192,33565,1,2,0:0:0:0:
448,192,33565,1,0,0:0:0:0:
64,192,33741,1,0,0:0:0:0:
320,192,33741,1,2,0:0:0:0:
448,192,33741,1,4,0:0:0:0:
192,192,34094,1,2,0:0:0:0:
320,192,34094,1,0,0:0:0:0:
64,192,34271,1,8,0:0:0:0:
192,192,34271,1,8,0:0:0:0:
448,192,34271,128,0,34624:0:0:0:0:
64,192,34624,1,2,0:0:0:0:
320,192,34624,1,4,1:0:0:0:
192,192,34800,1,0,0:0:0:0:
448,192,34977,1,2,0:0:0:0:
320,192,35153,1,0,0:0:0:0:
64,192,35329,1,2,0:0:0:0:
192,192,35506,1,0,0:0:0:0:
448,192,35682,1,2,0:0:0:0:
320,192,35682,1,8,0:0:0:0:
192,192,35859,1,0,0:0:0:0:
320,192,35947,1,0,0:0:0:0:
64,192,36035,1,0,0:0:0:0:
448,192,36035,1,2,0:0:0:0:
320,192,36212,1,0,0:0:0:0:
192,192,36388,1,2,0:0:0:0:
320,192,36565,1,0,0:0:0:0:
64,192,36741,1,2,0:0:0:0:
320,192,36918,1,0,0:0:0:0:
192,192,36918,1,8,0:0:0:0:
448,192,37094,1,2,0:0:0:0:
320,192,37271,1,0,0:0:0:0:
192,192,37359,1,0,0:0:0:0:
64,192,37447,1,0,0:0:0:0:
448,192,37447,1,2,0:0:0:0:
192,192,37624,1,0,0:0:0:0:
448,192,37800,1,2,0:0:0:0:
320,192,37977,1,0,0:0:0:0:
64,192,38153,1,2,0:0:0:0:
320,192,38329,1,0,0:0:0:0:
192,192,38506,1,2,0:0:0:0:
448,192,38506,1,8,0:0:0:0:
64,192,38682,1,0,0:0:0:0:
192,192,38771,1,0,0:0:0:0:
448,192,38859,1,0,0:0:0:0:
320,192,38859,1,2,0:0:0:0:
64,192,39035,1,0,0:0:0:0:
320,192,39212,1,2,0:0:0:0:
192,192,39388,1,8,0:0:0:0:
64,192,39388,1,0,0:0:0:0:
448,192,39565,1,2,0:0:0:0:
64,192,39741,1,0,0:0:0:0:
320,192,39918,1,2,0:0:0:0:
448,192,39918,128,0,40271:0:0:0:0:
192,192,40094,1,0,0:0:0:0:
320,192,40271,1,2,0:0:0:0:
64,192,40271,128,0,41682:0:0:0:0:
448,192,40447,1,0,0:0:0:0:
192,192,40624,1,2,0:0:0:0:
320,192,40800,1,0,0:0:0:0:
448,192,40977,1,2,0:0:0:0:
192,192,41153,1,0,0:0:0:0:
320,192,41329,1,2,0:0:0:0:
448,192,41506,1,0,0:0:0:0:
320,192,41594,1,0,0:0:0:0:
192,192,41682,128,2,43094:0:0:0:0:
448,192,41682,1,2,0:0:0:0:
320,192,41859,1,0,0:0:0:0:
64,192,42035,1,2,0:0:0:0:
448,192,42212,1,0,0:0:0:0:
320,192,42388,1,2,0:0:0:0:
448,192,42565,1,8,0:0:0:0:
64,192,42565,1,0,0:0:0:0:
320,192,42741,1,2,0:0:0:0:
64,192,42918,1,0,0:0:0:0:
320,192,43094,128,0,44506:0:0:0:0:
448,192,43094,1,2,0:0:0:0:
192,192,43271,1,0,0:0:0:0:
64,192,43447,1,2,0:0:0:0:
192,192,43624,1,0,0:0:0:0:
448,192,43800,1,2,0:0:0:0:
192,192,43977,1,0,0:0:0:0:
64,192,44153,1,2,0:0:0:0:
192,192,44329,1,0,0:0:0:0:
448,192,44506,1,2,0:0:0:0:
64,192,44506,1,0,0:0:0:0:
192,192,44682,1,0,0:0:0:0:
448,192,44859,1,0,0:0:0:0:
320,192,44859,1,2,0:0:0:0:
192,192,45035,1,0,0:0:0:0:
64,192,45035,1,8,0:0:0:0:
320,192,45124,1,8,0:0:0:0:
64,192,45212,1,8,0:0:0:0:
448,192,45212,1,8,0:0:0:0:
192,192,45565,1,8,0:0:0:0:
320,192,45565,1,8,0:0:0:0:
192,192,45918,1,8,0:0:0:0:
64,192,45918,1,4,0:0:0:0:
448,192,45918,1,4,1:0:0:0:
320,192,46094,1,0,0:0:0:0:
192,192,46094,1,8,0:0:0:0:
448,192,46271,1,0,0:0:0:0:
320,192,46271,1,8,0:0:0:0:
320,192,46624,1,0,0:0:0:0:
448,192,46624,1,8,0:0:0:0:
192,192,46624,1,8,0:0:0:0:
192,192,46977,1,2,0:0:0:0:
64,192,47153,1,2,0:0:0:0:
192,192,47241,1,2,0:0:0:0:
320,192,47329,1,0,0:0:0:0:
448,192,47329,1,8,0:0:0:0:
192,192,47506,1,0,0:0:0:0:
320,192,47506,1,8,0:0:0:0:
64,192,47682,1,0,0:0:0:0:
192,192,47682,1,8,0:0:0:0:
64,192,48035,1,0,0:0:0:0:
192,192,48035,1,8,0:0:0:0:
320,192,48035,1,8,0:0:0:0:
448,192,48388,1,2,0:0:0:0:
192,192,48565,1,2,0:0:0:0:
320,192,48741,1,0,0:0:0:0:
64,192,48741,1,8,0:0:0:0:
192,192,48918,1,0,0:0:0:0:
448,192,48918,1,8,0:0:0:0:
448,192,49094,1,0,0:0:0:0:
320,192,49094,1,8,0:0:0:0:
192,192,49447,1,8,0:0:0:0:
64,192,49447,1,0,0:0:0:0:
448,192,49447,1,8,0:0:0:0:
320,192,49800,1,0,0:0:0:0:
192,192,49977,1,2,0:0:0:0:
320,192,50065,1,2,0:0:0:0:
192,192,50153,1,0,0:0:0:0:
448,192,50153,1,8,0:0:0:0:
320,192,50329,1,8,0:0:0:0:
64,192,50329,1,0,0:0:0:0:
64,192,50506,1,0,0:0:0:0:
192,192,50506,1,8,0:0:0:0:
64,192,50859,1,0,0:0:0:0:
320,192,50859,1,8,0:0:0:0:
448,192,50859,1,8,0:0:0:0:
192,192,51035,1,2,0:0:0:0:
448,192,51212,128,0,51565:0:0:0:0:
320,192,51212,1,8,0:0:0:0:
192,192,51565,1,4,1:0:0:0:
64,192,51565,128,6,52977:0:0:0:0:
320,192,51918,1,8,0:0:0:0:
448,192,51918,1,8,0:0:0:0:
192,192,52271,1,2,0:0:0:0:
320,192,52447,1,2,0:0:0:0:
192,192,52624,1,8,0:0:0:0:
448,192,52624,1,8,0:0:0:0:
192,192,52977,128,0,54388:0:0:0:0:
320,192,52977,1,2,0:0:0:0:
448,192,53329,1,8,0:0:0:0:
64,192,53329,1,8,0:0:0:0:
320,192,53682,1,2,0:0:0:0:
64,192,53859,1,2,0:0:0:0:
448,192,54035,1,8,0:0:0:0:
320,192,54035,1,8,0:0:0:0:
320,192,54388,128,0,55800:0:0:0:0:
64,192,54388,1,2,0:0:0:0:
192,192,54741,1,8,0:0:0:0:
448,192,54741,1,8,0:0:0:0:
64,192,55094,1,2,0:0:0:0:
192,192,55271,1,2,0:0:0:0:
64,192,55447,1,8,0:0:0:0:
448,192,55447,1,8,0:0:0:0:
448,192,55800,128,0,57212:0:0:0:0:
192,192,55800,1,2,0:0:0:0:
320,192,56153,1,8,0:0:0:0:
64,192,56153,1,8,0:0:0:0:
192,192,56506,1,2,0:0:0:0:
320,192,56682,1,2,0:0:0:0:
192,192,56859,1,8,0:0:0:0:
64,192,56859,1,8,0:0:0:0:
64,192,57212,1,8,0:0:0:0:
320,192,57212,1,8,0:0:0:0:
64,192,57388,1,2,0:0:0:0:
192,192,57565,1,8,0:0:0:0:
448,192,57565,1,8,0:0:0:0:
192,192,57741,1,2,0:0:0:0:
320,192,57918,1,8,0:0:0:0:
64,192,57918,1,8,0:0:0:0:
320,192,58094,1,2,0:0:0:0:
448,192,58271,1,8,0:0:0:0:
192,192,58271,1,8,0:0:0:0:
448,192,58447,1,2,0:0:0:0:
64,192,58624,1,8,0:0:0:0:
320,192,58624,1,8,0:0:0:0:
320,192,58800,1,2,0:0:0:0:
192,192,58977,1,8,0:0:0:0:
448,192,58977,1,8,0:0:0:0:
192,192,59153,1,2,0:0:0:0:
64,192,59329,1,8,0:0:0:0:
320,192,59329,1,8,0:0:0:0:
64,192,59506,1,2,0:0:0:0:
192,192,59682,1,8,0:0:0:0:
448,192,59682,1,8,0:0:0:0:
448,192,59859,1,2,0:0:0:0:
320,192,60035,1,8,0:0:0:0:
192,192,60035,1,0,0:0:0:0:
192,192,60388,1,2,0:0:0:0:
64,192,60388,1,0,0:0:0:0:
192,192,60565,1,0,0:0:0:0:
320,192,60565,1,2,0:0:0:0:
448,192,60741,1,2,0:0:0:0:
320,192,60741,1,0,0:0:0:0:
192,192,60918,1,0,0:0:0:0:
448,192,60918,1,2,0:0:0:0:
64,192,61094,1,2,0:0:0:0:
320,192,61094,1,0,0:0:0:0:
192,192,61271,1,8,0:0:0:0:
448,192,61271,1,2,0:0:0:0:
320,192,61447,1,8,0:0:0:0:
448,192,61447,1,8,0:0:0:0:
64,192,61624,1,8,0:0:0:0:
192,192,61624,1,8,0:0:0:0:
320,192,61800,1,8,0:0:0:0:
448,192,61800,1,8,0:0:0:0:
192,192,62153,128,8,62506:0:0:0:0:
320,192,62153,128,8,62506:0:0:0:0:
64,192,62506,1,2,0:0:0:0:
448,192,62506,1,8,0:0:0:0:
64,192,62859,1,4,0:0:0:0:
448,192,62859,1,2,0:0:0:0:
320,192,62859,1,4,1:0:0:0:
192,192,63035,1,0,0:0:0:0:
64,192,63212,1,8,0:0:0:0:
448,192,63212,1,8,0:0:0:0:
192,192,63388,1,0,0:0:0:0:
320,192,63565,1,2,0:0:0:0:
64,192,63741,1,2,0:0:0:0:
448,192,63918,1,8,0:0:0:0:
320,192,63918,1,8,0:0:0:0:
192,192,64094,1,0,0:0:0:0:
64,192,64271,1,2,0:0:0:0:
448,192,64271,1,0,0:0:0:0:
320,192,64447,1,0,0:0:0:0:
192,192,64624,1,8,0:0:0:0:
64,192,64624,1,8,0:0:0:0:
448,192,64800,1,0,0:0:0:0:
320,192,64977,1,2,0:0:0:0:
192,192,65153,1,2,0:0:0:0:
448,192,65329,1,0,0:0:0:0:
64,192,65329,1,8,0:0:0:0:
320,192,65329,1,8,0:0:0:0:
192,192,65506,1,0,0:0:0:0:
64,192,65682,1,0,0:0:0:0:
448,192,65682,1,2,0:0:0:0:
320,192,65859,1,0,0:0:0:0:
448,192,66035,1,8,0:0:0:0:
192,192,66035,1,8,0:0:0:0:
320,192,66212,1,0,0:0:0:0:
64,192,66388,1,2,0:0:0:0:
192,192,66565,1,0,0:0:0:0:
448,192,66741,1,8,0:0:0:0:
320,192,66741,1,8,0:0:0:0:
192,192,66918,1,2,0:0:0:0:
64,192,67094,1,2,0:0:0:0:
448,192,67094,128,0,67447:0:0:0:0:
320,192,67447,128,8,67800:0:0:0:0:
64,192,67447,1,8,0:0:0:0:
192,192,67800,128,0,68153:0:0:0:0:
448,192,67800,1,2,0:0:0:0:
320,192,67977,1,2,0:0:0:0:
64,192,68153,128,8,68506:0:0:0:0:
448,192,68153,1,8,0:0:0:0:
192,192,68506,1,4,1:0:0:0:
448,192,68506,1,4,0:0:0:0:
320,192,68682,1,0,0:0:0:0:
64,192,68859,1,8,0:0:0:0:
448,192,68859,1,8,0:0:0:0:
192,192,69035,1,0,0:0:0:0:
320,192,69212,1,2,0:0:0:0:
64,192,69388,1,2,0:0:0:0:
448,192,69565,1,8,0:0:0:0:
192,192,69565,1,8,0:0:0:0:
320,192,69741,1,0,0:0:0:0:
448,192,69918,1,0,0:0:0:0:
64,192,69918,1,2,0:0:0:0:
192,192,70094,1,0,0:0:0:0:
448,192,70271,1,8,0:0:0:0:
320,192,70271,1,8,0:0:0:0:
64,192,70447,1,0,0:0:0:0:
192,192,70624,1,2,0:0:0:0:
448,192,70800,1,2,0:0:0:0:
192,192,70977,1,8,0:0:0:0:
64,192,70977,1,8,0:0:0:0:
320,192,71153,1,0,0:0:0:0:
64,192,71329,1,2,0:0:0:0:
448,192,71329,1,0,0:0:0:0:
320,192,71506,1,0,0:0:0:0:
64,192,71682,1,8,0:0:0:0:
192,192,71682,1,8,0:0:0:0:
448,192,71859,1,0,0:0:0:0:
320,192,72035,1,2,0:0:0:0:
64,192,72212,1,2,0:0:0:0:
192,192,72388,1,8,0:0:0:0:
320,192,72388,1,8,0:0:0:0:
448,192,72565,1,2,0:0:0:0:
64,192,72741,1,8,0:0:0:0:
192,192,72741,1,12,0:0:0:0:
448,192,72918,1,8,0:0:0:0:
320,192,72918,1,12,0:0:0:0:
192,192,73094,1,12,0:0:0:0:
64,192,73094,128,8,73447:0:0:0:0:
320,192,73447,1,12,0:0:0:0:
448,192,73447,128,0,73800:0:0:0:0:
320,192,73800,1,8,0:0:0:0:
64,192,73800,1,8,0:0:0:0:
192,192,73800,1,0,0:0:0:0:
448,192,74153,1,0,0:0:0:0:
64,192,74153,128,0,75565:0:0:0:0:
192,192,74153,1,0,0:0:0:0:
320,192,74329,1,0,0:0:0:0:
448,192,74506,1,8,0:0:0:0:
192,192,74506,1,8,0:0:0:0:
320,192,74682,1,0,0:0:0:0:
448,192,74859,1,2,0:0:0:0:
192,192,75035,1,2,0:0:0:0:
448,192,75212,1,8,0:0:0:0:
320,192,75212,1,8,0:0:0:0:
192,192,75388,1,0,0:0:0:0:
320,192,75477,1,0,0:0:0:0:
192,192,75565,128,0,76977:0:0:0:0:
448,192,75565,1,2,0:0:0:0:
320,192,75741,1,0,0:0:0:0:
64,192,75918,1,8,0:0:0:0:
448,192,75918,1,8,0:0:0:0:
320,192,76094,1,0,0:0:0:0:
448,192,76271,1,2,0:0:0:0:
64,192,76447,1,2,0:0:0:0:
448,192,76624,1,8,0:0:0:0:
320,192,76624,1,8,0:0:0:0:
64,192,76800,1,0,0:0:0:0:
320,192,76977,128,0,77682:0:0:0:0:
448,192,76977,1,0,0:0:0:0:
192,192,77153,1,0,0:0:0:0:
64,192,77329,1,8,0:0:0:0:
448,192,77329,1,8,0:0:0:0:
192,192,77506,1,0,0:0:0:0:
64,192,77682,1,2,0:0:0:0:
448,192,77682,128,0,78388:0:0:0:0:
192,192,77859,1,2,0:0:0:0:
64,192,78035,1,8,0:0:0:0:
320,192,78035,1,8,0:0:0:0:
192,192,78212,1,0,0:0:0:0:
320,192,78388,1,12,0:0:0:0:
64,192,78388,128,8,78741:0:0:0:0:
448,192,78565,1,2,0:0:0:0:
192,192,78741,128,12,79094:0:0:0:0:
320,192,78741,1,8,0:0:0:0:
448,192,78918,1,2,0:0:0:0:
320,192,79094,128,8,79447:0:0:0:0:
64,192,79094,1,12,0:0:0:0:
192,192,79271,1,2,0:0:0:0:
448,192,79447,128,8,79800:0:0:0:0:
64,192,79447,1,12,0:0:0:0:
192,192,79624,1,2,0:0:0:0:
64,192,79800,128,4,80506:1:0:0:0:
320,192,79800,1,6,0:0:0:0:
192,192,79977,1,0,0:0:0:0:
448,192,80153,1,8,0:0:0:0:
320,192,80153,1,8,0:0:0:0:
192,192,80329,1,0,0:0:0:0:
320,192,80506,128,0,81212:0:0:0:0:
448,192,80506,1,2,0:0:0:0:
64,192,80682,1,2,0:0:0:0:
448,192,80859,1,8,0:0:0:0:
192,192,80859,1,8,0:0:0:0:
64,192,81035,1,0,0:0:0:0:
192,192,81212,128,0,81918:0:0:0:0:
448,192,81212,1,2,0:0:0:0:
320,192,81388,1,0,0:0:0:0:
64,192,81565,1,8,0:0:0:0:
448,192,81565,1,8,0:0:0:0:
320,192,81741,1,0,0:0:0:0:
448,192,81918,128,0,82624:0:0:0:0:
64,192,81918,1,2,0:0:0:0:
320,192,82094,1,2,0:0:0:0:
192,192,82271,1,8,0:0:0:0:
64,192,82271,1,8,0:0:0:0:
320,192,82447,1,0,0:0:0:0:
192,192,82535,1,0,0:0:0:0:
320,192,82624,1,4,1:0:0:0:
64,192,82624,1,6,0:0:0:0:
192,192,82800,1,2,0:0:0:0:
448,192,82977,1,8,0:0:0:0:
64,192,82977,1,8,0:0:0:0:
192,192,83153,1,2,0:0:0:0:
448,192,83329,1,8,0:0:0:0:
320,192,83329,1,8,0:0:0:0:
64,192,83506,1,0,0:0:0:0:
448,192,83682,1,8,0:0:0:0:
192,192,83682,1,8,0:0:0:0:
320,192,83859,1,2,0:0:0:0:
192,192,84035,1,12,0:0:0:0:
64,192,84035,1,8,0:0:0:0:
320,192,84212,1,12,0:0:0:0:
448,192,84212,1,8,0:0:0:0:
192,192,84388,1,12,0:0:0:0:
64,192,84388,1,8,0:0:0:0:
320,192,84741,128,0,85094:0:0:0:0:
64,192,85094,1,8,0:0:0:0:
448,192,85094,1,8,0:0:0:0:
192,192,85094,1,0,0:0:0:0:
448,192,85447,1,4,0:0:0:0:
192,192,85447,128,4,85800:1:0:0:0:
64,192,85447,1,2,0:0:0:0:
320,192,85800,1,8,0:0:0:0:
448,192,85800,1,8,0:0:0:0:
64,192,85977,128,0,86329:0:0:0:0:
192,192,85977,1,2,0:0:0:0:
320,192,86329,1,2,0:0:0:0:
192,192,86506,1,8,0:0:0:0:
448,192,86506,1,8,0:0:0:0:
320,192,86682,1,2,0:0:0:0:
64,192,86859,1,2,0:0:0:0:
448,192,86859,128,0,87212:0:0:0:0:
192,192,87035,1,2,0:0:0:0:
64,192,87212,1,8,0:0:0:0:
320,192,87212,1,8,0:0:0:0:
192,192,87388,128,0,87741:0:0:0:0:
448,192,87388,1,2,0:0:0:0:
320,192,87741,1,2,0:0:0:0:
448,192,87918,1,8,0:0:0:0:
64,192,87918,1,8,0:0:0:0:
192,192,88094,1,8,0:0:0:0:
64,192,88182,1,8,0:0:0:0:
320,192,88271,1,2,0:0:0:0:
448,192,88271,1,0,0:0:0:0:
192,192,88447,1,2,0:0:0:0:
320,192,88624,1,8,0:0:0:0:
64,192,88624,1,8,0:0:0:0:
192,192,88800,1,8,0:0:0:0:
448,192,88800,1,8,0:0:0:0:
64,192,88800,1,4,0:0:0:0:
192,192,89153,1,8,0:0:0:0:
320,192,89153,1,4,0:0:0:0:
64,192,89153,1,8,0:0:0:0:
192,192,89506,1,4,0:0:0:0:
448,192,89506,128,4,89859:1:0:0:0:
320,192,89506,1,2,0:0:0:0:
64,192,89859,128,0,90035:0:0:0:0:
192,192,89859,1,2,0:0:0:0:
448,192,90035,1,8,0:0:0:0:
320,192,90035,128,8,90212:0:0:0:0:
192,192,90212,128,0,90388:0:0:0:0:
64,192,90212,1,2,0:0:0:0:
320,192,90388,1,12,0:0:0:0:
448,192,90388,128,8,90565:0:0:0:0:
320,192,90741,1,8,0:0:0:0:
192,192,90741,1,8,0:0:0:0:
64,192,90741,128,4,91094:0:0:0:0:
320,192,91094,128,0,91447:0:0:0:0:
448,192,91094,1,4,1:0:0:0:
192,192,91094,1,2,0:0:0:0:
64,192,91447,1,8,0:0:0:0:
192,192,91447,1,8,0:0:0:0:
448,192,91624,128,0,91977:0:0:0:0:
320,192,91624,1,2,0:0:0:0:
192,192,91977,1,2,0:0:0:0:
320,192,92153,1,8,0:0:0:0:
64,192,92153,1,8,0:0:0:0:
192,192,92329,1,0,0:0:0:0:
64,192,92506,128,0,92859:0:0:0:0:
448,192,92506,1,2,0:0:0:0:
320,192,92682,1,2,0:0:0:0:
448,192,92859,1,8,0:0:0:0:
192,192,92859,1,8,0:0:0:0:
64,192,93035,1,2,0:0:0:0:
320,192,93035,128,0,93388:0:0:0:0:
192,192,93388,1,2,0:0:0:0:
448,192,93565,1,8,0:0:0:0:
64,192,93565,1,8,0:0:0:0:
320,192,93741,1,8,0:0:0:0:
448,192,93829,1,8,0:0:0:0:
64,192,93918,1,2,0:0:0:0:
192,192,93918,1,0,0:0:0:0:
320,192,94094,1,0,0:0:0:0:
64,192,94271,1,8,0:0:0:0:
448,192,94271,1,8,0:0:0:0:
192,192,94447,1,8,0:0:0:0:
448,192,94447,1,8,0:0:0:0:
320,192,94447,1,4,0:0:0:0:
320,192,94800,1,4,0:0:0:0:
64,192,94800,1,8,0:0:0:0:
192,192,94800,1,8,0:0:0:0:
64,192,95153,128,4,96388:0:0:0:0:
448,192,95153,1,4,1:0:0:0:
320,192,95153,1,2,0:0:0:0:
192,192,95506,1,2,0:0:0:0:
448,192,95682,1,8,0:0:0:0:
320,192,95682,1,8,0:0:0:0:
192,192,95859,1,2,0:0:0:0:
320,192,96035,1,8,0:0:0:0:
448,192,96035,1,8,0:0:0:0:
320,192,96388,1,8,0:0:0:0:
192,192,96388,128,8,96741:0:0:0:0:
64,192,96741,1,4,1:0:0:0:
448,192,96741,1,8,0:0:0:0:
320,192,96741,1,12,0:0:0:0:
192,192,96918,1,2,0:0:0:0:
64,192,97094,1,8,0:0:0:0:
448,192,97094,1,8,0:0:0:0:
320,192,97271,1,2,0:0:0:0:
192,192,97447,1,8,0:0:0:0:
64,192,97447,1,8,0:0:0:0:
448,192,97624,1,0,0:0:0:0:
320,192,97800,1,8,0:0:0:0:
192,192,97800,1,8,0:0:0:0:
64,192,97977,1,2,0:0:0:0:
320,192,98153,1,8,0:0:0:0:
448,192,98153,1,8,0:0:0:0:
192,192,98329,1,2,0:0:0:0:
448,192,98506,1,8,0:0:0:0:
64,192,98506,1,8,0:0:0:0:
320,192,98682,1,2,0:0:0:0:
64,192,98859,1,8,0:0:0:0:
448,192,98859,1,8,0:0:0:0:
192,192,99035,1,2,0:0:0:0:
448,192,99212,1,8,0:0:0:0:
320,192,99212,1,8,0:0:0:0:
64,192,99388,1,2,0:0:0:0:
320,192,99565,1,8,0:0:0:0:
192,192,99565,1,8,0:0:0:0:
448,192,99741,1,2,0:0:0:0:
64,192,99918,128,0,100271:0:0:0:0:
320,192,99918,1,8,0:0:0:0:
192,192,100094,1,2,0:0:0:0:
448,192,100271,128,8,100447:0:0:0:0:
320,192,100271,1,8,0:0:0:0:
192,192,100447,128,2,100624:0:0:0:0:
320,192,100624,1,8,0:0:0:0:
64,192,100624,1,8,0:0:0:0:
448,192,100800,128,2,101153:0:0:0:0:
320,192,100977,1,8,0:0:0:0:
192,192,100977,1,8,0:0:0:0:
64,192,101153,128,2,101329:0:0:0:0:
320,192,101329,128,8,101506:0:0:0:0:
448,192,101329,1,8,0:0:0:0:
192,192,101506,128,2,101682:0:0:0:0:
448,192,101682,128,8,101859:0:0:0:0:
64,192,101682,1,8,0:0:0:0:
64,192,102035,128,8,102388:0:0:0:0:
320,192,102035,1,8,0:0:0:0:
192,192,102388,1,12,0:0:0:0:
448,192,102388,1,4,1:0:0:0:
320,192,102388,1,8,0:0:0:0:
64,192,102565,1,2,0:0:0:0:
448,192,102741,1,8,0:0:0:0:
192,192,102741,1,8,0:0:0:0:
320,192,102918,1,2,0:0:0:0:
448,192,103094,1,8,0:0:0:0:
192,192,103094,1,8,0:0:0:0:
64,192,103271,1,2,0:0:0:0:
192,192,103447,1,8,0:0:0:0:
320,192,103447,1,8,0:0:0:0:
448,192,103624,1,2,0:0:0:0:
64,192,103800,1,8,0:0:0:0:
320,192,103800,1,8,0:0:0:0:
192,192,103977,1,2,0:0:0:0:
320,192,104153,1,8,0:0:0:0:
64,192,104153,1,8,0:0:0:0:
448,192,104329,1,2,0:0:0:0:
320,192,104506,1,8,0:0:0:0:
192,192,104506,1,8,0:0:0:0:
64,192,104682,1,2,0:0:0:0:
192,192,104859,1,8,0:0:0:0:
448,192,104859,1,8,0:0:0:0:
320,192,105035,1,2,0:0:0:0:
64,192,105212,1,8,0:0:0:0:
448,192,105212,1,8,0:0:0:0:
192,192,105388,1,2,0:0:0:0:
64,192,105565,1,8,0:0:0:0:
320,192,105565,1,8,0:0:0:0:
320,192,105741,1,8,0:0:0:0:
448,192,105741,1,4,0:0:0:0:
192,192,105741,1,8,0:0:0:0:
64,192,106094,1,4,0:0:0:0:
192,192,106094,1,8,0:0:0:0:
320,192,106094,1,8,0:0:0:0:
448,192,106271,1,2,0:0:0:0:
320,192,106271,1,0,0:0:0:0:
192,192,106359,1,2,0:0:0:0:
64,192,106359,1,0,0:0:0:0:
448,192,106447,128,4,106800:1:0:0:0:
320,192,106447,1,0,0:0:0:0:
192,192,106800,128,0,106977:0:0:0:0:
320,192,106977,128,0,109447:0:0:0:0:
64,192,107153,1,0,0:0:0:0:
192,192,107329,1,0,0:0:0:0:
448,192,107506,1,0,0:0:0:0:
64,192,107682,1,0,0:0:0:0:
192,192,107859,1,0,0:0:0:0:
448,192,108035,1,0,0:0:0:0:
64,192,109094,128,0,109447:0:0:0:0:
192,192,109447,128,4,115393:1:0:0:0:
448,192,109447,1,6,0:0:0:0:
64,192,110933,1,0,0:0:0:30:D#5S_Eb5S.wav
320,192,111056,1,0,0:0:0:30:G5S.wav
448,192,111180,1,0,0:0:0:30:F6S.wav
64,192,111242,1,0,0:0:0:30:A#6S_Bb6S.wav
320,192,111676,1,0,0:0:0:30:D#7S_Eb7S.wav
64,192,111985,1,0,0:0:0:30:F7S.wav
448,192,112511,1,0,0:0:0:30:A#7S_Bb7S.wav
448,192,115273,1,2,0:0:0:0:
320,192,115333,1,2,0:0:0:0:
64,192,115393,1,2,0:0:0:0:
