osu file format v9

[General]
AudioFilename: Hoshi.mp3
AudioLeadIn: 1996
PreviewTime: 76287
Countdown: 0
SampleSet: Soft
StackLeniency: 0.7
Mode: 0
LetterboxInBreaks: 1

[Editor]
DistanceSpacing: 1.6
BeatDivisor: 4
GridSize: 8

[Metadata]
Title:Hoshizora he Kakaru Hashi
Artist:nomico
Creator:MeLLoN
Version:Aenna
Source:Hoshizora he Kakaru Hashi
Tags:feng Aenna

[Difficulty]
HPDrainRate:7
CircleSize:4
OverallDifficulty:7
ApproachRate:7
SliderMultiplier:1.6
SliderTickRate:1

[Events]
//Background and Video events
Video,-1200,"hoshizora.avi"
0,0,"hoshizora.jpg"
//Break Periods
//Storyboard Layer 0 (Background)
//Storyboard Layer 1 (Fail)
//Storyboard Layer 2 (Pass)
//Storyboard Layer 3 (Foreground)
//Storyboard Sound Samples
//Background Colour Transformations
3,100,163,162,255

[TimingPoints]
443,600,4,2,1,60,1,0
9593,-100,4,2,1,70,0,0
10793,-100,4,2,1,60,0,0
14543,-100,4,2,1,0,0,0
14693,-100,4,2,1,60,0,0
15443,-100,4,2,1,0,0,0
15593,-100,4,2,1,60,0,0
18443,-100,4,2,1,0,0,0
18593,-100,4,2,1,60,0,0
19043,-100,4,2,1,0,0,0
19193,-100,4,2,1,60,0,0
19643,-100,4,2,1,0,0,0
19793,-100,4,2,1,60,0,0
24743,-100,4,2,1,0,0,0
24893,-100,4,2,1,60,0,0
25943,-100,4,2,1,0,0,0
26523,352.941176470588,4,2,1,80,1,0
45493,-100,4,2,0,90,0,0
46199,-100,4,2,1,80,0,0
61993,-100,4,2,1,0,0,0
63405,-100,4,2,1,80,0,0
77170,-100,4,2,2,90,0,0
77346,-100,4,2,1,90,0,1
85022,-100,4,2,1,50,0,1
85199,-100,4,2,1,70,0,1
85464,-100,4,2,1,90,0,1
87846,-100,4,2,1,50,0,1
88287,-100,4,2,1,70,0,1
88640,-100,4,2,1,90,0,1
97023,-100,4,2,1,80,0,1
102670,-100,4,2,1,70,0,0
107611,-100,4,2,0,70,0,0
108140,-100,4,2,1,70,0,0
108317,-100,4,2,1,80,0,0
119611,-100,4,2,1,40,0,0
120670,-100,4,2,1,80,0,0

[Colours]
Combo1 : 255,164,164
Combo2 : 255,191,128
Combo3 : 255,172,255

[HitObjects]
224,56,443,1,2
304,72,743,1,0
288,152,1043,1,2
208,136,1343,2,0,B|129:122,1,80,0|2
56,160,1943,1,0
104,224,2243,6,0,B|182:237,1,80,2|0
264,216,2843,2,0,B|272:264|240:296,1,80,2|0
168,312,3443,2,0,B|104:360|8:328,2,160,2|2|2
248,232,4943,1,0
352,200,5243,1,0
344,88,5543,5,2
272,56,5843,1,0
208,96,6143,2,0,B|144:160|184:256,1,160,2|0
256,240,7043,2,0,B|296:264|296:312,2,80,2|0|0
216,312,7943,1,2
136,296,8243,1,0
56,320,8543,6,0,B|0:256|40:160,1,160,2|0
96,120,9443,1,0
136,192,9743,5,2
208,64,10043,1,2
272,192,10343,1,2
344,64,10643,1,2
424,80,10943,6,0,B|496:136|456:256,1,160,2|0
304,336,11843,2,0,B|240:280|272:184,1,160,2|0
288,112,12743,1,0
360,152,13043,6,0,B|448:168|472:272,1,160,2|0
424,328,13943,1,0
344,352,14243,2,0,B|256:336,1,80,2|0
216,272,14843,1,0
280,224,15143,6,0,B|360:240,1,80,2|0
424,288,15743,2,0,B|488:232|472:136,1,160,2|0
416,88,16643,1,0
336,104,16943,2,0,B|270:161|286:257,1,160,2|0
216,296,17843,1,0
280,352,18143,2,0,B|328:368|368:352,1,80,2|0
440,368,18743,6,0,B|464:328|456:280,1,80,2|0
392,240,19343,2,0,B|376:208|376:160,1,80,2|0
328,96,19943,1,2
256,128,20243,1,0
184,96,20543,6,0,B|112:152|136:248,1,160,2|0
80,296,21443,1,0
152,336,21743,2,0,B|184:360|232:360,1,80,2|0
296,312,22343,1,2
272,232,22643,1,0
192,208,22943,1,2
352,256,23543,6,0,B|400:248|416:208,1,80,2|0
344,176,24143,2,0,B|272:136|264:40,1,160,2|0
232,56,24893,2,0,L|224:48|216:56|208:48|200:56|192:48|184:56|176:48|168:56|160:48|152:56|144:48|136:56|128:48|120:56|112:48|104:56|96:48|88:56|80:48|72:56|64:48|56:56|48:48|40:56|32:48|24:56|16:48|8:56,1,280,2|0
40,232,26523,6,0,B|48:328|144:344,1,160,4|8
200,296,27052,1,0
272,328,27228,2,0,B|352:304,1,80
376,208,27581,2,0,B|298:229,1,80,8|0
168,160,27934,6,0,B|224:96|320:120,1,160,4|8
384,80,28464,1,0
440,136,28640,1,0
440,136,28728,1,0
440,136,28817,1,0
400,208,28993,1,8
424,288,29170,1,0
424,288,29258,1,0
424,288,29346,6,0,B|344:312,1,80,4|0
248,256,29699,2,0,B|328:232,1,80,8|0
272,336,30052,2,0,B|208:368|144:344,2,120,4|2|2
352,336,30758,5,4
384,344,30846,1,0
416,336,30934,1,2
440,312,31022,1,0
448,280,31111,1,8
408,208,31287,1,2
408,208,31375,1,0
408,208,31464,2,0,B|328:256|224:216,1,160,4|8
253,225,31993,1,0
288,88,32170,6,0,B|200:56|120:112,1,160,4|8
120,184,32699,1,0
40,168,32875,1,2
40,168,32964,1,0
40,168,33052,2,0,B|24:208|24:248,1,80,0|8
104,264,33405,1,2
136,336,33581,6,0,B|216:376|312:328,1,160,4|0
368,352,34111,1,0
424,296,34287,2,0,B|440:216,1,80,2|0
368,128,34640,2,0,B|352:216,1,80,2|0
304,272,34993,5,4
224,296,35170,2,0,B|136:296,1,80,2|0
80,240,35523,1,0
128,176,35699,1,2
104,160,35787,1,2
88,136,35875,1,2
88,104,35964,1,2
104,80,36052,1,2
176,40,36228,1,0
256,64,36405,6,0,B|280:160|400:176,1,160,2|0
416,232,36934,1,0
400,312,37111,2,0,B|328:352,1,80,2|0
224,312,37464,2,0,B|293:273,1,80,2|0
136,256,37817,6,0,B|296:168,1,160,4|0
276,178,38346,1,0
344,224,38523,1,2
416,192,38699,1,0
432,112,38875,1,2
376,56,39052,1,0
296,64,39228,5,4
264,80,39317,1,0
240,96,39405,1,0
224,120,39493,1,0
208,152,39581,1,2
200,184,39670,1,0
192,216,39758,1,0
176,240,39846,1,0
152,256,39934,1,2
120,264,40023,1,0
88,256,40111,1,0
64,240,40199,1,0
48,216,40287,2,0,B|32:176|48:128,1,80,2|0
136,72,40640,6,0,B|176:152|136:248,1,160,4|8
72,272,41170,1,0
128,336,41346,2,0,B|208:376|304:344,1,160,2|8
344,296,41875,1,0
416,336,42052,6,0,B|480:280|456:176,1,160,4|8
328,152,42581,2,0,B|256:208|280:320,1,160,4|0
216,352,43111,1,8
216,352,43199,1,0
216,352,43287,1,0
328,328,43464,6,0,B|368:320|416:320,1,80,4|0
472,272,43817,1,8
488,248,43905,1,0
488,216,43993,1,0
448,144,44170,1,2
448,144,44346,1,0
376,104,44523,1,8
344,96,44611,1,0
312,112,44699,1,0
240,88,44875,6,0,B|192:88,1,40,8|0
112,168,45140,2,0,B|160:168,1,40,0|8
240,216,45405,1,0
168,256,45581,5,2
256,336,45758,1,2
344,256,45934,1,2
256,176,46111,1,2
184,136,46287,6,0,B|96:136|32:208,1,160,4|8
168,232,46817,2,0,B|256:232|320:312,1,160,4|0
376,336,47346,1,8
376,336,47434,1,0
376,336,47523,1,0
432,280,47699,5,8
376,200,47875,1,0
464,160,48052,1,8
408,80,48228,1,0
328,56,48405,6,0,B|224:56,1,80,2|0
200,160,48758,2,0,B|296:160,1,80,8|0
328,264,49111,6,0,B|336:304|360:344,2,80,4|0|8
248,240,49640,1,0
184,288,49817,1,2
184,288,49905,1,0
184,288,49993,1,0
120,240,50170,1,8
104,160,50346,1,0
160,104,50523,5,8
256,80,50699,1,0
232,176,50875,1,8
328,152,51052,2,0,B|408:120,2,80,0|2|0
304,232,51581,1,10
288,264,51670,1,0
304,296,51758,1,2
288,328,51846,1,0
304,360,51934,6,0,B|400:360,2,80,4|0|8
224,368,52464,1,0
152,328,52640,2,0,B|112:304|104:256,1,80,2|0
56,208,52993,2,0,B|24:240|24:288,1,80,8|0
105,265,53346,6,0,B|192:240|272:288,1,160,4|8
280,152,53875,2,0,B|192:168|112:104,1,160,4|0
72,56,54405,1,8
72,56,54493,1,0
72,56,54581,1,0
48,168,54758,6,0,B|16:248,1,80,4|0
80,296,55111,1,8
104,320,55199,1,0
136,336,55287,1,0
168,344,55375,1,0
200,344,55464,2,0,B|288:344,1,80,2|2
336,280,55817,1,8
408,320,55993,6,0,B|472:264|480:168,1,160,4|0
456,104,56523,1,8
384,64,56699,1,0
304,72,56875,1,8
304,72,56964,1,0
304,72,57052,1,0
224,48,57228,2,0,B|192:80|200:128,1,80,8|0
288,216,57581,6,0,B|232:272|120:256,1,160,4|8
256,320,58111,2,0,B|328:368|432:344,1,160,0|0
472,304,58640,1,8
472,304,58728,1,0
472,304,58817,1,0
392,280,58993,5,4
392,280,59170,1,0
328,232,59346,1,8
328,232,59523,1,0
304,152,59699,2,2,B|352:112|424:120,2,120
240,104,60405,6,0,B|192:176|224:264,1,160,4|8
296,288,60934,1,0
240,344,61111,2,0,B|192:352|160:344,1,80,2|0
120,272,61464,1,8
40,248,61640,2,0,B|8:216|16:160,1,80,4|4
256,192,61993,12,0,63228
320,272,63581,6,0,B|368:288,2,40,4|0|0
248,304,63934,2,2,B|184:328|120:304,2,120
208,232,64640,6,0,B|152:168|184:72,1,160,4|0
296,144,65170,2,0,B|356:207|316:311,1,160,4|0
432,360,65699,2,0,B|456:320|456:280,1,80,2|0
400,168,66052,5,2
400,168,66140,1,0
400,168,66228,1,2
400,168,66317,1,0
400,168,66405,2,0,B|376:208|376:256,1,80,4|0
312,288,66758,1,2
312,288,66846,1,0
176,328,67023,1,2
176,328,67111,1,0
56,248,67287,1,2
104,184,67464,5,4
136,176,67552,1,0
168,160,67640,1,2
184,136,67728,1,0
200,104,67817,2,0,B|240:72|272:64,1,80,2|0
344,40,68170,5,8
440,120,68346,1,8
416,248,68523,1,0
416,248,68699,6,0,B|368:320|264:328,1,160,4|0
200,320,69228,1,2
120,296,69405,1,0
64,240,69581,1,0
56,160,69758,2,0,B|48:120|64:80,1,80,2|2
184,48,70111,6,0,B|208:136|160:216,1,160,4|0
136,280,70640,1,2
136,280,70728,1,0
136,280,70817,1,0
216,296,70993,1,0
288,256,71170,2,0,B|368:272,1,80,2|2
392,344,71523,6,0,B|472:304|480:208,1,160,4|0
440,144,72052,2,0,B|368:88,1,80,2|2
248,104,72405,2,0,B|311:153,1,80,2|0
336,280,72758,2,0,B|264:224,1,80,2|0
208,184,73111,5,2
208,184,73199,1,0
208,184,73287,1,2
208,184,73375,1,0
208,184,73464,2,0,B|176:216|128:224,1,80,4|0
80,280,73817,1,0
32,216,73993,2,0,B|8:184,2,40,4|0|0
80,280,74346,1,2
128,344,74523,5,4
144,344,74611,1,0
160,344,74699,1,0
176,344,74787,1,0
192,344,74875,1,2
208,344,74964,1,0
224,344,75052,1,0
240,344,75140,1,0
256,344,75228,1,2
272,344,75317,1,0
288,344,75405,1,0
304,344,75493,1,0
320,344,75581,2,0,L|400:344,2,80,2|0|4
328,136,76287,6,2,B|240:112|176:192,2,160
208,288,77346,6,0,B|240:320|288:320,1,80,4|0
360,304,77699,1,8
392,312,77787,1,0
424,304,77875,2,0,B|456:272|456:224,1,80,4|0
432,152,78228,1,0
432,152,78317,1,0
432,152,78405,1,8
352,176,78581,2,0,B|328:136|328:88,1,80,4|0
248,40,78934,2,0,B|224:80|224:128,1,80,2|8
248,208,79287,2,0,B|176:272|72:240,1,160,4|0
32,200,79817,5,8
48,120,79993,1,0
112,72,80170,1,4
144,80,80258,1,0
176,80,80346,1,0
256,56,80523,1,8
328,96,80699,2,0,B|408:120|424:216,1,160,4|2
344,232,81228,2,0,B|320:272|320:320,1,80,12|0
248,336,81581,5,4
216,352,81670,1,0
184,360,81758,1,0
152,352,81846,1,0
120,336,81934,1,8
40,344,82111,1,0
40,264,82287,2,0,B|24:224|32:176,1,80,4|0
112,88,82640,2,0,B|128:120|120:168,1,80,12|0
160,240,82993,6,0,B|208:320|320:304,1,160,4|8
368,336,83523,2,0,B|416:320|440:280,1,80,4|0
472,216,83875,1,0
472,216,83964,1,0
472,216,84052,1,8
408,168,84228,1,4
408,168,84405,1,0
336,200,84581,1,0
336,200,84758,1,8
264,168,84934,1,4
224,96,85111,5,0
200,112,85199,1,0
168,120,85287,1,0
136,112,85375,1,0
112,96,85464,2,0,B|64:88|16:120,1,80,8|0
16,240,85817,6,0,B|48:328|144:352,2,160,4|8|0
88,200,86699,2,0,B|120:176|128:128,1,80,4|8
80,64,87052,2,0,B|152:16|248:56,1,160,4|4
312,40,87581,1,8
360,104,87758,1,12
296,152,87934,5,0
264,160,88023,1,0
240,184,88111,1,0
224,216,88199,1,0
224,248,88287,1,8
224,280,88375,1,0
240,312,88464,1,0
264,336,88552,1,0
296,344,88640,6,0,B|376:344,1,80,4|0
448,304,88993,2,0,B|464:264|464:216,1,80,8|4
464,200,89258,1,0
464,176,89346,1,0
408,120,89523,2,0,B|368:120|320:144,1,80,0|8
264,184,89875,2,0,B|232:208|168:208,1,80,4|0
112,184,90228,5,2
184,312,90405,1,8
328,344,90581,2,0,B|416:344,1,80,4|0
464,288,90934,1,0
408,232,91111,5,8
464,176,91287,1,0
408,120,91464,2,0,B|224:120,1,160,4|8
176,80,91993,1,4
176,80,92081,1,0
176,80,92170,1,0
128,144,92346,2,0,B|104:184|104:232,1,80,0|12
104,240,92611,1,0
104,264,92699,1,0
160,320,92875,6,0,B|240:352|320:312,1,160,4|8
368,256,93405,1,0
440,288,93581,2,0,B|488:216|464:128,1,160,4|8
240,144,94287,6,0,B|176:80|72:112,1,160,4|8
144,232,94817,2,0,B|208:296|310:267,1,160,4|0
344,208,95346,1,8
424,184,95523,2,0,B|488:248|464:344,1,160,4|0
384,320,96052,2,0,B|352:344|288:352,1,80,12|0
232,320,96405,5,2
208,336,96493,1,0
176,344,96581,1,0
144,344,96670,1,0
112,336,96758,2,0,B|72:336|32:312,1,80,8|0
40,184,97111,6,0,B|104:112|216:152,1,160,4|2
256,176,97640,1,0
288,248,97817,1,2
248,320,97993,1,0
168,336,98170,1,2
96,304,98346,2,0,B|72:264|72:216,1,80,0|4
192,72,98875,6,0,B|192:24,1,40,2|0
256,128,99140,2,0,B|256:168,1,40,0|2
176,192,99405,1,0
104,160,99581,1,2
80,184,99670,1,0
72,216,99758,1,0
80,248,99846,1,0
104,272,99934,6,0,B|272:272,1,160,4|0
472,352,100640,2,0,B|288:352,1,160,4|0
160,184,101346,6,0,B|256:184,1,80,4|0
296,128,101699,1,2
296,128,101875,1,0
360,176,102052,1,2
360,176,102228,1,0
376,256,102405,1,2
376,256,102493,1,0
376,256,102581,1,0
344,328,102758,6,0,B|264:368|168:336,1,160,4|0
160,264,103287,1,0
80,256,103464,2,0,B|24:192,1,80,2|0
120,184,103817,2,0,B|56:112,1,80,2|0
160,112,104170,6,0,B|224:184,1,80,2|0
240,80,104523,2,0,B|304:152,1,80,2|0
392,152,104875,2,0,B|336:224,1,80,2|0
440,224,105228,2,0,B|384:296,1,80,2|0
312,312,105581,5,2
232,296,105758,1,0
192,224,105934,1,2
176,192,106023,1,0
184,160,106111,1,0
152,88,106287,1,2
80,48,106464,1,0
24,112,106640,1,2
40,144,106728,1,0
32,176,106817,1,0
16,256,106993,5,2
80,320,107170,1,0
160,352,107346,1,2
248,360,107523,1,0
336,352,107699,1,8
352,336,107787,1,0
368,320,107875,1,8
384,304,107964,1,0
400,288,108052,2,0,B|456:224,1,80,8|0
416,152,108405,5,4
336,128,108581,1,0
272,184,108758,1,4
272,184,108846,1,0
272,184,108934,1,0
200,224,109111,1,2
120,216,109287,1,0
72,152,109464,1,4
72,152,109552,1,0
72,152,109640,1,0
136,104,109817,6,0,B|200:160|176:256,1,160,2|0
120,312,110346,1,0
192,352,110523,2,0,B|232:368|280:376,1,80,2|0
280,296,110875,2,0,B|320:304|368:288,1,80,2|0
336,216,111228,6,0,B|384:208|400:168,1,80,4|0
336,120,111581,2,0,B|360:80|344:40,1,80,2|0
272,72,111934,5,2
176,96,112111,1,2
168,192,112287,1,2
72,216,112464,1,2
64,312,112640,6,0,B|128:376|240:352,1,160,4|0
280,312,113170,1,0
360,328,113346,1,2
360,328,113434,1,0
360,328,113523,1,0
400,256,113699,2,0,B|448:240,2,40,2|0|0
320,240,114052,6,0,B|248:192|256:88,1,160,4|0
184,64,114581,1,0
104,64,114758,2,0,B|16:80,1,80,2|0
152,136,115111,2,0,B|112:224,1,80,2|0
240,128,115464,6,0,B|288:168|288:224|336:264,1,160,4|0
376,328,115993,1,0
296,352,116170,2,0,B|256:352|216:328,1,80,2|0
152,280,116523,1,2
144,256,116611,1,0
128,240,116699,1,2
104,240,116787,1,0
88,256,116875,6,0,B|48:224|32:168,1,80,2|0
80,120,117228,1,0
152,152,117405,1,0
200,88,117581,2,0,B|240:112|256:152,1,80,2|0
240,224,117934,1,0
184,280,118111,1,0
232,344,118287,6,0,B|312:368,1,80,4|0
392,224,118640,2,0,B|312:200,1,80,4|0
160,232,118993,6,0,B|240:256,1,80,2|2
328,120,119346,2,0,B|248:96,1,80,2|2
176,120,119699,5,0
96,104,119875,1,0
32,152,120052,1,0
24,232,120228,1,0
56,304,120405,2,0,B|96:328|144:328,1,80
256,192,120758,5,2
256,192,120934,1,4
256,192,121111,12,4,122346
