osu file format v9

[General]
AudioFilename: Hoshikaze no Horoscope.mp3
AudioLeadIn: 2000
PreviewTime: 61507
Countdown: 0
SampleSet: Soft
StackLeniency: 0.7
Mode: 0
LetterboxInBreaks: 1

[Editor]
DistanceSpacing: 1
BeatDivisor: 4
GridSize: 4

[Metadata]
Title:Hoshikaze no Horoscope (TV Size)
Artist:nomico
Creator:KanaRin
Version:MeLLoN
Source:Hoshizora he Kakaru Hashi
Tags:feng Hinacle aesopl19193 MeLLoN

[Difficulty]
HPDrainRate:8
CircleSize:4
OverallDifficulty:7
ApproachRate:8
SliderMultiplier:1.8
SliderTickRate:1

[Events]
//Background and Video events
0,0,"BG.jpg"
Video,0,"Hosizora op.flv"
//Break Periods
//Storyboard Layer 0 (Background)
//Storyboard Layer 1 (Fail)
//Storyboard Layer 2 (Pass)
//Storyboard Layer 3 (Foreground)
//Storyboard Sound Samples
//Background Colour Transformations
3,100,163,162,255

[TimingPoints]
1228,461.538461538462,4,2,1,45,1,0
5961,-100,4,2,1,10,0,0
6192,-100,4,2,1,45,0,0
11500,-100,4,2,1,10,0,0
11731,-100,4,2,1,45,0,0
17615,-100,4,2,1,45,0,0
20500,-100,4,2,1,0,0,0
21050,342.857142857143,4,2,1,60,1,0
32021,-100,4,2,1,45,0,0
32107,-100,4,2,1,50,0,0
34678,-100,4,2,1,45,0,0
34850,-100,4,2,1,50,0,0
37421,-100,4,2,1,45,0,0
37592,-100,4,2,1,50,0,0
40164,-100,4,2,1,45,0,0
40335,-100,4,2,1,50,0,0
42907,-100,4,2,1,65,0,0
43592,-100,4,2,2,55,0,0
44107,-100,4,2,1,65,0,0
44278,-100,4,2,1,55,0,0
44450,-100,4,2,1,65,0,0
45050,-100,4,2,2,55,0,0
45478,-100,4,2,1,65,0,0
49078,-100,4,2,2,55,0,0
49592,-100,4,2,1,65,0,0
50535,-100,4,2,2,55,0,0
50964,-100,4,2,1,65,0,0
61078,-100,4,2,1,55,0,0
62107,-100,4,2,1,85,0,0
62192,-100,4,2,1,80,0,1
73164,-100,4,2,1,75,0,1
88078,-100,4,2,1,75,0,0
88164,-100,4,2,1,5,0,0

[Colours]
Combo1 : 128,255,255
Combo2 : 255,128,128
Combo3 : 128,255,128
Combo4 : 255,255,128

[HitObjects]
76,292,535,1,0
148,344,766,1,2
232,316,997,1,0
312,352,1227,2,0,B|408:324|416:216,1,180,4|2
380,92,1920,6,0,B|428:80|472:100,2,90,0|2|0
312,148,2612,1,2
228,120,2843,2,0,B|48:100,2,180
244,208,3997,1,2
312,44,4458,6,0,B|344:76|400:76,1,90,2|0
480,56,4920,1,4
480,56,5151,1,0
452,140,5381,1,0
452,140,5612,1,0
488,220,5843,2,0,B|492:272|456:304,1,90,2|0
328,272,6304,5,2
328,272,6535,2,0,B|240:296,1,90,0|2
192,372,6997,2,0,B|108:324|120:216,1,180
119,219,7689,1,2
252,208,7920,6,0,B|280:112|208:40,1,180
136,92,8612,2,0,B|48:116,1,90,4|0
12,244,9074,2,0,B|96:216,1,90
176,256,9535,1,2
256,48,9997,5,2
256,48,10227,2,0,B|316:128|420:108,1,180
496,144,10920,2,0,B|476:184|484:232,1,90,2|0
392,332,11381,2,0,B|408:288|388:240,1,90,2|0
332,124,11843,5,2
248,152,12074,1,0
180,96,12304,1,4
52,280,12766,5,0
104,352,12997,2,0,B|180:288|276:312,1,180
344,364,13689,2,0,B|384:336|388:284,1,90,2|0
360,204,14151,1,2
404,128,14381,1,0
376,44,14612,1,2
292,16,14843,1,0
216,60,15074,1,2
216,60,15535,1,2
264,236,15997,6,0,B|196:308|96:280,1,180,4|0
24,236,16689,2,0,B|48:192|32:144,1,90,0|2
4,64,17151,2,0,B|68:0|176:28,1,180,0|4
256,192,17843,12,0,20612
72,104,21050,6,0,B|112:124|160:120,1,90,4|0
244,96,21392,1,8
300,28,21564,2,0,B|400:52|420:156,1,180
418,149,22078,1,8
208,224,22421,6,0,B|144:292|40:268,1,180,4|8
42,268,22935,1,0
112,56,23278,1,0
188,12,23450,1,8
232,88,23621,1,0
308,44,23792,6,0,B|396:48,2,90,4|0|8
348,124,24307,2,0,B|324:224|392:292,1,180
460,344,24821,1,8
376,372,24992,1,0
304,320,25164,6,0,B|228:372|132:336,1,180,4|8
52,376,25678,2,0,B|-4:304|24:204,1,180
48,120,26192,1,8
252,28,26535,5,4
252,28,26878,2,0,B|340:56,1,90,8|0
476,168,27392,2,0,B|456:124|468:80,2,90,0|8|0
476,168,27907,1,4
476,168,28078,1,0
476,168,28250,1,8
376,316,28592,5,2
292,348,28764,1,0
232,284,28935,1,8
156,328,29107,2,0,B|80:272|104:168,1,180,0|0
136,84,29621,1,8
304,24,29964,5,2
304,24,30050,1,0
304,24,30135,1,0
372,80,30307,1,8
456,44,30478,1,0
496,124,30650,1,4
256,192,30821,12,4,32021
168,288,32364,5,2
88,324,32535,1,0
24,264,32707,1,0
24,264,32878,2,0,B|-4:176|48:92,1,180
208,12,33564,5,0
276,68,33735,1,2
224,140,33907,1,0
292,196,34078,1,0
292,196,34164,1,0
292,196,34250,2,0,B|304:236|296:284,1,90,0|2
68,344,34764,6,0,B|108:364|160:340,1,90,4|0
228,292,35107,1,2
312,320,35278,1,0
380,264,35449,2,0,B|356:168|420:96,1,180,0|2
208,24,36135,1,4
120,280,36992,6,0,B|172:288|204:320,2,90,0|2|0
48,336,37507,2,0,B|-16:272|24:164,1,180,4|0
68,92,38021,1,0
152,120,38192,1,2
152,120,38278,1,0
152,120,38364,1,0
304,24,38707,6,0,B|412:172,1,180
384,304,39221,2,0,B|324:236,1,90,2|0
268,168,39564,1,0
268,168,39649,1,0
268,168,39735,1,0
28,288,40078,5,0
27,288,40249,2,0,B|108:248,1,90,4|0
184,204,40592,1,2
168,72,40764,1,0
60,152,40935,1,0
148,308,41278,2,0,B|212:376|316:352,1,180,2|0
476,276,41964,1,4
256,52,42478,5,0
200,120,42649,1,2
236,200,42821,1,0
320,172,42992,1,4
320,172,43078,1,0
320,172,43164,1,0
320,172,43335,2,0,B|344:216|328:260,1,90
272,328,43678,2,0,B|352:388|448:352,1,180,2|2
496,232,44192,6,0,B|472:192|480:144,1,90,0|4
504,60,44535,1,0
428,12,44707,1,2
372,80,44878,1,0
372,80,44964,1,0
372,80,45049,1,2
296,36,45221,1,0
260,116,45392,1,2
312,240,45564,6,0,B|280:336|184:356,1,180,4|0
64,300,46078,2,0,B|152:280,1,90,2|0
208,212,46421,1,0
208,212,46592,1,0
140,156,46764,1,2
140,156,46849,1,0
140,156,46935,1,0
192,84,47107,6,0,B|168:44|184:-4,1,90,4|0
348,68,47449,1,2
348,68,47621,2,0,B|400:156|340:240,1,180,0|0
392,312,48135,1,2
312,356,48307,1,0
232,312,48478,5,4
232,312,48564,1,0
232,312,48649,2,0,B|188:332|140:320,1,90,0|2
64,360,48992,1,0
32,276,49164,2,0,B|8:236|24:188,1,90,2|0
72,52,49507,5,2
72,52,49678,2,0,B|153:95|246:65,1,180
320,16,50192,1,2
392,68,50364,1,0
392,68,50449,1,0
392,68,50535,1,0
352,152,50707,5,0
476,200,50878,1,2
372,284,51049,1,0
292,244,51221,6,0,B|256:272|200:268,1,90,4|0
124,236,51564,1,2
52,288,51735,1,0
100,364,51907,2,0,B|144:344|192:356,1,90
276,336,52249,1,2
360,364,52421,1,0
436,320,52592,5,4
436,320,52678,1,0
436,320,52764,1,0
472,240,52935,1,2
444,156,53107,1,0
444,156,53192,1,0
444,156,53278,1,0
376,100,53449,1,0
292,128,53621,5,2
264,148,53707,1,0
232,160,53792,1,0
196,156,53878,1,0
168,136,53964,2,0,B|124:116|80:128,1,90,4|0
8,180,54307,1,2
52,256,54478,2,0,B|68:296|56:344,1,90
55,344,54821,1,0
144,244,54992,2,0,B|116:208|124:156,1,90,2|0
152,28,55335,5,4
224,80,55507,1,0
308,52,55678,1,2
380,104,55849,1,0
380,104,55935,1,0
380,104,56021,1,0
332,180,56192,2,0,B|348:220|324:268,1,90,0|2
232,364,56535,1,0
104,328,56707,5,4
28,284,56878,1,0
0,196,57049,1,2
36,116,57221,2,0,B|64:72|48:28,1,90
48,30,57564,1,0
132,136,57735,2,0,B|116:180|136:224,1,90,2|0
192,292,58078,5,4
260,352,58249,1,0
352,356,58421,1,2
352,356,58592,2,0,B|456:336|484:244,1,180
416,188,59107,2,0,B|400:148|420:100,1,90,2|0
276,204,59449,5,4
240,284,59621,1,0
240,284,59707,1,0
240,284,59792,1,2
308,344,59964,1,0
384,296,60135,1,0
464,320,60307,2,0,B|500:288|496:236,1,90,2|0
456,112,60649,6,0,B|392:36|296:48,1,180,4|0
324,132,61164,2,0,B|316:176|272:204,1,90,2|0
192,240,61507,1,2
108,212,61678,1,0
136,128,61849,1,0
60,80,62021,1,0
172,8,62192,5,4
172,8,62278,1,0
172,8,62364,1,0
240,64,62535,1,8
324,36,62707,1,0
392,92,62878,2,0,B|384:140|416:176,1,90,2|0
508,272,63221,5,8
508,272,63392,2,0,B|472:364|360:356,1,180
284,316,63907,1,8
200,344,64078,1,0
200,344,64164,1,0
200,344,64249,1,2
112,328,64421,1,0
60,256,64592,1,8
56,236,64678,1,0
60,212,64764,1,0
72,192,64849,1,0
88,176,64935,6,0,B|116:136|108:88,1,90,4|0
272,20,65278,1,8
220,92,65449,1,0
292,144,65621,1,2
292,144,65707,1,0
292,144,65792,1,0
372,104,65964,1,8
436,164,66135,1,2
436,164,66221,1,0
436,164,66307,1,4
400,244,66478,1,0
464,304,66649,5,8
344,368,66821,1,0
240,288,66992,1,2
280,208,67164,6,0,B|256:168|264:120,1,90,0|8
300,40,67507,1,0
168,24,67678,6,0,B|104:88|0:76,1,180,4|8
172,132,68192,2,0,B|160:176|184:224,1,90,0|2
240,288,68535,1,0
280,208,68707,1,8
112,272,68878,6,0,B|128:312|104:360,1,90,0|4
12,204,69221,2,0,B|-11:157|4:117,1,90,0|8
48,40,69564,1,0
48,40,69649,1,0
48,40,69735,1,2
108,160,69907,1,0
196,60,70078,1,8
196,60,70164,1,0
196,60,70249,1,0
196,60,70421,6,0,B|240:88|288:80,1,90,4|0
340,148,70764,2,0,B|388:136|428:152,1,90,8|0
500,204,71107,1,2
456,280,71278,1,0
376,240,71449,1,8
256,300,71621,6,0,B|196:368|84:348,1,180
91,349,72135,1,8
16,236,72307,2,0,B|8:136|96:88,1,180
180,60,72821,1,8
204,68,72907,1,0
232,72,72992,1,0
260,68,73078,1,0
280,52,73164,6,0,B|320:28|368:40,1,90,4|0
444,148,73507,2,0,B|404:172|356:160,1,90,8|0
268,144,73849,1,2
204,204,74021,1,0
204,204,74107,1,0
204,204,74192,1,8
280,252,74364,2,0,B|368:224|456:276,1,180
348,356,74878,1,8
348,356,75049,2,0,B|260:384|172:332,1,180
132,256,75564,1,8
284,164,75735,5,0
284,164,75821,1,0
284,164,75907,2,0,B|308:124|304:76,1,90,4|0
140,8,76249,2,0,B|116:48|120:96,1,90,8|0
292,172,76592,6,0,B|316:132|312:84,1,90,2|0
148,16,76935,1,8
148,16,77107,2,0,B|112:100|144:192,1,180
224,232,77621,6,0,B|248:272|236:324,1,90,8|0
112,368,77964,1,2
8,280,78135,5,0
44,152,78307,1,8
176,168,78478,1,0
368,356,78821,5,0
448,320,78992,1,8
408,240,79164,1,0
476,184,79335,1,2
436,104,79507,1,0
436,104,79592,1,0
436,104,79678,2,0,B|384:108|348:84,1,90,8|0
232,20,80021,2,0,B|184:16|136:32,1,90,4|0
32,104,80364,5,8
104,156,80535,1,0
76,240,80707,2,0,B|80:288|116:320,1,90,2|0
188,368,81049,1,8
268,328,81221,6,0,B|340:264|436:284,1,180
488,212,81735,2,0,B|508:120,1,90,8|0
420,20,82078,2,0,B|400:112,1,90,2|0
364,188,82421,1,8
284,224,82592,2,0,B|200:268|104:240,1,180
36,192,83107,1,8
72,112,83278,1,0
72,112,83364,1,0
72,112,83449,1,2
196,160,83621,5,2
196,160,83707,1,0
196,160,83792,1,8
196,160,83964,2,0,B|220:120|212:72,1,90,2|4
344,196,84307,5,0
276,252,84478,1,8
324,324,84649,1,0
244,360,84821,1,2
188,292,84992,5,0
188,292,85078,1,0
188,292,85164,2,0,B|136:296|96:276,1,90,8|0
32,220,85507,1,4
68,140,85678,1,0
196,176,85849,6,0,B|216:136|212:88,1,90,8|0
320,12,86192,2,0,B|304:56|316:104,1,90,2|2
360,176,86535,1,8
440,216,86707,2,0,B|432:320|336:352,1,180,4|0
256,320,87221,2,0,B|208:308|164:316,1,90,8|0
84,348,87564,2,0,B|44:324|40:272,1,90,2|0
64,188,87907,1,8
36,104,88078,1,4
256,192,88164,12,0,89450
