osu file format v9

[General]
AudioFilename: Hoshikaze no Horoscope.mp3
AudioLeadIn: 2000
PreviewTime: 61507
Countdown: 0
SampleSet: Soft
StackLeniency: 0.7
Mode: 0
LetterboxInBreaks: 1

[Editor]
DistanceSpacing: 1.7
BeatDivisor: 4
GridSize: 4

[Metadata]
Title:Hoshikaze no Horoscope (TV Size)
Artist:nomico
Creator:KanaRin
Version:Hinacle
Source:Hoshizora he Kakaru Hashi
Tags:feng Hinacle aesopl19193 MeLLoN

[Difficulty]
HPDrainRate:6
CircleSize:4
OverallDifficulty:5
ApproachRate:7
SliderMultiplier:1.6
SliderTickRate:1

[Events]
//Background and Video events
0,0,"BG.jpg"
Video,0,"Hosizora op.flv"
//Break Periods
//Storyboard Layer 0 (Background)
//Storyboard Layer 1 (Fail)
//Storyboard Layer 2 (Pass)
//Storyboard Layer 3 (Foreground)
//Storyboard Sound Samples
//Background Colour Transformations
3,100,163,162,255

[TimingPoints]
1228,461.538461538462,4,2,1,60,1,0
7692,-100,4,2,1,5,0,0
7807,-100,4,2,1,55,0,0
8497,-100,4,2,1,60,0,0
17615,-100,4,2,1,5,0,0
17731,-100,4,2,1,20,0,0
20615,-100,4,2,1,5,0,0
20731,-100,4,2,1,60,0,0
21050,342.857142857143,4,2,1,45,1,0
29192,-100,4,2,1,60,0,0
29450,-100,4,2,1,55,0,0
29792,-100,4,2,1,50,0,0
30135,-100,4,2,1,45,0,0
30564,-200,4,2,1,40,0,0
31678,-200,4,2,1,5,0,0
31764,-200,4,2,1,40,0,0
31935,-100,4,2,1,50,0,0
37250,-100,4,2,1,40,0,0
37507,-100,4,2,1,50,0,0
38621,-100,4,2,1,40,0,0
38878,-100,4,2,1,50,0,0
39992,-100,4,2,1,40,0,0
40250,-100,4,2,1,50,0,0
42907,-100,4,2,1,55,0,0
43592,-100,4,2,2,55,0,0
44107,-100,4,2,1,55,0,0
44964,-100,4,2,2,55,0,0
45478,-100,4,2,1,55,0,0
49078,-100,4,2,2,55,0,0
49592,-100,4,2,1,55,0,0
50450,-100,4,2,2,55,0,0
50964,-100,4,2,1,55,0,0
51135,-100,4,2,1,60,0,0
59364,-100,4,2,1,65,0,0
60735,-100,4,2,1,40,0,0
61078,-100,4,2,1,50,0,0
61421,-100,4,2,1,60,0,0
61764,-100,4,2,1,70,0,0
62192,-100,4,2,1,75,0,1
71707,-100,4,2,1,75,0,1
71878,-100,4,2,1,75,0,1
72050,-100,4,2,1,75,0,1
72221,-100,4,2,1,75,0,1
72564,-100,4,2,1,75,0,1
72735,-100,4,2,1,75,0,1
72907,-100,4,2,1,75,0,1
73078,-100,4,2,1,75,0,1
75821,-100,4,2,1,75,0,1
76164,-100,4,2,1,75,0,1
76507,-100,4,2,1,75,0,1
76850,-100,4,2,1,75,0,1
77535,-100,4,2,1,75,0,1
77878,-100,4,2,1,75,0,1
78221,-100,4,2,1,75,0,1
87135,-100,4,2,1,75,0,1
87478,-100,4,2,1,75,0,1
87821,-100,4,2,1,75,0,1
88164,-100,4,2,1,5,0,0

[Colours]
Combo1 : 128,255,255
Combo2 : 255,128,128
Combo3 : 128,255,128
Combo4 : 255,255,128

[HitObjects]
432,72,535,1,0
400,156,766,1,2
324,204,997,1,0
236,224,1227,2,0,B|200:236|152:236,1,80,2|0
72,220,1689,2,0,B|60:184|60:136,1,80,2|0
60,52,2151,2,0,B|132:36|152:52|224:36,1,160,2|0
304,32,2843,2,0,B|336:120|312:176|344:272,1,240,2|2
420,312,3766,2,0,B|460:328|504:328,2,80,0|2|0
342,267,4458,6,0,B|304:256|264:260,1,80,2|0
176,268,4920,1,2
88,276,5151,2,0,B|72:240|72:188,1,80,0|2
64,112,5612,1,0
140,60,5843,2,0,B|212:28|300:44,1,160,2|0
380,76,6535,2,0,B|392:120|392:172,1,80,2|0
388,244,6997,2,0,B|380:252|380:252|372:244|372:244|364:252|364:252|356:244|356:244|348:252|348:252|340:244|340:244|332:252|332:252|324:244|324:244|316:252|316:252|308:244|308:244|300:252|300:252|292:244|292:244|284:252|284:252|276:244|276:244|268:252|268:252|260:244|260:244|252:252|252:252|244:244|244:244|236:252|236:252|228:244|228:244|220:252|220:252|212:244|212:244|204:252|204:252,1,240,2|0
132,252,7920,5,2
60,204,8151,1,0
108,132,8381,1,2
180,180,8612,2,0,B|220:188|268:180,1,80,2|0
348,172,9074,2,0,B|356:132|356:84,1,80,2|0
292,36,9535,2,0,B|204:12|132:44,1,160,2|0
64,96,10227,2,0,B|58:105|58:105|67:111|67:111|62:120|62:120|71:126|71:126|65:135|65:135|75:141|75:141|69:151|69:151|79:158|79:158|73:167|73:167|83:173|83:173|77:182|77:182|86:188|86:188|81:197|81:197|90:203|90:203|85:214|85:214|94:220|94:220|89:229|89:229|98:235|98:235|92:244|92:244|102:250|102:250|96:259|96:259|106:265|106:265|100:276|100:276,1,240,2|2
128,348,11151,1,0
212,316,11381,2,0,B|248:296|292:288,1,80,2|0
376,280,11843,6,0,B|388:240|388:196,1,80,2|0
396,112,12304,2,0,B|320:76|232:88,1,160,2|0
152,104,12997,2,0,B|124:136|112:180,1,80,2|0
100,260,13458,2,0,B|72:296|40:320,2,80,0|2|0
184,284,14151,2,0,B|256:320|344:304,1,160,2|0
428,288,14843,2,0,B|464:216|448:128,1,160,2|0
424,48,15535,2,0,B|388:36|344:36,1,80,2|0
256,48,15997,6,0,B|244:49|244:49|246:60|246:60|234:61|234:61|236:73|236:73|225:74|225:74|226:85|226:85|215:87|215:87|216:98|216:98|205:99|205:99|206:111|206:111|195:112|195:112|196:123|196:123|185:125|185:125|187:136|187:136|175:137|175:137|177:148|177:148|165:150|165:150|167:161|167:161|156:162|156:162|157:174|157:174|146:175|146:175|147:186|147:186|136:188|136:188,1,240,2|0
96,248,16920,1,0
160,312,17151,2,0,B|236:344|316:324,1,160,2|0
256,192,17843,12,0,20612
44,188,21050,6,0,B|72:220|112:236,1,80,4|0
192,264,21392,2,0,B|224:232|232:192,1,80,8|0
244,108,21735,2,0,B|280:92|324:92,1,80
412,96,22078,2,0,B|416:140|404:184,1,80,8|0
364,252,22421,6,0,B|324:324|224:332,1,160,4|8
168,220,22935,2,0,B|208:148|308:140,1,160,4|0
388,152,23450,1,8
444,220,23621,1,0
416,304,23792,1,4
332,336,23964,2,0,B|296:348|252:348,1,80,0|8
164,340,24307,2,0,B|108:280|124:188,1,160,4|0
128,104,24821,2,0,B|164:88|208:88,1,80,8|0
296,88,25164,6,0,B|312:128|312:172,1,80,4|0
220,244,25507,2,0,B|204:204|204:160,1,80,8|0
296,88,25850,6,0,B|312:128|312:172,1,80,4|0
180,256,26192,2,0,B|164:216|164:172,1,80,8|0
160,88,26535,6,0,B|224:40|316:60,1,160,4|8
400,76,27050,2,0,B|412:116|404:164,1,80
392,244,27392,2,0,B|360:264|312:268,1,80,0|8
228,284,27735,2,0,B|168:296|120:284|80:240,1,160,4|0
124,128,28250,2,0,B|184:116|232:128|272:172,1,160,4|0
312,248,28764,2,0,B|352:256|356:244|396:252,2,80,0|8|0
256,316,29278,5,0
88,192,29621,1,0
256,68,29964,1,0
424,192,30307,1,0
256,316,30650,6,0,B|272:216|240:184|256:72,1,240
336,44,31850,5,0
420,72,32021,2,0,B|460:144|440:232,1,160,4|2
416,312,32535,2,0,B|380:332|336:324,1,80
252,300,32878,2,0,B|232:268|232:224,1,80,0|2
216,136,33221,2,0,B|128:116|60:164,1,160,0|0
64,252,33735,6,0,B|68:296|60:308|64:348,2,80,2|0|0
62,161,34250,2,0,B|128:116|216:136,1,160,2|0
300,164,34764,2,0,B|344:176|384:164,1,80,0|0
464,140,35107,2,0,B|480:180|480:224,1,80,2|0
476,308,35449,2,0,B|408:352|316:328,1,160,0|2
248,280,35964,6,0,B|212:264|184:228,1,80
120,160,36307,2,0,B|136:124|172:96,1,80,0|2
236,28,36649,2,0,B|272:44|300:80,1,80,0|0
364,148,36992,2,0,B|348:184|312:212,1,80,0|2
248,280,37335,5,0
248,280,37421,1,0
248,280,37507,2,0,B|176:288|168:312|88:304,1,160,4|2
44,228,38021,2,0,B|28:196|28:148,1,80
24,64,38364,2,0,B|60:48|108:48,1,80,0|2
192,52,38707,5,0
192,52,38792,1,0
192,52,38878,2,0,B|232:68|280:68,1,80,4|0
360,64,39221,2,0,B|380:104|376:152,1,80,2|0
364,228,39564,2,0,B|328:248|304:280,1,80
240,340,39907,1,2
152,324,40078,5,0
152,324,40164,1,0
152,324,40249,2,0,B|112:316|76:288,1,80,4|0
36,216,40592,2,0,B|52:180|84:152,1,80,2|0
152,96,40935,5,0
276,60,41107,1,0
204,164,41278,1,2
200,32,41449,1,0
280,140,41621,2,0,B|328:176|340:224|304:288,1,160,0|2
256,352,42135,1,0
168,352,42307,2,0,B|80:352,1,80,2|0
20,252,42649,2,0,B|104:252,1,80,2|0
188,252,42992,5,4
276,236,43164,1,0
364,224,43335,2,0,B|380:188|380:140,1,80,2|0
384,56,43678,2,0,B|308:28|220:48,1,160,2|2
140,72,44192,1,0
140,72,44278,1,0
140,72,44364,2,0,B|116:104|108:152,1,80,2|0
92,232,44707,5,2
64,316,44878,1,0
152,336,45049,2,0,B|220:320|252:352|316:336,1,160,2|2
412,216,45564,2,0,B|344:232|312:200|248:216,1,160,2|0
164,220,46078,2,0,B|144:188|136:144,1,80,2|0
108,60,46421,2,0,B|68:44|20:44,2,80,0|0|2
196,80,46935,1,0
284,100,47107,2,0,B|320:120|364:124,1,80,0|0
448,136,47449,5,2
448,136,47621,2,0,B|476:224|432:296,1,160,0|0
348,312,48135,1,2
260,292,48307,1,0
172,308,48478,6,0,B|132:320|84:320,1,80,4|0
68,236,48821,2,0,B|56:200|60:152,1,80,2|0
56,68,49164,2,0,B|124:28|216:48,1,160,2|2
300,60,49678,2,0,B|316:100|312:144,1,80,2|0
324,228,50021,2,0,B|364:244|408:244,2,80,0|2|0
240,196,50535,2,0,B|184:184|132:196|92:240,1,160,2|2
64,324,51049,1,2
148,352,51221,6,0,B|192:360|240:352,1,80,4|0
316,344,51564,1,2
404,328,51735,2,0,B|472:280|444:180,1,160
432,96,52249,1,2
348,68,52421,1,0
260,56,52592,2,0,B|188:112|212:204,1,160,2|0
348,180,53107,2,0,B|370:265|294:325,1,160,2|0
212,344,53621,2,0,B|172:352|128:336,1,80,2|0
60,288,53964,6,0,B|32:320|16:360,2,80,4|0|0
136,244,54478,2,0,B|216:220|244:132,1,160,2|0
256,48,54992,2,0,B|220:36|172:36,1,80,2|0
88,36,55335,6,0,B|20:108|76:180,1,160,2|0
136,244,55849,2,0,B|208:304|288:260,1,160,2|0
356,212,56364,1,0
408,140,56535,1,0
420,52,56707,6,0,B|380:40|336:40,1,80,4|0
252,44,57049,1,0
164,60,57221,2,0,B|108:132|148:224,1,160,2|0
196,284,57735,2,0,B|236:296|280:296,1,80,2|0
364,296,58078,6,0,B|452:280|472:184,1,160,4|0
368,100,58592,2,0,B|280:116|260:212,1,160,4|0
248,296,59107,2,0,B|212:312|160:312,1,80,2|0
80,304,59449,6,0,B|32:236|52:152,1,160,4|2
72,64,59964,2,0,B|144:28|232:48,2,160,4|4|4
52,152,60821,6,0,B|72:189|112:209,1,80,2|0
244,192,61164,2,0,B|224:155|184:135,1,80,2|0
168,272,61507,2,0,B|187:308|227:328,1,80,2|0
312,344,61849,1,2
400,328,62021,5,0
400,328,62107,1,0
400,328,62192,2,0,B|420:296|420:248,1,80,4|0
420,164,62535,2,0,B|384:144|340:144,1,80,8|0
256,128,62878,2,0,B|260:92|252:80|256:48,2,80,0|0|8
224,212,63392,2,0,B|164:272|72:240,1,160,4|0
40,160,63907,2,0,B|32:124|32:80,1,80,8|0
140,24,64249,2,0,B|148:60|148:104,1,80
152,192,64592,1,8
152,192,64678,1,0
152,192,64764,1,0
240,204,64935,6,0,B|276:212|320:212,1,80,4|0
376,104,65278,2,0,B|340:96|296:96,1,80,8|0
208,84,65621,2,0,B|120:52|56:108,1,160,4|8
32,192,66135,1,0
64,276,66307,2,0,B|100:292|144:292,1,80
232,288,66649,2,0,B|296:240|384:252,1,160,8|0
472,264,67164,2,0,B|488:304|488:348,2,80,0|8|0
452,176,67678,6,0,B|426:145|414:103,1,80,4|0
384,24,68021,1,8
300,52,68192,1,0
320,140,68364,2,0,B|284:156|240:160,1,80
156,172,68707,1,8
68,180,68878,1,0
68,180,68964,1,0
68,180,69049,2,0,B|52:136|52:88,1,80,0|0
156,172,69392,2,0,B|172:216|172:264,1,80,8|0
176,340,69735,2,0,B|240:356|272:324|336:340,1,160,4|8
424,348,70249,1,0
452,264,70421,6,4,B|464:228|464:176,1,80,4|0
472,96,70764,2,0,B|436:76|388:72,1,80,8|0
308,64,71107,1,0
228,100,71278,2,0,B|160:144|68:120,1,160,0|0
28,36,71792,5,2
74,121,71964,1,0
144,188,72135,1,2
236,216,72307,1,0
408,136,72649,5,2
332,196,72821,1,0
236,216,72992,1,2
144,188,73164,6,0,B|124:156|132:108,1,80,4|0
180,36,73507,2,0,B|220:24|264:32,1,80,8|0
348,48,73849,2,0,B|392:48|436:32,2,80,0|0|8
280,108,74364,2,0,B|220:172|244:260,1,160,4|0
328,284,74878,1,8
412,312,75049,2,0,B|472:248|448:160,1,160,4|0
424,80,75564,2,8,B|384:68|340:68,1,80,8|0
256,68,75907,5,4
88,192,76249,1,2
256,316,76592,1,4
424,192,76935,1,2
424,192,77107,2,0,B|368:128|272:144,1,160,4|0
192,156,77621,2,0,B|172:192|172:236,1,80,8|0
168,320,77964,2,0,B|128:332|88:328,1,80
32,260,78307,5,8
24,172,78478,2,0,B|64:104|160:92,1,160,4|0
244,88,78992,2,0,B|284:100|328:100,1,80,8|0
412,96,79335,2,0,B|432:140|428:188,1,80
416,260,79678,1,8
392,344,79849,6,0,B|308:368|224:328,1,160,4|0
156,292,80364,1,8
84,240,80535,1,0
44,160,80707,2,0,B|32:120|32:76,2,80,0|0|8
84,240,81221,6,0,B|168:264|252:224,1,160,4|0
328,208,81735,2,0,B|348:248|348:288,2,80,8|0|0
312,120,82249,2,0,B|352:100|392:100,2,80,0|8|0
224,140,82764,2,0,B|184:160|144:160,1,80,0|0
60,160,83107,2,0,B|44:200|44:244,1,80,8|0
40,328,83449,2,0,B|76:348|124:348,1,80
208,352,83792,5,8
208,352,83878,1,0
208,352,83964,2,4,B|296:340|344:276,1,160,4|0
392,200,84478,2,0,B|408:164|408:120,1,80,8|0
304,60,84821,2,0,B|288:96|288:140,1,80
276,228,85164,5,8
276,228,85335,2,0,B|204:272|120:240,1,160,4|0
64,172,85849,2,0,B|48:136|48:92,1,80,8|0
152,32,86192,2,0,B|168:68|168:112,1,80
168,196,86535,1,8
156,284,86707,2,0,B|220:344|308:312,1,160,4|0
364,248,87221,5,8
484,202,87392,1,0
361,169,87564,1,0
441,266,87735,1,0
434,139,87907,1,8
364,248,88078,1,4
256,192,88249,12,0,89450
