osu file format v9

[General]
AudioFilename: nomico - Alice Maestera.mp3
AudioLeadIn: 0
PreviewTime: -1
Countdown: 0
SampleSet: Soft
StackLeniency: 0.4
Mode: 0
LetterboxInBreaks: 1
SkinPreference:touhou

[Editor]
Bookmarks: -44,25324,46348,81062,94776,135919,164633
DistanceSpacing: 1
BeatDivisor: 4
GridSize: 8

[Metadata]
Title:Alice Maestera
Artist:nomico
Creator:CCHV-16
Version:Normal
Source:Touhou
Tags:Alstroemeria Record Masayoshi Minoshima HARMONY huang99520 BakaHuang

[Difficulty]
HPDrainRate:3
CircleSize:3
OverallDifficulty:3
ApproachRate:5
SliderMultiplier:1.6
SliderTickRate:2

[Events]
//Background and Video events
0,0,"bg.jpg"
//Break Periods
2,129686,133001
//Storyboard Layer 0 (Background)
//Storyboard Layer 1 (Fail)
//Storyboard Layer 2 (Pass)
//Storyboard Layer 3 (Foreground)
//Storyboard Sound Samples
//Background Colour Transformations
3,100,163,162,255

[TimingPoints]
487,428.571428571429,4,1,0,72,1,0
27915,-100,4,2,0,72,0,0
55344,-100,4,1,0,74,0,1
81701,-100,4,2,0,72,0,0
86832,-133.333333333333,4,2,0,72,0,0
88772,-100,4,2,0,72,0,0
110189,-200,4,2,0,69,0,0
137629,-100,4,1,0,63,0,1
159915,-100,4,1,0,63,0,0
165070,-100,4,1,0,79,0,1
165284,-100,4,1,0,79,0,0

[Colours]
Combo1 : 64,0,128
Combo2 : 128,0,0
Combo3 : 255,128,64
Combo4 : 0,0,160

[HitObjects]
256,192,22772,12,0,25772
288,224,26201,6,0,B|232:288|232:288,1,80,0|0
168,328,26629,2,0,B|104:264|104:264,1,80,0|0
104,192,27058,2,0,B|168:120|168:120,1,80,0|0
232,104,27487,2,4,B|296:160|296:160,1,80,2|6
312,80,27915,5,4
312,80,28344,1,2
160,136,28772,1,0
160,136,29201,1,2
48,256,29629,5,0
176,344,30058,1,2
336,344,30487,1,0
464,256,30915,1,2
304,232,31344,6,0,B|232:192|216:264|144:232,1,160,4|2
288,152,32201,2,0,B|360:112|376:184|448:152,1,160,0|2
360,288,33058,2,0,B|272:288,1,80
280,208,33487,2,0,B|200:208,1,80
200,128,33915,2,0,B|112:128,1,80
120,48,34344,2,0,B|40:48,1,80
32,128,34772,2,0,B|72:176|16:240|80:288,3,160,0|2|0|2
224,248,36487,2,0,B|176:288|112:232|48:296,3,160,0|2|0|2
256,192,38201,12,0,39915
120,192,40344,5,2
56,336,40772,2,0,B|136:312|136:240|192:240,1,160,0|2
328,312,41629,1,4
328,312,42058,1,2
464,232,42487,5,0
464,232,42915,1,2
312,192,43344,2,0,B|232:144|160:192,3,160,0|2|0|2
256,64,45058,6,0,B|344:64|344:144|256:144,1,160,0|2
256,304,45915,2,0,B|168:304|168:232|256:232,1,160,0|2
96,192,46772,1,0
200,72,47201,1,2
96,192,47629,5,0
200,312,48058,1,2
96,192,48486,2,0,B|144:144|224:232|248:192,2,160
96,192,49772,1,2
266,195,50201,2,0,B|288:232|368:144|416:192,2,160
267,195,51487,1,2
267,195,51701,1,0
256,192,51915,12,0,54058
256,192,54486,5,0
256,192,54915,1,8
112,112,55344,6,0,B|56:192|104:288,1,160,4|0
248,296,56201,1,0
248,296,56415,1,0
248,296,56629,1,0
408,288,57058,6,0,B|464:208|416:112,1,160,0|0
272,104,57915,1,0
272,104,58129,1,0
272,104,58344,1,0
136,192,58772,5,0
272,272,59201,1,0
432,272,59629,1,0
456,192,59844,1,0
472,112,60058,1,0
472,112,60486,6,0,B|440:56|392:64,1,80
392,144,60915,2,0,B|364:151|332:95,1,80,0|0
256,72,61344,1,6
256,72,61772,1,6
408,120,62201,6,0,B|408:80|408:56|408:32,2,80
408,200,62844,1,0
408,280,63058,2,0,B|328:280,3,80
328,200,63915,6,0,B|368:200|416:200|416:200,2,80
328,120,64558,1,0
328,40,64772,2,0,B|248:40,3,80
176,80,65629,5,0
327,135,66058,2,0,B|328:224,1,80
328,296,66486,2,0,B|408:296|408:296|408:120,1,240
328,136,67344,2,0,B|248:136,3,80
250,216,68201,5,6
250,216,68629,1,6
400,272,69058,6,0,B|456:192|408:96,1,160
264,88,69915,1,0
264,88,70129,1,0
264,88,70344,1,0
104,96,70772,6,0,B|48:176|96:272,1,160
240,280,71629,1,0
240,280,71844,1,0
240,280,72058,1,0
376,192,72486,5,0
232,112,72915,1,0
72,112,73344,1,0
56,192,73558,1,0
40,272,73772,1,0
40,272,74201,6,0,B|72:328|120:320,1,80
120,240,74629,2,0,B|148:233|180:289,1,80,0|0
256,312,75058,1,6
256,312,75486,1,6
368,192,75915,6,0,B|400:192|432:192|456:192,2,80
296,216,76558,1,0
216,240,76772,1,0
144,272,76986,2,0,B|64:272,2,80
144,192,77629,6,0,B|56:192|56:192|56:192,2,80
216,160,78272,1,0
288,128,78486,1,0
360,96,78701,2,0,B|440:96,2,80
328,168,79344,5,4
184,248,79772,2,0,B|184:168,1,80
104,168,80201,2,0,B|104:328|104:328|184:328,1,240
184,248,81058,2,0,B|184:168,2,80,0|0|0
344,216,81915,5,0
344,216,82344,1,2
192,176,82772,2,0,B|240:128|288:208|352:160,2,160,0|0|0
192,176,84058,1,0
272,320,84486,2,0,B|432:312,1,160
496,160,85344,6,0,B|456:112|440:72,1,80
376,64,85772,2,0,B|320:32|288:64,1,80,2|0
224,72,86201,2,0,B|192:120|144:120,1,80
88,80,86629,1,2
88,152,86844,2,0,B|144:184|184:104|264:136,3,180
112,208,89201,5,0
112,208,89629,2,0,B|240:320,1,160
232,312,90272,1,0
392,136,90915,2,0,B|392:56,1,80
392,296,91772,2,0,B|392:208,1,80
152,192,92629,1,0
256,192,93058,12,0,94772
208,168,95629,5,0
336,64,96058,1,2
464,160,96486,1,0
463,161,97129,2,0,B|519:345|336:352|336:352|143:345|211:153,1,560,0|2
206,167,99058,1,0
206,167,99486,1,2
48,160,99915,6,0,B|96:80|184:80,1,160,0|2
256,88,100558,1,0
256,88,101201,2,0,B|256:128|304:144,1,80,2|0
472,192,102486,5,0
312,192,102915,1,2
152,192,103344,2,0,B|120:328|104:168,1,160,0|2
32,144,103986,2,0,B|88:56|168:104|248:48,1,240,0|2
248,128,104844,2,0,B|304:112|320:56|472:40,1,240,0|2
488,120,105701,2,0,B|339:135|323:191|267:207,1,240,0|2
256,192,106772,12,0,108272
88,104,110201,6,0,B|248:40|408:120,1,320,4|0
328,160,112344,1,0
256,192,112772,1,2
184,224,113201,1,8
112,264,113629,2,6,B|184:312|272:280,1,160,6|2
344,272,114915,1,0
344,272,115129,1,0
176,192,116201,5,8
328,192,116629,1,8
424,280,117058,6,0,B|264:344|104:264,1,320,4|0
184,224,119201,1,0
256,192,119629,1,2
328,160,120058,1,8
400,120,120486,2,4,B|328:72|240:104,1,160,4|2
168,112,121772,1,0
168,112,121986,1,0
256,264,123058,5,8
256,264,123486,1,8
216,192,123915,6,0,B|192:208|176:192,2,40,0|0|0
296,192,124772,2,0,B|320:208|336:192,2,40
224,232,125629,2,0,B|224:248|224:256|224:288,6,40
144,256,127344,2,0,B|128:128|256:128|256:128|384:128|368:256,1,400
256,192,134201,12,0,136772
176,80,137629,5,4
144,152,137844,2,0,B|80:136,2,40
128,232,138272,1,0
136,312,138486,2,0,B|224:344|304:320,1,160
456,320,139344,6,0,B|456:240,1,80
384,280,139772,2,0,B|384:200,1,80
312,240,140201,2,0,B|312:160,1,80
240,200,140629,2,0,B|240:104,1,80
304,72,141058,5,4
376,112,141272,2,0,B|448:160,1,80
296,296,141915,1,0
232,248,142129,2,0,B|160:192,1,80
320,152,142772,5,0
320,152,142986,2,0,B|400:152,2,80
320,232,143629,1,0
320,232,143844,2,0,B|400:232,2,80
256,192,144486,12,0,146201
176,192,146844,6,0,B|256:192,4,80
256,192,147915,12,0,150058
136,192,150487,5,0
216,192,150701,1,0
296,192,150915,1,0
376,192,151129,1,0
336,256,151344,2,0,B|168:256,1,160,4|0
256,120,152201,2,0,B|256:288,1,160
392,192,153058,6,0,B|392:104,3,80
392,192,153915,2,0,B|392:280,3,80
312,272,154772,2,0,B|136:272,1,160,4|0
160,112,155629,2,0,B|320:112,1,160
176,192,156487,2,0,B|256:192,1,80
336,192,156915,2,0,B|256:192,1,80
256,112,157344,2,0,B|256:192,1,80
256,272,157772,2,0,B|256:192,1,80
256,192,158201,12,0,159915
296,120,160344,5,0
216,120,160558,1,0
176,192,160772,1,0
216,264,160987,1,0
296,264,161201,1,0
336,192,161415,1,0
256,192,161629,12,0,164629
256,312,165058,1,4
