osu file format v9

[General]
AudioFilename: nomico - Alice Maestera.mp3
AudioLeadIn: 0
PreviewTime: 146633
Countdown: 0
SampleSet: Normal
StackLeniency: 0.4
Mode: 0
LetterboxInBreaks: 1
SkinPreference:touhou

[Editor]
Bookmarks: 22443,38463,55348,81491,110193,137205,164419,190776,219701,233308,276491
DistanceSpacing: 1.6
BeatDivisor: 4
GridSize: 4

[Metadata]
Title:Alice Maestera
Artist:nomico
Creator:CCHV-16
Version:Lunatic
Source:Touhou
Tags:Alstroemeria Record Masayoshi Minoshima HARMONY BakaHuang

[Difficulty]
HPDrainRate:8
CircleSize:4
OverallDifficulty:7
ApproachRate:8
SliderMultiplier:2
SliderTickRate:1

[Events]
//Background and Video events
0,0,"bg.jpg"
//Break Periods
2,68829,81165
2,123686,133451
2,178544,190879
2,221829,232879
//Storyboard Layer 0 (Background)
//Storyboard Layer 1 (Fail)
//Storyboard Layer 2 (Pass)
//Storyboard Layer 3 (Foreground)
//Storyboard Sound Samples
//Background Colour Transformations
3,100,163,162,255

[TimingPoints]
487,428.571428571429,4,1,0,71,1,0
27915,-100,4,1,0,71,0,1
28022,-100,4,1,0,71,0,0
40344,-100,4,2,0,71,0,0
40451,-100,4,1,0,61,0,0
48379,-133.333333333333,4,1,0,71,0,0
51602,-100,4,1,0,70,0,0
54066,-100,4,1,0,81,0,0
55344,-100,4,1,0,70,0,1
68629,-100,4,1,0,80,0,0
81915,-100,4,2,0,100,0,0
86130,-200,4,2,0,100,0,0
89344,-100,4,2,0,100,0,0
103764,-100,4,2,0,71,0,0
104193,-100,4,2,0,100,0,0
110201,-200,4,2,0,58,0,1
110300,-200,4,2,0,58,0,0
137193,-100,4,1,0,58,0,0
137621,-100,4,1,0,70,0,1
138586,-100,4,1,0,61,0,1
142772,-100,4,1,0,80,0,1
145764,-100,4,1,0,80,0,0
149629,-200,4,1,0,80,0,0
151344,-100,4,1,0,79,0,1
161629,-100,4,1,0,74,0,0
164407,-100,4,1,0,80,0,0
165050,-100,4,1,0,100,0,1
178336,-100,4,1,0,80,0,0
191629,-133.333333333333,4,2,1,100,0,0
203629,-133.333333333333,4,2,1,80,0,0
204272,-133.333333333333,4,2,1,100,0,0
219907,-200,4,2,0,100,0,1
221621,-200,4,2,0,51,0,0
240272,-133.333333333333,4,2,0,51,0,0
271293,-100,4,1,0,40,0,0
271550,-100,4,1,0,51,0,0
271764,-100,4,1,0,61,0,0
271979,-100,4,1,0,71,0,0
272193,-100,4,1,0,81,0,0
272407,-100,4,1,0,90,0,0
272621,-100,4,1,0,100,0,0
274772,-100,4,1,0,80,0,1
276532,-100,4,2,0,80,0,1
276639,-100,4,1,0,80,0,1
276961,-100,4,2,0,80,0,1
277068,-100,4,1,0,80,0,1
277389,-100,4,2,0,80,0,1
277496,-100,4,1,0,80,0,1
277604,-100,4,2,0,80,0,1
277711,-100,4,1,0,80,0,1
277818,-100,4,2,0,80,0,1
277925,-100,4,1,0,80,0,1
278032,-100,4,2,0,80,0,1
278139,-100,4,1,0,80,0,1
279961,-100,4,2,0,80,0,1
280068,-100,4,1,0,80,0,1
280389,-100,4,2,0,80,0,1
280496,-100,4,1,0,80,0,1
280818,-100,4,2,0,80,0,1
280925,-100,4,1,0,80,0,1
281032,-100,4,2,0,80,0,1
281139,-100,4,1,0,80,0,1
281246,-100,4,2,0,80,0,1
281354,-100,4,1,0,80,0,1
285058,-100,4,1,0,80,0,0
288487,-100,4,1,0,80,0,1
298764,-100,4,1,0,71,0,0
302201,-100,4,1,0,100,0,1
302308,-100,4,1,0,100,0,0

[Colours]
Combo1 : 64,0,128
Combo2 : 128,0,0
Combo3 : 255,128,64
Combo4 : 0,0,160

[HitObjects]
256,192,22772,12,0,25772
256,72,26201,5,0
256,80,26415,1,0
256,88,26629,1,0
256,96,26844,1,0
88,160,27058,1,2
160,328,27272,1,2
344,328,27487,1,2
416,160,27701,1,2
448,288,27915,6,0,B|376:256|352:304|296:288,1,150
296,296,28344,1,0
176,240,28558,2,0,B|168:288|104:312,4,100
112,128,29629,5,0
104,112,29737,1,0
112,96,29844,1,0
128,88,29951,1,0
144,96,30058,1,0
256,176,30272,1,0
384,160,30487,2,2,B|432:160|432:216|384:216,1,100
128,224,30915,2,2,B|80:224|80:168|128:168,1,100
240,104,31344,6,0,B|304:64|352:100,1,100
336,72,31665,2,0,B|416:72|416:176,1,150
280,200,32201,6,0,B|216:160|168:200,1,100
184,168,32522,2,0,B|104:168|104:272,1,150
224,224,33058,6,0,B|184:320,1,100
288,224,33487,2,0,B|328:320,1,100
120,184,33915,2,0,B|32:240,1,100
392,184,34344,2,0,B|480:240,1,100
456,112,34772,5,0
328,88,34987,1,8
256,192,35201,1,0
256,64,35415,1,8
256,192,35629,1,0
184,88,35844,1,8
56,120,36058,2,2,B|32:176|56:240,1,100
160,288,36487,6,0,B|192:208|216:288,1,100,0|8
352,288,36915,2,0,B|320:208|296:288,1,100,0|8
392,200,37344,1,2
280,144,37558,1,2
256,16,37772,1,2
240,144,37987,1,2
128,208,38201,1,0
96,80,38415,5,8
88,64,38522,1,0
80,48,38629,1,8
176,136,38844,1,8
168,120,38951,1,0
160,104,39058,1,8
256,192,39272,1,8
248,176,39379,1,0
240,160,39487,1,8
256,192,39594,12,4,40344
448,136,40772,5,0
280,64,40987,1,0
448,136,41201,2,0,B|408:208|352:208,1,100
440,312,41629,5,2
312,296,41844,1,0
280,296,41951,2,2,B|240:248|184:248|144:304,1,150
64,192,42487,1,2
144,80,42701,1,0
176,80,42808,2,2,B|216:128|272:128|312:72,1,150
400,176,43344,5,2
272,192,43558,1,0
272,192,43665,2,2,B|256:248|256:352,1,150
184,232,44201,1,8
328,232,44415,1,8
128,232,44629,1,8
384,232,44844,1,8
400,104,45058,6,0,B|399:47|344:24,1,100
344,32,45379,2,0,B|264:64|200:56|176:-8,1,150
96,104,45915,2,0,B|72:160|96:208,2,100,0|0|4
176,296,46772,5,0
320,296,46986,1,0
160,264,47201,1,0
336,264,47415,1,0
144,232,47629,1,2
352,232,47844,1,2
128,200,48058,1,2
368,200,48272,1,2
104,168,48486,2,0,B|256:80|400:176,3,299.999991059304
256,192,51915,12,4,53629
256,112,54486,5,0
176,248,54701,1,8
336,248,54915,1,8
336,248,55344,6,0,B|400:288|448:224,1,100,4|0
176,248,55772,2,0,B|112:280|80:240,1,100
136,88,56201,1,0
256,192,56415,1,2
376,88,56629,1,0
256,192,56844,1,2
72,144,57058,6,0,B|40:192|72:240,1,100,4|0
440,240,57486,2,0,B|472:192|440:144,1,100
256,64,57915,1,0
256,152,58129,1,2
256,232,58344,1,0
256,312,58558,1,2
120,288,58772,6,4,B|96:304|96:304|112:320|112:320|64:352,1,100
392,288,59201,2,0,B|416:304|416:304|400:320|400:320|448:352,1,100
256,272,59629,1,0
256,168,59844,1,0
256,152,59951,1,0
256,136,60058,1,0
256,40,60272,1,2
128,136,60486,6,0,B|48:64,1,100,4|8
128,248,60915,2,0,B|48:320,1,100,0|8
256,192,61344,2,2,B|352:192|352:192|360:184|360:184|360:200|360:200|368:184|368:184|368:200|368:200|376:184|376:184|376:200|376:200|384:192|384:192|400:192,1,200
72,336,62201,5,4
96,200,62415,1,8
160,312,62629,1,0
184,176,62844,1,8
232,56,63058,2,0,B|192:88|192:120|240:152,1,100,0|2
256,120,63379,1,2
288,139,63486,2,0,B|320:120|320:88|280:56,1,100,2|2
440,48,63915,5,4
416,184,64129,1,8
352,72,64344,1,0
328,208,64558,1,8
312,336,64772,1,0
288,312,64879,1,2
256,304,64986,1,2
224,312,65094,1,2
200,336,65201,2,0,B|144:304|136:248,1,100,2|2
64,80,65629,6,0,B|144:64|192:104,1,100,4|0
184,104,65951,1,0
208,128,66058,2,0,B|264:144|328:112,1,100
328,104,66379,1,0
349,85,66487,2,2,B|368:64|448:80,3,100
256,192,67344,12,4,68201
256,192,68629,5,6
200,192,81915,5,0
200,192,82129,1,0
152,72,82344,2,0,B|200:48|280:80,2,100,2|0|0
64,168,82986,1,0
40,192,83094,1,0
72,216,83201,1,2
200,192,83415,1,0
200,192,83629,2,0,B|104:256,2,100,0|0|2
192,320,84272,1,2
216,304,84379,1,2
240,288,84486,1,0
264,272,84594,1,0
288,256,84701,1,2
288,128,84915,6,0,B|344:112|432:136,1,100,2|0
272,64,85344,2,0,B|208:48|160:80,1,100
288,128,85772,1,2
288,128,85986,1,0
336,80,86201,2,0,B|384:80|416:96|456:80,2,100,0|2|0
288,128,87272,1,0
288,128,87486,2,0,B|240:112|216:144|176:128,2,100,2|0|0
304,256,88772,5,0
368,248,88986,1,0
368,184,89201,1,2
240,192,89415,1,0
240,192,89629,2,0,B|128:192,1,100
256,128,90058,2,0,B|152:128,2,100,2|0|0
256,192,90915,12,2,92629
88,192,93058,6,0,B|128:144|176:176|224:200|312:176,2,200,0|2|0
88,192,94344,1,2
88,192,94558,1,0
88,192,94772,1,0
136,312,94986,5,0
224,216,95201,1,2
304,320,95415,1,0
384,216,95629,1,0
336,96,95844,1,0
208,88,96058,1,2
192,120,96165,1,2
176,144,96272,1,2
48,160,96486,6,0,B|80:200|168:224,1,100,0|0
72,96,96915,2,0,B|128:128|160:160,1,100,2|0
232,48,97344,1,2
232,48,97451,1,2
232,48,97558,1,0
232,48,97665,1,0
232,48,97772,1,2
288,160,97986,2,0,B|280:208|288:264,1,100
224,144,98415,1,0
224,144,98629,2,0,B|240:208|208:288,1,100
160,128,99058,5,0
272,64,99272,1,2
392,104,99486,1,0
432,232,99701,1,2
320,304,99915,2,0,B|280:344|216:304,1,100
216,280,100236,1,0
208,248,100344,1,0
200,216,100451,1,0
192,184,100558,2,2,B|184:136,3,50,2|2|2|2
176,112,100986,1,2
172,88,101094,1,0
168,64,101201,2,0,B|216:56|272:72,2,100,2|0|2
40,88,101844,1,2
40,88,101951,1,2
40,88,102058,1,2
224,272,102486,6,0,B|312:216|448:232,1,200
152,224,103344,2,0,B|224:224,1,50
208,192,103558,2,0,B|232:120,1,50
256,160,103772,2,0,B|304:184,2,50,8|8|8
280,32,104201,1,0
152,56,104415,2,0,B|88:88|64:168,1,100,0|2
72,256,104844,2,0,B|128:320|192:304,1,100
240,208,105272,1,2
336,288,105486,2,0,B|384:240|360:168,1,100
240,208,105915,1,2
368,200,106129,1,2
336,120,106344,2,0,B|304:64|216:40,2,100
200,104,106986,5,0
232,232,107201,1,0
208,136,107415,1,2
216,168,107522,1,2
224,200,107629,1,0
192,72,107844,1,0
128,184,108058,1,2
240,256,108272,1,2
256,192,108486,12,2,109772
160,96,110201,6,0,B|120:192|160:304,2,200,4|0|0
256,272,112344,1,2
256,192,112772,1,2
256,112,113201,1,2
344,288,113629,2,0,B|384:256|368:176,2,100,2|0|2
344,288,114915,1,0
256,240,115129,2,0,B|256:80,1,150
456,64,116201,1,8
456,264,116629,1,8
272,192,117058,6,0,B|200:144|136:240|64:192,2,200,4|0|0
272,192,119201,1,2
352,192,119629,1,2
432,192,120058,1,2
256,192,120486,12,0,122201
256,124,122629,5,0
323,192,122844,1,0
256,259,123058,1,0
188,192,123272,1,0
256,192,123486,5,6
256,192,134201,12,0,136772
256,248,137201,5,0
56,80,137629,5,8
128,192,137844,1,0
96,176,137951,2,0,B|80:248|144:312,1,150,8|0
256,80,138487,1,8
240,80,138594,1,8
224,80,138701,1,0
208,80,138808,1,0
192,80,138915,1,8
392,304,139344,6,0,B|440:304,4,50,0|0|8|8|8
168,248,139987,2,0,B|72:288,2,100,0|8|8
328,128,140629,2,0,B|368:32,1,100,8|8
408,216,141058,6,0,B|368:264|320:264,1,100,0|8
304,240,141379,2,0,B|256:256|256:328|176:328,1,150,0|8
56,328,141915,2,0,B|80:280|48:248|64:208,1,100,0|8
56,64,142344,1,2
56,64,142772,5,0
152,96,142987,1,8
184,224,143201,1,0
328,296,143415,1,10
432,136,143629,1,0
224,56,143844,1,8
56,240,144058,2,2,B|112:328,1,100
256,192,144486,12,4,145772
256,192,146201,5,0
256,192,146844,12,0,149202
256,64,149629,6,2,B|232:104|272:120|256:168,1,100,0|6
112,176,150487,1,0
176,320,150701,1,0
336,320,150915,1,0
400,176,151129,1,0
144,112,151344,6,2,B|120:96|120:96|136:80|136:80|88:48,2,100
256,272,151987,1,0
368,112,152201,2,2,B|392:96|392:96|376:80|376:80|424:48,2,100
256,272,152844,1,0
144,328,153058,6,0,B|80:288|64:232|64:232,1,100,8|0
72,224,153379,2,0,B|80:168|168:104,1,150,8|8
368,104,153915,1,0
360,128,154022,1,8
352,152,154129,1,8
360,176,154237,1,8
376,200,154344,1,8
256,320,154558,6,0,B|200:288|144:288,1,100,0|8
320,272,154987,2,0,B|288:248|264:248,1,50,0|8
256,64,155415,2,0,B|312:96|368:96,1,100,0|8
192,112,155844,2,0,B|224:136|248:136,1,50,0|8
464,336,156487,5,0
432,336,156594,1,0
392,336,156701,1,8
360,336,156808,1,8
328,336,156915,1,0
256,192,157129,1,8
208,336,157344,2,0,B|208:264|184:240,1,100,0|8
304,48,157772,2,0,B|304:120|328:144,1,100,0|8
168,192,158201,5,4
168,88,158415,1,0
56,88,158629,1,0
56,192,158844,1,0
168,192,159058,5,4
256,96,159272,1,0
344,192,159487,1,0
256,288,159701,1,0
344,192,159915,5,4
456,192,160129,1,0
456,296,160344,1,0
344,296,160558,1,0
344,192,160772,5,4
256,288,160987,1,0
168,192,161201,1,0
256,96,161415,1,0
256,192,161629,12,0,163129
256,56,163344,5,8
104,328,163772,1,8
408,328,164201,1,8
256,328,164415,1,0
256,328,164522,1,0
256,328,164629,2,2,B|256:192,1,100
160,120,165058,6,0,B|121:151|65:135,1,100,4|0
49,119,165380,1,0
57,92,165487,2,0,B|88:55|152:79,1,100
104,232,165915,1,0
256,192,166129,1,2
408,152,166344,1,0
256,192,166558,1,2
362,306,166772,6,0,B|423:328|455:292,1,100,4|0
463,265,167093,1,0
446,248,167201,2,0,B|390:232|352:264,1,100
216,344,167629,1,0
256,192,167844,1,2
296,40,168058,1,0
256,192,168272,1,2
96,224,168487,5,0
128,352,168701,1,0
96,224,168915,1,0
224,264,169129,1,0
328,136,169344,1,0
304,152,169451,1,2
280,168,169558,1,2
256,184,169665,1,0
232,200,169772,1,2
208,216,169879,1,2
184,232,169987,1,2
288,112,170201,6,0,B|288:64,1,50,4|8
416,72,170522,2,0,B|416:128,1,50,0|8
464,240,170844,1,8
344,288,171058,2,2,B|408:328,2,50
216,248,171487,1,8
216,248,171701,1,8
120,64,171915,6,0,B|80:120,1,50,4|0
64,96,172129,2,0,B|192:168,1,100
256,272,172558,1,8
40,336,172772,2,2,B|120:336|136:280,1,100
472,336,173201,2,2,B|392:336|376:280,1,100
409,37,173629,6,0,B|392:106|338:110,1,100,0|2
347,108,173951,1,0
347,108,174058,2,0,B|310:150|270:106|231:170,1,100,2|2
255,143,174379,1,0
255,143,174487,2,0,B|224:175|176:160|173:205,1,100,2|2
174,196,174808,1,0
174,196,174915,2,0,B|106:208|134:186|60:196,2,100,2|0|0
184,208,175451,2,0,B|184:260|234:235|263:280,1,100,8|0
254,268,175772,2,0,B|280:272|308:222|364:257,1,100,8|0
346,248,176094,1,0
346,248,176201,2,8,B|403:246|393:303|348:327,1,100,8|0
365,314,176522,1,8
365,314,176629,2,0,B|325:316|301:360|248:352,1,100,0|8
256,192,177058,12,0,177915
256,192,178344,5,6
48,80,191629,5,4
48,80,192058,1,4
48,80,192487,6,0,B|104:88|112:144,1,74.9999977648259
16,184,192915,2,0,B|48:232|96:224,1,74.9999977648259,4|0
72,336,193344,1,0
176,296,193558,1,0
280,344,193772,1,4
312,240,193987,1,0
424,248,194201,2,0,B|456:184|392:160|424:80,1,149.999995529652,0|4
256,256,195058,5,4
256,256,195487,1,4
256,256,195915,2,2,B|216:280|216:352,2,74.9999977648259
192,168,196558,2,2,B|168:136|112:136,2,74.9999977648259
304,160,197201,2,0,B|352:144|352:72|408:56,2,149.999995529652,4|0|4
256,56,198272,2,0,B|224:48|192:80|176:64,1,74.9999977648259,0|8
96,144,198701,5,8
208,128,198915,1,8
176,240,199130,1,8
240,144,199344,1,0
280,248,199558,1,0
288,136,199773,1,2
384,192,199987,2,0,B|416:216|384:240|416:272,1,74.9999977648259,2|0
200,336,200629,6,0,B|104:336,1,74.9999977648259,4|0
336,72,201487,2,0,B|416:72,1,74.9999977648259,2|0
96,192,202344,1,8
272,48,202772,6,0,B|272:112|224:128,1,74.9999977648259,8|0
256,224,203201,2,0,B|240:176|184:176,1,74.9999977648259,8|0
152,80,203629,2,4,B|120:120|144:160,1,74.9999977648259
64,232,204058,2,0,B|144:232,3,74.9999977648259,4|0|2|2
232,168,204915,1,2
392,312,205344,6,0,B|440:264|440:208|384:168,1,149.999995529652
399,180,206201,1,0
312,104,206415,2,0,B|216:104,2,74.9999977648259
256,200,207058,1,2
208,304,207272,1,2
256,200,207487,1,2
304,304,207701,1,2
384,224,207915,2,0,B|360:184|384:136,1,74.9999977648259,8|0
448,64,208344,2,0,B|472:86|464:134,1,74.9999977648259,0|8
368,72,208772,6,0,B|280:104|208:72,2,149.999995529652
448,280,210058,2,0,B|480:352,1,74.9999977648259,2|0
368,320,210487,2,0,B|352:240,1,74.9999977648259,0|2
256,192,210915,2,0,B|288:160|224:144|256:192,1,74.9999977648259
160,248,211344,2,0,B|147:322,1,74.9999977648259,2|0
32,344,211773,2,0,B|64:276,1,74.9999977648259,0|2
152,208,212201,5,2
80,120,212415,1,2
160,40,212629,1,2
272,64,212844,1,2
168,120,213058,2,0,B|224:112|224:112|256:144|296:136|320:112,1,149.999995529652,0|0
240,208,213701,1,0
248,208,213808,1,0
256,208,213915,1,0
432,64,214344,6,0,B|392:80|440:112|400:128,1,74.9999977648259,4|0
296,96,214772,2,0,B|257:111|305:143|270:157,1,74.9999977648259,0|0
376,200,215201,2,0,B|336:216|384:248|344:264,1,74.9999977648259,4|0
240,240,215629,2,0,B|200:256|248:288|208:304,1,74.9999977648259,0|0
104,304,216058,1,4
112,296,216165,1,0
120,288,216272,1,0
40,208,216487,5,0
120,128,216701,1,0
192,216,216915,1,4
240,112,217129,1,0
328,184,217344,2,0,B|344:96,2,74.9999977648259,0|0|4
328,192,217879,1,0
328,200,217987,2,0,B|336:192|336:192|336:208|336:208|344:192|344:192|344:208|344:208|352:192|352:192|352:208|352:208|360:192|360:192|360:208|360:208|368:192|368:192|368:208|368:208|376:192|376:192|376:208|376:208|384:192|384:192|384:208|384:208|392:192|392:192|392:208|392:208|400:192|400:192|400:208|400:208|408:192|408:192|408:208|408:208|416:192|416:192|416:208|416:208|424:192|424:192|424:208|424:208|432:192|432:192|432:208|432:208|440:192|440:192|440:208|440:208|448:192|448:192|448:208|448:208|456:200|456:200|456:192|456:192|456:208,1,524.999984353781,0|2
256,192,219915,12,0,221629
112,176,233629,6,8,B|168:48|256:24|344:48|408:192,1,400,4|0
312,192,235772,6,8,B|272:192|272:192|208:192,2,100,2|0|2
272,264,237058,2,8,B|192:264|192:264|208:288|208:288|96:288,1,200,0|2
56,228,238344,1,8
56,228,238558,1,0
56,228,239629,6,0,B|56:108,1,100
56,128,240487,1,0
104,64,240701,1,2
184,64,240915,1,8
224,128,241129,1,2
144,128,241344,1,0
184,64,241558,1,2
264,64,241772,1,8
312,128,241987,1,2
312,128,242201,2,8,B|368:128|368:128|408:160|408:160|456:160,1,149.999995529652,0|2
312,224,243058,2,8,B|256:224|256:224|216:256|216:256|160:256,1,149.999995529652,0|2
256,192,243915,12,0,246487
112,96,247344,5,2
192,96,247558,2,4,B|240:96,1,37.4999988824129,0|4
344,256,248201,1,2
264,256,248415,2,4,B|216:256,1,37.4999988824129,0|4
424,256,249058,6,2,B|472:240|480:192,2,74.9999977648259,2|0|2
376,192,249701,1,0
424,128,249915,1,2
376,64,250129,1,0
296,64,250344,1,2
248,128,250558,1,0
296,192,250772,6,0,B|272:208|232:208|208:192,1,74.9999977648259,2|0
224,200,251094,1,2
40,104,251629,2,4,B|64:88|112:88|128:112,1,74.9999977648259,2|0
112,98,251951,1,2
48,288,252487,6,8,B|24:248|48:184,1,74.9999977648259,4|0
48,192,252808,1,2
64,176,252915,2,0,B|112:152|120:88,1,74.9999977648259,0|0
176,64,253344,2,0,B|192:24|248:16,1,74.9999977648259,2|0
248,96,253772,1,0
184,144,253987,1,2
256,176,254201,6,2,B|424:176,1,149.999995529652
456,248,254844,1,0
456,248,255058,2,8,B|296:248,2,149.999995529652,8|2|8
416,320,256129,1,0
456,244,256344,1,8
416,168,256558,1,0
464,112,256772,6,0,B|416:32,1,74.9999977648259
376,104,257201,2,0,B|424:184,1,74.9999977648259,8|0
456,248,257629,1,0
416,320,257844,1,0
456,248,258058,2,8,B|288:248,1,149.999995529652
256,320,258701,1,0
256,320,258915,2,2,B|424:320,2,149.999995529652,2|10|2
200,168,260201,6,0,B|200:224|200:224|216:240,1,74.9999977648259,2|0
312,168,260629,2,0,B|312:224|312:224|296:240,1,74.9999977648259,2|0
256,336,261058,1,2
256,336,261272,2,4,B|256:288,1,37.4999988824129,0|4
256,48,261915,1,2
256,48,262129,2,0,B|256:96,1,37.4999988824129,0|4
136,168,262772,6,0,B|96:152|96:192|56:168,2,74.9999977648259,0|8|0
216,168,263415,1,0
296,168,263629,1,2
376,168,263844,2,0,B|416:152|416:192|456:168,2,74.9999977648259,2|8|0
376,88,264487,6,8,B|416:104|416:64|456:88,2,74.9999977648259,8|4|8
136,88,265344,2,8,B|96:104|96:64|56:88,2,74.9999977648259,8|4|8
256,56,266201,5,2
64,192,266629,1,0
256,328,267058,1,8
456,192,267487,1,4
256,192,267915,5,0
216,120,268129,1,0
176,192,268344,1,8
216,264,268558,1,0
296,264,268772,1,0
336,192,268987,1,0
296,120,269201,2,0,B|208:120,1,74.9999977648259,8|0
176,192,269629,5,0
136,264,269844,1,0
176,336,270058,1,8
216,264,270272,1,0
336,336,270487,1,0
376,264,270701,1,0
336,192,270915,1,8
296,264,271129,1,0
256,192,271344,5,0
256,184,271451,1,0
256,176,271558,1,0
256,168,271665,1,0
256,160,271772,1,0
256,152,271879,1,0
256,144,271987,1,0
256,136,272094,1,0
256,128,272201,1,0
256,120,272308,1,0
256,112,272415,1,0
256,104,272522,1,0
256,96,272629,1,0
256,88,272737,1,0
256,80,272844,1,0
256,192,273050,12,0,274344
424,192,274764,5,0
328,224,274979,2,0,B|328:168,1,50
80,184,275621,5,0
176,168,275836,2,0,B|176:224,1,50
416,288,276479,6,8,B|360:288|360:288,1,50,4|0
368,288,276693,2,0,B|304:264|304:264,1,50,0|0
320,272,276907,2,0,B|264:224,1,50,0|0
280,240,277121,2,0,B|264:184|264:184,1,50
264,192,277336,2,0,B|280:144,1,50,6|0
280,144,277550,2,0,B|328:96|328:96,1,50,2|0
312,112,277764,2,0,B|376:88|376:88,1,50,2|0
360,96,277979,2,0,B|416:96|416:96,2,50,2|0|0
312,192,278407,6,0,B|360:192,2,50
312,192,278836,1,0
272,288,279050,2,0,B|328:288,2,50
272,288,279479,1,0
96,96,279907,6,8,B|152:104|152:104,1,50,4|0
144,104,280121,2,0,B|208:144|208:144,1,50,0|0
184,128,280336,2,0,B|224:192,1,50,0|0
208,168,280550,2,0,B|208:232|208:232,1,50
208,216,280764,2,0,B|176:272,1,50,6|0
184,256,280979,2,0,B|128:296|128:296,1,50,2|0
144,288,281193,2,0,B|80:304|80:304,2,50,2|0|2
256,192,281621,12,0,283336
104,328,283979,5,0
144,216,284193,1,0
256,168,284407,1,0
368,216,284621,1,0
408,328,284836,1,0
256,192,285050,12,0,287193
88,128,287629,5,0
192,72,287844,1,0
232,184,288058,1,0
328,256,288272,1,0
432,192,288487,1,0
432,192,288594,1,2
432,192,288701,1,2
432,192,288808,1,2
432,192,288915,1,0
128,304,289344,5,0
128,304,289451,1,2
128,304,289558,1,2
128,304,289665,1,2
128,304,289772,2,0,B|80:216,1,100,2|2
200,208,290201,1,2
200,200,290308,1,0
200,192,290415,2,0,B|184:144|216:144|200:88,2,100,0|2|0
200,312,291058,1,8
320,312,291272,1,8
200,312,291487,1,8
320,312,291701,1,8
296,136,291915,6,2,B|272:96|232:96|208:152,2,100
296,136,292772,2,2,B|272:176|232:176|208:120,2,100
64,64,293629,6,0,B|96:160,1,100
128,264,294058,1,8
224,320,294272,1,8
208,208,294487,2,0,B|304:184,1,100
248,88,294915,1,8
344,40,295129,1,8
432,96,295344,5,0
416,112,295451,1,0
400,128,295558,1,0
328,128,295772,2,0,B|272:176,2,50
216,152,296201,1,0
200,168,296308,1,0
184,184,296415,1,0
112,184,296629,2,0,B|72:216,2,50
112,184,297058,6,0,B|72:144,2,50
216,232,297487,1,0
200,216,297594,1,0
184,200,297701,1,0
328,256,297916,2,0,B|288:224,2,50
432,288,298344,1,0
416,272,298451,1,0
400,256,298558,1,0
256,192,298764,12,0,300479
408,56,301344,5,0
368,168,301558,1,8
256,216,301772,1,0
144,168,301986,1,8
104,56,302201,1,4
