osu file format v14

[General]
AudioFilename: audio.mp3
AudioLeadIn: 0
PreviewTime: 92173
Countdown: 0
SampleSet: Soft
StackLeniency: 0.7
Mode: 3
LetterboxInBreaks: 0
SpecialStyle: 0
WidescreenStoryboard: 0

[Editor]
DistanceSpacing: 1
BeatDivisor: 4
GridSize: 16
TimelineZoom: 2.799999

[Metadata]
Title:BRAVE OUT
TitleUnicode:BRAVE OUT
Artist:nomico / DOWNFORCE
ArtistUnicode:nomico / DOWNFORCE
Creator:Zylin
Version:Beginner
Source:beatmania IIDX 21 SPADA
Tags:masayoshi minoshima alstroemeria records electrance MAP DX-5 Qprogue Benami Konami
BeatmapID:1467184
BeatmapSetID:693395

[Difficulty]
HPDrainRate:6.5
CircleSize:4
OverallDifficulty:7
ApproachRate:5
SliderMultiplier:1.4
SliderTickRate:1

[Events]
//Background and Video events
0,0,"brave.jpg",0,0
//Break Periods
//Storyboard Layer 0 (Background)
//Storyboard Layer 1 (Fail)
//Storyboard Layer 2 (Pass)
//Storyboard Layer 3 (Foreground)
//Storyboard Sound Samples

[TimingPoints]
273,400,4,2,1,50,1,0
27473,-100,4,2,1,70,0,1
40273,-100,4,2,1,70,0,0
93073,-100,4,2,1,70,0,1
118673,-100,4,2,1,70,0,0

[HitObjects]
64,192,1873,5,2,0:0:0:0:
448,192,1873,1,0,0:0:0:0:
192,192,2273,1,0,0:0:0:0:
448,192,2473,1,2,0:0:0:0:
320,192,2673,1,8,0:0:0:0:
64,192,3073,1,0,0:0:0:0:
320,192,3273,1,2,0:0:0:0:
192,192,3473,1,2,0:0:0:0:
448,192,3873,1,0,0:0:0:0:
64,192,4073,1,2,0:0:0:0:
192,192,4273,128,8,4673:0:0:0:0:
64,192,4673,128,0,5073:0:0:0:0:
192,192,5073,1,6,0:0:0:0:
448,192,5073,1,0,0:0:0:0:
320,192,5473,1,0,0:0:0:0:
64,192,5673,1,2,0:0:0:0:
448,192,5873,1,8,0:0:0:0:
64,192,6273,1,0,0:0:0:0:
320,192,6473,1,2,0:0:0:0:
192,192,6673,1,2,0:0:0:0:
448,192,7073,1,0,0:0:0:0:
192,192,7273,1,2,0:0:0:0:
64,192,7473,128,8,7873:0:0:0:0:
320,192,7873,128,8,8273:0:0:0:0:
64,192,8273,1,6,0:0:0:0:
448,192,8273,1,0,0:0:0:0:
192,192,8673,1,0,0:0:0:0:
448,192,8873,1,2,0:0:0:0:
64,192,9073,1,8,0:0:0:0:
320,192,9473,1,0,0:0:0:0:
192,192,9673,5,2,0:0:0:0:
64,192,9873,1,2,0:0:0:0:
448,192,10273,1,0,0:0:0:0:
192,192,10473,1,2,0:0:0:0:
320,192,10673,1,8,0:0:0:0:
448,192,11073,128,8,11473:0:0:0:0:
64,192,11473,1,6,0:0:0:0:
192,192,11473,1,0,0:0:0:0:
320,192,11873,1,0,0:0:0:0:
448,192,12073,1,2,0:0:0:0:
64,192,12273,128,8,12673:0:0:0:0:
192,192,12673,128,0,13073:0:0:0:0:
448,192,13073,1,2,0:0:0:0:
320,192,13473,1,0,0:0:0:0:
448,192,13873,128,8,14273:0:0:0:0:
192,192,14273,128,8,14673:0:0:0:0:
64,192,14673,1,6,0:0:0:0:
448,192,14673,1,0,0:0:0:0:
448,192,15073,1,2,0:0:0:0:
64,192,15473,1,2,0:0:0:0:
64,192,15873,1,2,0:0:0:0:
192,192,16273,1,2,0:0:0:0:
192,192,16673,1,2,0:0:0:0:
320,192,17073,1,2,0:0:0:0:
320,192,17473,1,2,0:0:0:0:
448,192,17873,1,2,0:0:0:0:
448,192,18273,1,2,0:0:0:0:
192,192,18673,1,2,0:0:0:0:
192,192,19073,1,2,0:0:0:0:
320,192,19473,1,2,0:0:0:0:
320,192,19873,1,2,0:0:0:0:
64,192,20273,1,2,0:0:0:0:
64,192,20673,1,2,0:0:0:0:
448,192,21073,128,2,21873:0:0:0:0:
64,192,21873,128,2,22673:0:0:0:0:
192,192,22673,128,2,23073:0:0:0:0:
448,192,23073,128,2,23473:0:0:0:0:
64,192,23473,128,2,23873:0:0:0:0:
320,192,23873,128,2,24273:0:0:0:0:
64,192,24273,1,8,0:0:0:0:
192,192,24673,1,8,0:0:0:0:
448,192,25073,1,0,0:0:0:0:
320,192,25473,1,0,0:0:0:0:
64,192,25873,128,0,26673:0:0:0:0:
448,192,26673,128,0,27473:0:0:0:0:
320,192,27073,128,0,27473:0:0:0:0:
64,192,27473,1,6,0:0:0:0:
192,192,27473,1,0,0:0:0:0:
448,192,27873,1,8,0:0:0:0:
64,192,28273,1,2,0:0:0:0:
192,192,28673,1,8,0:0:0:0:
448,192,29073,1,2,0:0:0:0:
64,192,29473,1,8,0:0:0:0:
320,192,29873,1,2,0:0:0:0:
64,192,30273,1,8,0:0:0:0:
192,192,30673,1,2,0:0:0:0:
448,192,31073,1,8,0:0:0:0:
192,192,31473,1,2,0:0:0:0:
64,192,31873,1,8,0:0:0:0:
320,192,32273,1,2,0:0:0:0:
448,192,32673,1,8,0:0:0:0:
64,192,33073,128,8,33273:0:0:0:0:
192,192,33273,1,2,0:0:0:0:
448,192,33473,1,8,0:0:0:0:
320,192,33673,1,2,0:0:0:0:
64,192,33873,1,6,0:0:0:0:
192,192,33873,1,0,0:0:0:0:
448,192,34273,1,8,0:0:0:0:
64,192,34673,1,2,0:0:0:0:
192,192,35073,1,8,0:0:0:0:
448,192,35473,1,2,0:0:0:0:
64,192,35873,1,8,0:0:0:0:
320,192,36273,1,2,0:0:0:0:
448,192,36673,1,8,0:0:0:0:
64,192,37073,1,8,0:0:0:0:
192,192,37073,1,0,0:0:0:0:
320,192,37473,1,8,0:0:0:0:
448,192,37473,1,0,0:0:0:0:
64,192,37873,1,8,0:0:0:0:
192,192,37873,1,0,0:0:0:0:
192,192,38273,1,8,0:0:0:0:
320,192,38273,1,0,0:0:0:0:
448,192,38673,128,8,39473:0:0:0:0:
64,192,39473,128,8,39673:0:0:0:0:
448,192,39873,128,8,40073:0:0:0:0:
192,192,40073,1,2,0:0:0:0:
64,192,40273,1,4,0:0:0:0:
448,192,40273,1,2,0:0:0:0:
320,192,40673,1,0,0:0:0:0:
192,192,41073,1,8,0:0:0:0:
320,192,41473,1,0,0:0:0:0:
448,192,41873,128,2,42673:0:0:0:0:
320,192,42673,1,8,0:0:0:0:
192,192,43073,1,2,0:0:0:0:
64,192,43473,128,2,44273:0:0:0:0:
320,192,44273,1,8,0:0:0:0:
192,192,44673,1,2,0:0:0:0:
448,192,45073,1,2,0:0:0:0:
64,192,45473,128,0,45873:0:0:0:0:
448,192,45873,128,8,46273:0:0:0:0:
192,192,46273,128,8,46673:0:0:0:0:
64,192,46673,1,12,0:0:0:0:
448,192,46673,1,0,0:0:0:0:
320,192,47073,1,0,0:0:0:0:
64,192,47473,1,8,0:0:0:0:
320,192,47873,1,0,0:0:0:0:
448,192,48273,1,2,0:0:0:0:
64,192,48673,1,0,0:0:0:0:
192,192,49073,1,8,0:0:0:0:
448,192,49473,1,2,0:0:0:0:
64,192,49873,1,2,0:0:0:0:
320,192,50273,1,2,0:0:0:0:
64,192,50673,128,8,51073:0:0:0:0:
448,192,51073,128,8,51473:0:0:0:0:
64,192,51473,1,6,0:0:0:0:
320,192,51473,1,0,0:0:0:0:
64,192,52673,1,0,0:0:0:0:
192,192,52873,1,0,0:0:0:0:
320,192,53073,1,6,0:0:0:0:
448,192,53073,1,0,0:0:0:0:
64,192,53473,1,8,0:0:0:0:
448,192,53873,1,2,0:0:0:0:
192,192,54273,1,8,0:0:0:0:
64,192,54673,1,2,0:0:0:0:
448,192,55073,1,8,0:0:0:0:
192,192,55473,1,0,0:0:0:0:
448,192,55873,1,8,0:0:0:0:
192,192,56073,1,0,0:0:0:0:
320,192,56273,1,2,0:0:0:0:
64,192,56673,1,8,0:0:0:0:
320,192,57073,1,2,0:0:0:0:
192,192,57473,1,8,0:0:0:0:
448,192,57873,1,2,0:0:0:0:
320,192,58273,1,8,0:0:0:0:
448,192,58673,128,8,58873:0:0:0:0:
192,192,58873,1,2,0:0:0:0:
64,192,59073,128,8,59273:0:0:0:0:
320,192,59273,1,2,0:0:0:0:
64,192,59473,1,6,0:0:0:0:
448,192,59473,1,0,0:0:0:0:
448,192,59873,1,8,0:0:0:0:
192,192,60273,1,2,0:0:0:0:
320,192,60673,1,8,0:0:0:0:
64,192,61073,1,2,0:0:0:0:
192,192,61473,1,8,0:0:0:0:
448,192,61873,1,2,0:0:0:0:
64,192,62273,1,8,0:0:0:0:
320,192,62673,1,2,0:0:0:0:
192,192,63073,1,8,0:0:0:0:
320,192,63473,1,2,0:0:0:0:
448,192,63873,1,8,0:0:0:0:
192,192,64273,1,2,0:0:0:0:
320,192,64673,1,8,0:0:0:0:
64,192,65073,1,2,0:0:0:0:
192,192,65473,1,2,0:0:0:0:
192,192,65673,1,2,0:0:0:0:
320,192,65873,128,2,66273:0:0:0:0:
64,192,66273,1,6,0:0:0:0:
448,192,66273,1,0,0:0:0:0:
192,192,66673,1,2,0:0:0:0:
448,192,67073,1,8,0:0:0:0:
64,192,67473,1,2,0:0:0:0:
320,192,67873,1,8,0:0:0:0:
64,192,68273,1,2,0:0:0:0:
192,192,68673,1,8,0:0:0:0:
448,192,69073,1,2,0:0:0:0:
320,192,69473,1,8,0:0:0:0:
192,192,69873,1,2,0:0:0:0:
64,192,70273,1,8,0:0:0:0:
320,192,70673,1,2,0:0:0:0:
448,192,71073,1,8,0:0:0:0:
192,192,71473,1,2,0:0:0:0:
64,192,71873,128,2,72273:0:0:0:0:
320,192,72273,128,2,72673:0:0:0:0:
448,192,72673,1,8,0:0:0:0:
192,192,73073,128,2,73473:0:0:0:0:
320,192,73473,1,8,0:0:0:0:
64,192,73873,128,2,74273:0:0:0:0:
192,192,74273,1,8,0:0:0:0:
448,192,74673,1,2,0:0:0:0:
320,192,75073,1,8,0:0:0:0:
64,192,75473,128,2,77073:0:0:0:0:
448,192,75873,1,8,0:0:0:0:
320,192,76273,1,2,0:0:0:0:
192,192,76673,1,8,0:0:0:0:
448,192,77073,128,2,77873:0:0:0:0:
192,192,77473,1,8,0:0:0:0:
320,192,77873,1,2,0:0:0:0:
64,192,78273,128,8,78673:0:0:0:0:
320,192,78673,1,6,0:0:0:0:
448,192,78673,1,0,0:0:0:0:
64,192,79073,1,0,0:0:0:0:
448,192,79473,1,8,0:0:0:0:
192,192,79873,1,0,0:0:0:0:
320,192,80273,1,2,0:0:0:0:
64,192,80673,1,0,0:0:0:0:
192,192,81073,1,8,0:0:0:0:
320,192,81273,1,2,0:0:0:0:
448,192,81673,1,2,0:0:0:0:
320,192,81873,1,2,0:0:0:0:
192,192,82273,1,0,0:0:0:0:
64,192,82673,1,8,0:0:0:0:
192,192,82873,1,8,0:0:0:0:
320,192,83073,1,2,0:0:0:0:
448,192,83473,1,2,0:0:0:0:
64,192,83873,1,0,0:0:0:0:
320,192,84273,1,8,0:0:0:0:
448,192,84673,128,8,85073:0:0:0:0:
64,192,85073,1,6,0:0:0:0:
192,192,85073,1,0,0:0:0:0:
192,192,85473,1,2,0:0:0:0:
320,192,85473,1,0,0:0:0:0:
64,192,85873,1,2,0:0:0:0:
448,192,85873,1,0,0:0:0:0:
320,192,86273,1,2,0:0:0:0:
448,192,86273,1,0,0:0:0:0:
64,192,86673,1,2,0:0:0:0:
192,192,86673,1,0,0:0:0:0:
320,192,87073,1,2,0:0:0:0:
448,192,87073,1,0,0:0:0:0:
192,192,87473,1,2,0:0:0:0:
320,192,87473,1,0,0:0:0:0:
64,192,87873,1,2,0:0:0:0:
448,192,87873,1,0,0:0:0:0:
448,192,88273,128,0,89073:0:0:0:0:
64,192,89073,128,2,89873:0:0:0:0:
192,192,89073,128,0,89873:0:0:0:0:
448,192,89873,1,0,0:0:0:0:
320,192,90073,1,0,0:0:0:0:
64,192,90473,128,0,90873:0:0:0:0:
320,192,90873,128,0,91473:0:0:0:0:
448,192,91473,1,0,0:0:0:0:
448,192,92273,128,8,92673:0:0:0:0:
64,192,92673,128,8,93073:0:0:0:0:
320,192,93073,1,6,0:0:0:0:
448,192,93073,1,0,0:0:0:0:
192,192,93473,1,8,0:0:0:0:
64,192,93873,1,2,0:0:0:0:
320,192,94273,128,8,94673:0:0:0:0:
448,192,94673,1,2,0:0:0:0:
64,192,95073,1,8,0:0:0:0:
448,192,95473,1,2,0:0:0:0:
192,192,95873,128,8,96273:0:0:0:0:
64,192,96273,1,2,0:0:0:0:
320,192,96673,1,8,0:0:0:0:
64,192,97073,1,2,0:0:0:0:
192,192,97473,128,8,97873:0:0:0:0:
448,192,97873,1,2,0:0:0:0:
320,192,98273,1,8,0:0:0:0:
64,192,98673,1,2,0:0:0:0:
320,192,99073,128,8,99473:0:0:0:0:
192,192,99473,1,6,0:0:0:0:
448,192,99473,1,0,0:0:0:0:
64,192,99873,1,8,0:0:0:0:
448,192,100273,1,2,0:0:0:0:
192,192,100673,1,8,0:0:0:0:
448,192,101073,1,2,0:0:0:0:
320,192,101473,1,8,0:0:0:0:
64,192,101873,1,2,0:0:0:0:
448,192,102273,1,8,0:0:0:0:
192,192,102673,128,2,103073:0:0:0:0:
320,192,103073,1,8,0:0:0:0:
64,192,103473,128,2,103873:0:0:0:0:
320,192,103873,1,8,0:0:0:0:
448,192,104273,128,2,104673:0:0:0:0:
192,192,104673,1,2,0:0:0:0:
64,192,105073,128,8,105273:0:0:0:0:
192,192,105273,1,2,0:0:0:0:
448,192,105473,128,8,105673:0:0:0:0:
320,192,105673,1,2,0:0:0:0:
64,192,105873,1,6,0:0:0:0:
192,192,105873,1,0,0:0:0:0:
448,192,106173,1,2,0:0:0:0:
448,192,106473,1,2,0:0:0:0:
64,192,106673,128,8,106873:0:0:0:0:
320,192,106873,1,2,0:0:0:0:
192,192,107073,1,12,0:0:0:0:
64,192,107473,1,2,0:0:0:0:
448,192,107473,1,0,0:0:0:0:
320,192,107773,1,2,0:0:0:0:
448,192,108073,1,2,0:0:0:0:
64,192,108273,1,8,0:0:0:0:
192,192,108473,1,2,0:0:0:0:
320,192,108673,128,8,109073:0:0:0:0:
448,192,109073,1,6,0:0:0:0:
64,192,109073,1,0,0:0:0:0:
192,192,109373,1,8,0:0:0:0:
448,192,109673,128,8,109873:0:0:0:0:
320,192,109873,1,8,0:0:0:0:
64,192,110073,128,2,110273:0:0:0:0:
192,192,110273,1,8,0:0:0:0:
448,192,110673,128,8,111473:0:0:0:0:
320,192,111473,1,2,0:0:0:0:
192,192,111673,1,2,0:0:0:0:
64,192,111873,128,8,112273:0:0:0:0:
320,192,112273,1,6,0:0:0:0:
448,192,112273,1,0,0:0:0:0:
192,192,112673,1,8,0:0:0:0:
448,192,113073,1,2,0:0:0:0:
64,192,113473,1,8,0:0:0:0:
192,192,113873,1,6,0:0:0:0:
320,192,113873,1,0,0:0:0:0:
448,192,114273,1,8,0:0:0:0:
64,192,114673,1,2,0:0:0:0:
320,192,115073,1,8,0:0:0:0:
448,192,115473,1,6,0:0:0:0:
64,192,115473,1,0,0:0:0:0:
192,192,115873,1,12,0:0:0:0:
320,192,115873,1,0,0:0:0:0:
64,192,116273,1,12,0:0:0:0:
192,192,116273,1,0,0:0:0:0:
320,192,116673,1,12,0:0:0:0:
448,192,116673,1,0,0:0:0:0:
192,192,117073,128,2,117473:0:0:0:0:
448,192,117473,128,2,117873:0:0:0:0:
64,192,117873,128,2,118273:0:0:0:0:
320,192,118273,128,2,118573:0:0:0:0:
192,192,118573,1,2,0:0:0:0:
