osu file format v4

[General]
AudioFilename: OUENDAN Kokoro Odoru.mp3
AudioLeadIn: 0
AudioHash: d7436e42558f709b14df2d8136c82343
PreviewTime: -1
Countdown: 1
SampleSet: Normal

[Metadata]
Title:Kokoro Odoru
Artist:nobodyknows+
Creator:Kai
Version:Easy

[Difficulty]
HPDrainRate:3
CircleSize:5
OverallDifficulty:3
SliderMultiplier: 1.4
SliderTickRate: 2

[Events]
//Background and Video events
//Break Periods
2,50608,66383
2,84659,102684
2,120749,127989
//Storyboard Layer 0 (Background)
//Storyboard Layer 1 (Failing)
//Storyboard Layer 2 (Passing)
//Storyboard Layer 3 (Foreground)
//Storyboard Sound Samples
//Background Colour Transformations
3,100,163,162,255

[TimingPoints]
-62,530.973451327434,4,1,0,100

[HitObjects]
200,112,16663,1,0
312,112,16929,1,0
256,296,17991,1,0
200,112,18787,5,0
312,112,19053,1,0
256,296,20114,1,0
448,144,21176,5,0
336,144,21707,1,0
208,144,22238,1,0
80,144,22769,1,0
72,320,23300,6,0,B|72:320|440:320,1,350
344,232,25424,5,0
160,232,26486,1,0
256,96,27548,1,0
352,272,29407,5,0
352,336,29672,1,0
144,280,30468,1,0
144,344,30734,1,0
328,200,31796,5,0
184,200,32327,1,0
168,48,32858,5,0
256,48,33123,1,0
336,48,33389,1,0
368,256,33920,6,0,B|368:256|392:184|368:104,1,140
256,112,34982,1,0
256,320,35513,1,0
144,256,36044,6,0,B|144:256|120:184|144:104,1,140
256,112,37106,1,0
256,320,37637,1,0
368,256,38168,6,0,B|368:256|392:184|368:104,1,140
144,128,39230,2,0,B|144:128|120:200|144:280,1,140
368,256,40291,6,0,B|368:256|392:184|368:104,1,140
256,128,41353,1,0
256,320,41884,1,0
144,256,42415,6,0,B|144:256|120:184|144:104,1,140
256,128,43477,1,0
256,320,44008,1,0
368,256,44539,6,0,B|368:256|392:184|368:104,1,140
256,128,45601,1,0
256,320,46132,1,0
144,256,46663,6,0,B|144:256|120:184|144:104,1,140
376,120,47725,2,0,B|376:120|400:192|376:272,1,140
144,256,48787,6,0,B|144:256|120:184|144:104,1,140
256,96,49849,1,0
256,304,50380,1,0
312,256,67637,5,0
208,256,67902,1,0
256,88,68964,1,0
312,256,69761,5,0
208,256,70026,1,0
256,88,71088,1,0
64,240,72150,5,0
176,240,72681,1,0
304,240,73212,1,0
432,240,73743,1,0
440,64,74274,6,0,B|440:64|72:64,1,350
136,192,76398,5,0
400,192,77460,1,0
256,312,78522,1,0
168,112,80380,5,0
168,40,80645,1,0
344,112,81442,1,0
344,40,81707,1,0
192,184,82769,5,0
312,184,83300,1,0
344,336,83831,5,0
256,336,84097,1,0
176,336,84362,1,0
256,48,104008,5,0
176,336,105070,1,0
328,336,105601,1,0
256,48,106132,5,0
176,336,107194,1,0
256,336,107460,1,0
336,336,107725,1,0
256,40,108256,5,0
176,336,109318,1,0
336,336,109849,1,0
256,40,110380,5,0
176,336,111442,1,0
256,336,111707,1,0
336,336,111973,1,0
48,152,112504,5,0
256,80,113566,1,0
256,272,114097,1,0
480,184,114628,5,0
256,80,115690,1,0
256,160,115955,1,0
256,232,116221,1,0
32,152,116752,5,0
232,336,117814,1,2
352,328,118345,1,2
456,288,118876,1,2
496,168,119407,2,2,B|496:168|392:248|216:168,1,280
208,120,129230,5,0
304,120,129495,1,0
256,296,130557,1,0
200,128,131353,5,0
312,128,131619,1,0
256,296,132681,1,0
448,144,133743,5,0
336,144,134274,1,0
208,144,134805,1,0
80,144,135336,1,0
72,320,135867,6,0,B|72:320|440:320,1,350
360,256,137991,5,0
160,256,139053,1,0
256,96,140114,1,0
352,272,141973,5,0
352,336,142238,1,0
144,280,143035,1,0
144,344,143300,1,0
328,200,144362,5,0
184,200,144893,1,0
168,48,145424,5,0
256,48,145690,1,0
336,48,145955,1,0
352,184,146486,5,0
352,320,147548,1,0
120,312,148610,1,0
120,176,149672,1,0
448,280,150734,5,0
336,280,151265,1,0
192,280,151796,1,0
64,280,152327,1,0
48,72,152858,6,0,B|48:72|416:72,1,350
368,208,154982,5,0
96,208,156044,1,0
256,344,157106,1,0
256,192,158035,12,0,162946
