osu file format v4

[General]
AudioFilename: nobodyknows+ - El Mirador.mp3
AudioLeadIn: 0
AudioHash: c95c9b8f4f2d81610398b855c1cac067
PreviewTime: -1
Countdown: 1
SampleSet: Normal

[Metadata]
Title:El Mirador
Artist:nobodyknows+
Creator:metalsonic3
Version:Hard

[Difficulty]
HPDrainRate:4
CircleSize:5
OverallDifficulty:6
SliderMultiplier: 1.4
SliderTickRate: 1

[Events]
//Background and Video events
//Break Periods
2,35895,51157
2,93314,99594
2,117921,125494
2,199949,207264
//Storyboard Layer 0 (Background)
//Storyboard Layer 1 (Failing)
//Storyboard Layer 2 (Passing)
//Storyboard Layer 3 (Foreground)
//Storyboard Sound Samples
//Background Colour Transformations
3,100,146,158,255

[TimingPoints]
19825,512.667378251872,4,1,0,100

[HitObjects]
128,192,18799,1,0
128,128,19312,1,0
128,96,19568,1,0
160,96,19833,5,0
192,96,20081,1,0
224,96,20345,1,0
256,96,20594,1,0
288,96,20858,1,0
288,128,21114,1,0
288,160,21371,1,0
288,192,21627,1,0
288,224,21883,1,2
288,256,22132,5,0
288,288,22396,2,0,B|288:288|96:256|32:128,1,280
96,160,23670,1,0
96,128,23934,6,0,B|96:128|256:128,3,140
352,128,25977,5,0
352,160,26233,1,0
352,192,26489,1,0
320,224,26746,1,0
288,256,27002,1,0
256,224,27258,1,0
224,192,27515,1,0
128,96,28027,6,0,C|128:96|128:288|384:320,2,420
160,96,31360,1,0
192,96,31616,1,0
352,128,32129,5,0
352,160,32385,1,0
352,192,32641,1,0
320,192,32898,1,0
288,192,33154,1,0
288,160,33410,1,0
288,128,33666,1,0
224,160,34179,6,0,B|224:160|96:32,3,140
256,160,52379,5,0
256,192,52635,1,0
256,224,52892,1,0
256,256,53148,1,0
288,256,53404,1,0
320,256,53661,1,0
352,256,53917,1,0
352,224,54173,1,0
352,192,54430,5,0
352,160,54686,1,0
320,160,54942,1,0
288,160,55199,1,0
256,160,55455,1,0
224,160,55711,1,0
224,224,56224,1,0
224,256,56480,1,0
320,256,56993,5,0
320,224,57249,1,0
320,160,57762,1,0
320,128,58018,1,0
320,96,58275,1,0
224,96,58787,2,0,B|224:96|32:96,3,140
64,128,60582,5,0
64,160,60838,1,0
96,192,61094,1,0
128,224,61351,1,0
160,224,61608,1,0
192,192,61864,1,0
192,160,62120,1,0
192,128,62376,1,0
448,32,62889,6,0,B|448:32|448:288|320:384|192:384|96:288|96:0,1,770
128,32,65965,1,0
160,32,66221,1,0
192,32,66477,1,0
224,32,66734,1,0
256,32,66990,5,0
256,64,67246,1,0
256,96,67503,1,0
256,128,67759,1,0
256,160,68015,1,0
256,192,68272,1,0
256,256,68784,1,0
352,288,69297,5,0
352,256,69553,1,0
352,224,69810,1,0
352,192,70066,1,0
352,160,70322,1,0
352,128,70579,1,0
320,128,70835,1,0
288,128,71091,2,0,B|288:128|192:256,3,140
160,256,73142,5,2
192,256,73398,1,0
224,256,73655,1,0
256,256,73911,1,0
288,256,74167,1,0
320,256,74424,1,0
352,256,74680,1,0
352,224,74936,1,0
320,224,75193,1,0
288,224,75449,1,0
256,224,75705,1,0
256,128,76474,5,0
224,128,76731,1,0
192,128,76987,1,0
128,192,77500,6,0,B|128:192|128:320|288:352,2,210
160,192,79550,5,0
192,192,79807,1,0
224,192,80063,1,0
256,192,80319,1,0
288,192,80576,1,0
320,192,80832,1,0
352,192,81088,1,0
352,160,81345,2,0,B|352:160|160:160,1,140
192,128,82114,1,0
224,96,82370,2,0,B|224:96|384:96,1,140
384,96,83139,1,0
416,96,83395,2,2,B|416:96|384:288|32:224,1,420
65,197,85190,1,0
96,160,85446,5,0
128,160,85702,1,0
160,160,85959,1,0
192,160,86215,1,0
224,160,86471,1,0
256,192,86728,1,0
288,224,86984,1,0
320,256,87240,1,0
320,288,87497,5,0
288,288,87753,1,0
256,288,88009,1,0
224,256,88266,1,0
192,256,88522,1,0
192,224,88778,1,0
192,192,89035,1,0
256,160,89547,6,0,B|256:160|416:160,3,140
416,160,91342,1,0
448,160,91598,2,0,B|448:160|341:33|195:32|64:160,1,420
256,160,100816,5,0
352,160,101329,1,0
352,128,101595,1,0
352,96,101841,2,0,B|352:96|192:96,1,140
192,96,102620,1,0
160,128,102877,1,0
160,160,103133,1,0
160,192,103390,1,0
160,224,103646,1,0
160,256,103902,1,0
160,288,104158,1,0
192,288,104415,6,0,C|192:288|381:282|416:128,1,350
384,128,105953,1,0
352,128,106209,1,0
320,128,106465,1,0
288,128,106722,1,0
256,128,106978,1,0
224,128,107234,1,0
192,128,107491,1,0
160,128,107747,5,0
160,160,108004,1,0
160,192,108260,1,0
160,224,108515,1,0
160,256,108772,1,0
192,256,109029,1,0
224,256,109285,1,0
256,256,109541,1,0
320,96,110054,5,0
320,192,110567,1,0
320,288,111079,1,0
288,288,111336,1,0
256,288,111592,1,0
224,288,111848,1,0
192,288,112105,1,0
192,256,112361,1,0
192,224,112617,1,0
192,192,112874,1,0
192,160,113130,1,0
192,128,113386,1,0
192,96,113643,1,0
96,64,114155,6,0,B|96:64|96:224|192:352,2,280
128,64,116462,1,0
160,64,116719,1,0
192,64,116975,1,0
224,64,117231,1,0
256,64,117488,1,0
288,64,117744,1,0
224,160,126716,5,0
224,192,126972,1,0
224,224,127228,1,0
224,256,127485,1,0
288,256,127997,6,0,C|288:256|288:96,1,140
320,96,128766,1,0
352,128,129023,1,0
384,160,129279,1,0
352,192,129535,1,0
320,192,129792,1,0
288,192,130048,1,0
256,192,130304,12,0,134406
256,192,134918,1,0
288,192,135175,1,0
320,192,135431,1,0
352,192,135687,1,0
352,160,135944,1,0
352,128,136200,1,0
128,96,136713,5,0
128,128,136969,1,0
128,160,137225,1,0
128,192,137482,1,0
128,224,137738,1,0
128,256,137994,1,0
128,288,138251,1,0
128,320,138507,2,0,B|128:320|192:320,3,70
352,320,139789,6,0,B|352:320|352:160|288:128|192:128,2,280
384,320,142096,1,0
416,320,142352,1,0
416,96,142865,5,0
384,96,143121,1,0
352,96,143377,1,0
320,96,143634,1,0
288,96,143890,1,0
256,96,144146,1,0
224,96,144403,1,0
192,96,144659,1,0
160,128,144915,5,0
160,160,145172,1,0
192,160,145428,1,0
224,160,145684,1,0
256,160,145941,2,0,C|256:160|416:160,1,140
384,256,146966,6,0,B|384:256|96:256,2,280
384,192,149529,1,0
384,128,150042,1,0
352,128,150298,1,0
320,128,150555,1,0
288,128,150811,1,0
256,128,151067,5,0
256,160,151324,1,0
256,192,151580,1,0
256,224,151836,1,0
256,256,152093,1,0
256,288,152349,1,0
288,288,152605,2,0,B|288:288|384:160,1,140
352,160,153374,5,0
320,160,153631,1,0
288,160,153887,1,0
256,160,154143,1,0
224,160,154400,1,0
192,160,154656,2,0,B|192:160|192:320,1,140
128,256,155425,5,0
128,288,155681,1,0
160,288,155938,1,0
192,288,156194,1,0
224,256,156450,1,0
256,224,156707,1,0
288,192,156963,1,0
320,160,157219,1,0
352,160,157476,1,0
384,160,157732,1,0
416,160,157988,1,0
416,128,158245,1,0
416,96,158501,1,0
416,64,158757,1,0
416,32,159014,1,0
384,32,159270,5,0
352,32,159526,1,0
320,32,159783,1,0
288,32,160039,1,0
256,32,160295,1,0
224,32,160552,1,0
192,32,160808,1,0
160,32,161064,1,0
128,64,161321,1,0
128,96,161577,1,0
128,128,161833,1,0
128,160,162090,1,0
128,192,162346,1,0
128,224,162602,1,0
128,256,162859,1,0
128,288,163115,1,0
160,288,163371,6,0,B|160:288|256:128,3,140
288,64,165422,1,0
192,64,165935,1,0
96,64,166447,1,0
96,96,166704,1,0
96,128,166960,1,0
96,192,167473,6,0,B|96:192|96:352|288:352,1,280
288,352,169011,1,0
288,352,169523,2,0,B|288:352|480:352|480:192,1,280
480,160,170805,1,0
480,128,171061,1,0
384,128,171574,5,0
288,128,172087,1,0
192,128,172599,1,0
160,128,172856,1,0
128,128,173112,1,0
96,128,173368,1,0
96,160,173625,5,0
96,192,173881,1,0
96,224,174137,1,0
96,256,174394,1,0
96,288,174650,1,0
96,320,174906,1,0
384,320,175419,5,0
384,288,175675,1,0
384,256,175932,1,0
384,224,176189,1,0
384,192,176444,1,0
352,160,176701,1,0
320,128,176957,1,0
288,96,177214,1,0
256,128,177470,1,0
224,160,177727,1,0
256,192,177982,1,0
288,224,178239,1,0
288,256,178495,1,0
256,256,178751,2,0,B|256:256|128:128,1,140
256,192,179520,12,0,183878
256,192,184391,1,0
320,192,184903,1,0
352,192,185160,1,0
384,192,185416,1,0
416,192,185672,2,0,B|416:192|416:64,1,70
352,64,186441,6,0,B|352:64|160:64|128:224,1,280
128,224,187723,1,0
160,224,187979,1,0
192,224,188236,1,0
224,224,188492,1,0
256,224,188748,1,0
288,224,189005,1,0
320,224,189261,1,0
352,224,189517,1,0
352,160,190030,5,0
352,128,190286,1,0
352,96,190543,1,0
320,96,190799,1,0
288,96,191055,1,0
288,128,191312,1,0
288,160,191568,1,0
192,64,192081,6,0,C|192:64|139:102|84:154|78:252|126:331|384:320,1,560
352,288,194388,1,0
352,256,194644,1,0
352,224,194900,1,0
352,192,195157,1,0
352,160,195413,1,0
352,128,195669,1,0
160,224,196182,5,0
192,224,196438,1,0
224,224,196695,1,0
256,224,196951,1,0
288,224,197207,1,0
320,224,197464,1,0
352,224,197720,1,0
352,192,197976,5,0
352,160,198233,1,0
320,160,198489,1,0
288,160,198745,1,0
256,160,199002,1,0
224,160,199258,1,0
192,160,199514,1,0
160,160,199771,1,0
64,192,208486,5,0
64,256,208999,1,0
128,256,209511,1,0
128,192,210024,1,0
256,192,210537,5,0
256,128,211049,1,0
320,128,211562,1,0
320,192,212075,1,0
320,256,212587,5,0
256,256,213100,1,0
192,256,213613,1,0
192,192,214125,1,0
256,192,214638,1,0
256,256,215151,1,0
256,320,215663,1,0
256,256,216176,1,0
256,192,216689,5,0
320,192,217201,1,0
384,192,217714,1,0
384,128,218227,1,0
320,128,218739,1,0
256,128,219252,1,0
192,128,219765,1,0
192,192,220277,1,0
256,192,220790,1,0
256,192,221815,5,0
256,192,222841,5,0
256,192,223353,1,0
256,192,223866,1,0
256,192,224379,1,0
352,192,224891,5,0
352,128,225404,2,0,C|352:128|192:128,1,140
192,128,226173,1,0
160,128,226429,1,0
128,128,226686,1,0
96,128,226942,1,0
64,128,227198,1,0
64,160,227455,6,0,B|64:160|96:288|320:288,1,280
320,288,228736,5,0
320,256,228993,1,0
320,224,229249,1,0
320,192,229505,1,0
320,160,229762,1,0
320,128,230018,1,0
320,96,230274,1,0
320,64,230531,1,0
320,32,230787,1,0
288,32,231043,2,0,B|288:32|160:160,1,140
192,160,231812,5,0
224,160,232068,1,0
256,160,232324,1,0
288,160,232581,1,0
320,160,232838,1,0
352,160,233094,5,0
352,192,233350,1,0
320,224,233607,1,0
288,256,233863,1,0
256,224,234119,1,0
224,192,234376,1,0
256,160,234632,1,0
288,128,234888,1,0
256,96,235145,1,0
224,64,235401,1,0
192,96,235657,1,0
160,128,235914,1,0
128,160,236170,1,0
160,192,236426,1,0
192,224,236683,1,0
384,288,237195,5,0
384,256,237452,1,0
384,224,237708,1,0
384,192,237964,1,0
384,160,238221,2,0,B|384:160|320:160,2,70
384,128,238990,1,0
384,96,239246,2,0,B|384:96|288:32|128:64|96:160,1,280
128,128,240528,1,0
128,160,240784,1,0
128,192,241040,1,0
128,224,241297,1,0
192,288,241809,5,0
256,288,242322,2,0,B|256:288|256:128,2,140
352,288,243860,5,0
352,256,244116,1,0
352,224,244373,1,0
352,192,244629,1,0
352,160,244885,1,0
352,128,245142,6,0,B|352:128|256:128,3,70
288,128,246167,2,0,B|288:128|288:192,3,70
288,192,247192,1,0
320,192,247449,6,0,B|320:192|288:320|64:288|32:64,1,420
64,64,249243,5,0
96,64,249499,1,0
128,64,249756,1,0
160,64,250012,1,0
192,64,250268,1,0
224,96,250525,1,0
192,128,250781,1,0
224,160,251037,1,0
192,192,251294,1,0
224,224,251550,1,0
256,256,251806,1,0
288,224,252063,1,0
320,192,252319,1,0
288,160,252575,1,0
256,128,252832,1,0
224,96,253088,1,0
256,192,253344,12,0,257189
