osu file format v9

[General]
AudioFilename: 05 Kokoro Odoru.mp3
AudioLeadIn: 2504
PreviewTime: 197298
Countdown: 1
SampleSet: Soft
StackLeniency: 0.7
Mode: 0
LetterboxInBreaks: 1

[Editor]
DistanceSpacing: 1
BeatDivisor: 4
GridSize: 8

[Metadata]
Title:Kokoro Odoru
Artist:nobodyknows+
Creator:Lunah
Version:Insane
Source:
Tags:

[Difficulty]
HPDrainRate:7
CircleSize:4
OverallDifficulty:7
ApproachRate:8
SliderMultiplier:1.6
SliderTickRate:1

[Events]
//Background and Video events
0,0,"bg_1.jpg"
//Break Periods
2,6480,7655
2,76835,82256
2,110285,117964
2,144799,162964
2,180905,188186
2,219136,222168
//Storyboard Layer 0 (Background)
//Storyboard Layer 1 (Fail)
//Storyboard Layer 2 (Pass)
//Storyboard Layer 3 (Foreground)
//Storyboard Sound Samples
//Background Colour Transformations
3,100,0,0,0

[TimingPoints]
175,265.486725663717,4,2,0,61,1,0
440,-200,4,2,0,61,0,0
7879,-100,4,1,0,81,0,0
8604,-100,4,1,0,90,0,0
8869,-100,4,1,0,80,0,0
10728,-100,4,1,0,89,0,0
10993,-100,4,1,0,80,0,0
12851,-100,4,1,0,91,0,0
13051,-100,4,1,0,91,0,0
14975,-200,4,1,0,71,0,0
16303,-200,4,1,0,79,0,0
16900,-100,4,1,0,81,0,0
17099,-100,4,1,0,90,0,0
17298,-100,4,1,0,79,0,0
21347,-100,4,1,0,91,0,0
21546,-100,4,1,0,79,0,0
22409,-100,4,1,0,91,0,0
22542,-100,4,1,0,78,0,0
25595,-100,4,1,0,100,0,0
25794,-100,4,1,0,80,0,0
34090,-100,4,1,0,91,0,0
34290,-100,4,1,0,79,0,0
38338,-100,4,1,0,92,0,0
38471,-100,4,1,0,80,0,0
39400,-100,4,1,0,91,0,0
40462,-100,4,1,0,91,0,0
40595,-100,4,1,0,79,0,0
42586,-100,4,1,0,91,0,0
42785,-100,4,1,0,79,0,0
51082,-100,4,1,0,92,0,0
51281,-100,4,1,0,80,0,0
55329,-100,4,1,0,91,0,0
55462,-100,4,1,0,80,0,0
56391,-100,4,1,0,91,0,0
56524,-100,4,1,0,80,0,0
57453,-100,4,1,0,90,0,0
57586,-100,4,1,0,80,0,0
58515,-100,4,1,0,61,0,0
58714,-100,4,1,0,71,0,0
58847,-100,4,1,0,81,0,0
58980,-100,4,1,0,89,0,0
59113,-100,4,1,0,100,0,0
59644,-100,4,1,0,100,0,1
59776,-100,4,1,0,79,0,1
61701,-100,4,1,0,92,0,1
61900,-100,4,1,0,80,0,1
63825,-100,4,1,0,92,0,1
63958,-100,4,1,0,80,0,1
65949,-100,4,1,0,92,0,1
66148,-100,4,1,0,79,0,1
68073,-100,4,1,0,91,0,1
68205,-100,4,1,0,80,0,1
72321,-100,4,1,0,92,0,1
72520,-100,4,1,0,79,0,1
73382,-100,4,1,0,91,0,1
73582,-100,4,1,0,78,0,1
76568,-100,4,1,0,81,0,0
76635,-100,4,1,0,100,0,1
76701,-100,4,1,0,81,0,0
89312,-100,4,1,0,92,0,0
89444,-100,4,1,0,79,0,0
90374,-100,4,1,0,92,0,0
90506,-100,4,1,0,79,0,0
91436,-100,4,1,0,91,0,0
91568,-100,4,1,0,79,0,0
91967,-100,4,1,0,93,0,0
92099,-100,4,1,0,80,0,0
92498,-100,4,1,0,92,0,0
92597,-100,4,1,0,78,0,0
93028,-100,4,1,0,93,0,0
93161,-100,4,1,0,79,0,0
93559,-100,4,1,0,91,0,0
93692,-100,4,1,0,80,0,0
106303,-100,4,1,0,91,0,0
108294,-100,4,1,0,79,0,0
119046,-100,4,1,0,91,0,0
119245,-100,4,1,0,79,0,0
123294,-100,4,1,0,92,0,0
123427,-100,4,1,0,78,0,0
124356,-100,4,1,0,92,0,0
124489,-100,4,1,0,79,0,0
125418,-100,4,1,0,91,0,0
125551,-100,4,1,0,78,0,0
127608,-100,4,1,0,100,0,1
127741,-100,4,1,0,80,0,1
129666,-100,4,1,0,92,0,1
129865,-100,4,1,0,79,0,1
131790,-100,4,1,0,93,0,1
131922,-100,4,1,0,80,0,1
133913,-100,4,1,0,93,0,1
135175,-100,4,1,0,79,0,1
136037,-100,4,1,0,92,0,1
136236,-100,4,1,0,79,0,1
140285,-100,4,1,0,91,0,1
140484,-100,4,1,0,79,0,1
140750,-100,4,1,0,91,0,1
141082,-100,4,1,0,79,0,1
141347,-100,4,1,0,91,0,1
141546,-100,4,1,0,79,0,1
144068,-100,4,1,0,81,0,0
144467,-100,4,1,0,11,0,0
144732,-100,4,1,0,81,0,0
146524,-100,4,1,0,59,0,0
166834,-100,4,1,0,81,0,0
167697,-100,4,1,0,60,0,0
177453,-100,4,1,0,40,0,0
180705,-100,4,1,0,100,0,1
180772,-100,4,1,0,59,0,0
188803,-100,4,1,0,40,0,0
190794,-100,4,1,0,50,0,0
193183,-100,4,1,0,60,0,0
193847,-100,4,1,0,70,0,0
194378,-100,4,1,0,78,0,0
195175,-100,4,1,0,90,0,0
195506,-100,4,1,0,82,0,0
195838,-100,4,1,0,91,0,0
196104,-100,4,1,0,100,0,0
196635,-100,4,1,0,100,0,0
197697,-100,4,1,0,100,0,1
197896,-100,4,1,0,83,0,1
199754,-100,4,1,0,91,0,1
199953,-100,4,1,0,80,0,1
201878,-100,4,1,0,91,0,1
202011,-100,4,1,0,79,0,1
204002,-100,4,1,0,92,0,1
205263,-100,4,1,0,79,0,1
210374,-100,4,1,0,92,0,1
210573,-100,4,1,0,78,0,1
211436,-100,4,1,0,91,0,1
211635,-100,4,1,0,91,0,1
214621,-100,4,1,0,83,0,0
214688,-100,4,1,0,100,0,1
214754,-100,4,1,0,81,0,0
215617,-100,4,1,0,100,0,0
215882,-100,4,1,0,78,0,0
216679,-100,4,1,0,100,0,0
216944,-100,4,1,0,79,0,0
217741,-100,4,1,0,100,0,0
222586,-100,4,1,0,68,0,0
227365,-100,4,1,0,92,0,0
227564,-100,4,1,0,70,0,0
228427,-100,4,1,0,92,0,0
228626,-100,4,1,0,68,0,0
231347,-100,4,2,0,83,0,0
231679,-200,4,2,0,72,0,0
248405,-200,4,2,0,59,0,0
248604,-200,4,2,0,79,0,1

[Colours]
Combo1 : 235,200,1
Combo2 : 3,152,3
Combo3 : 3,3,146
Combo4 : 163,3,3

[HitObjects]
64,72,175,1,4
120,128,440,2,0,B|184:192,1,80,0|2
240,136,971,1,0
320,136,1236,2,0,B|360:56,1,80,0|2
392,48,1635,1,0
432,48,1767,1,0
464,72,1900,1,0
480,112,2033,1,2
480,192,2298,6,0,B|480:248|432:248,1,80,0|2
376,192,2829,2,0,B|288:192,1,80,0|2
288,272,3360,2,0,B|192:272,1,80,0|2
168,272,3759,1,0
128,272,3891,1,0
64,224,4157,1,2
112,160,4422,6,0,B|112:104|168:104,1,80,0|2
200,176,4953,2,0,B|296:176,1,80,0|2
320,176,5351,1,0
360,176,5484,1,0
440,176,5750,2,2,B|488:176,4,40,2|0|2|0|2
88,48,8405,5,2
408,48,8670,1,4
464,200,8936,5,2
392,160,9068,1,0
392,240,9201,2,0,B|392:304|312:304,1,80,8|0
272,304,9467,1,0
192,304,9599,1,0
136,248,9732,1,8
80,304,9865,1,0
24,248,9998,1,2
80,192,10130,2,0,B|80:88,1,80
216,32,10528,5,2
440,264,10794,1,4
472,104,11059,5,2
408,48,11192,1,0
360,112,11325,2,0,B|304:112|288:168,1,80,8|0
272,224,11590,2,0,B|272:280|216:288,1,80,2|0
152,280,11856,1,8
88,232,11989,1,0
48,160,12121,1,2
128,160,12254,1,0
208,160,12387,1,8
368,160,12652,1,2
248,48,12918,6,0,B|144:48,1,80,12|0
224,104,13183,2,0,B|328:104,1,80,2|0
384,104,13449,1,8
384,104,13714,1,2
384,264,13980,2,0,B|384:328|320:328,1,80,8|0
264,328,14245,2,0,B|168:328,1,80,2|0
120,280,14511,1,8
64,216,14644,1,0
120,160,14776,1,2
240,176,15042,6,0,B|328:176,1,80,12|2
280,104,15440,2,0,B|184:104,1,80
240,32,15838,2,0,B|320:32,1,80,2|8
480,40,16369,2,0,B|480:88,1,40,2|0
480,120,16635,1,8
400,272,16900,5,2
328,304,17033,1,0
248,328,17166,2,8,B|144:328|144:224,1,160,12|2
72,192,17564,1,0
176,72,17829,2,0,B|272:72,1,80,0|2
336,72,18095,2,0,B|432:72,1,80,0|8
408,232,18493,2,0,B|408:328,1,80,2|0
184,232,19024,6,0,B|128:232|128:288,2,80,2|0|8
184,72,19555,1,2
248,128,19688,1,0
312,184,19821,1,8
424,72,20086,2,0,B|384:152|488:136|408:248,1,160,2|8
296,312,20617,2,0,B|184:312,1,80,2|0
128,312,20882,1,8
40,176,21148,5,2
128,40,21413,2,8,B|192:104,1,80,12|8
240,152,21679,1,2
296,208,21812,1,0
360,160,21944,1,8
472,48,22210,2,0,B|376:48,1,80,2|0
312,48,22475,2,0,B|232:48,1,80,12|0
168,96,22741,1,2
112,152,22874,2,0,B|48:216,1,80,0|8
160,312,23272,5,2
240,336,23405,1,0
320,328,23537,1,8
392,288,23670,1,0
440,224,23803,1,2
432,144,23936,1,0
384,80,24068,5,8
312,48,24201,1,0
232,40,24334,1,8
152,48,24467,1,0
80,88,24599,1,2
48,160,24732,1,0
72,240,24865,1,8
128,296,24998,1,0
200,328,25130,2,0,B|424:336|400:120,1,320,2|4
240,136,25927,6,0,B|160:136,2,80,2|0|8
400,136,26458,1,0
440,288,26723,1,8
368,320,26856,2,0,B|288:280,1,80,0|0
136,280,27254,1,8
248,168,27520,1,0
400,136,27785,5,8
360,64,27918,1,0
288,40,28051,1,0
208,40,28183,1,0
128,40,28316,2,0,B|72:40|72:96,2,80,8|0|0
288,40,28847,1,8
408,336,29113,1,0
96,280,29378,1,8
288,40,29644,1,0
432,120,29909,6,0,B|480:144|440:184,1,80,8|0
360,184,30175,1,0
280,184,30307,2,0,B|192:184,1,80,0|8
200,184,30705,1,0
104,56,30971,2,0,B|208:56,1,80,8|0
256,96,31236,2,0,B|360:96,1,80
336,96,31502,1,8
336,96,31767,1,0
272,256,32033,5,8
208,304,32166,2,0,B|136:360,1,80
48,160,32564,1,8
464,160,32829,1,0
464,320,33095,2,0,B|368:320|368:208,1,160,8|0
304,168,33493,1,0
248,112,33626,1,8
112,32,33891,5,0
192,32,34024,2,0,B|296:32,1,80,0|12
432,40,34422,1,0
424,200,34688,1,8
440,360,34953,2,0,B|368:296,1,80
304,272,35219,1,8
264,336,35351,1,0
200,288,35484,1,0
120,288,35617,2,0,B|32:288,1,80,0|8
120,152,36015,1,0
256,72,36281,6,0,B|320:72|320:24,1,80,8|0
304,112,36546,2,0,B|352:112|352:168,1,80
360,80,36812,2,0,B|416:80|416:16,1,80,8|0
392,112,37077,2,0,B|464:112|464:176,1,80
464,224,37343,1,8
424,296,37475,1,0
344,312,37608,1,0
184,312,37874,1,8
464,224,38139,1,0
464,64,38405,6,0,B|352:64,1,80,12|0
432,128,38670,2,0,B|336:128,1,80
272,128,38936,1,8
120,160,39201,1,0
232,280,39467,2,0,B|328:280,1,80,12|0
392,280,39732,1,0
472,280,39865,1,0
432,208,39998,1,8
432,208,40263,1,0
392,56,40528,6,0,B|288:56,1,80,8|0
280,128,40794,2,0,B|392:128,1,80
440,136,41059,1,8
424,216,41192,1,0
384,288,41325,1,0
344,216,41458,1,0
304,288,41590,5,8
264,216,41723,1,0
224,288,41856,1,0
144,288,41989,2,0,B|88:232,1,80,0|8
152,64,42387,5,0
200,128,42520,1,0
248,64,42652,1,12
408,64,42918,1,0
408,64,43051,1,0
408,64,43183,1,8
480,136,43449,2,0,B|432:240,1,80
408,280,43714,2,0,B|360:384,1,80,8|0
328,288,43980,2,0,B|224:288,1,80
240,208,44245,1,8
80,224,44511,1,0
80,64,44776,6,0,B|176:64,1,80,8|0
160,144,45042,1,0
240,144,45174,1,0
240,64,45307,2,0,B|344:64,1,80,8|0
400,64,45573,1,0
472,208,45838,1,8
440,280,45971,1,0
392,216,46104,1,0
288,328,46369,2,0,B|176:328|176:208,1,160,8|0
16,232,46900,6,0,B|16:120|120:120,1,160,8|0
416,80,47431,2,0,B|464:112|416:184,1,80,8|0
433,150,47697,1,0
424,312,47962,2,0,B|320:312,1,80,8|0
264,312,48228,1,0
184,312,48360,1,0
24,312,48626,1,0
72,248,48759,1,0
72,88,49024,6,0,B|128:88|128:152,1,80,8|0
208,136,49290,2,0,B|296:136,1,80
368,136,49555,2,0,B|368:72|424:72,1,80,8|0
456,136,49821,1,0
448,296,50086,1,8
376,328,50219,1,0
296,352,50351,1,0
288,272,50484,2,0,B|176:272,1,80,0|8
184,352,50750,1,0
112,328,50882,5,0
56,272,51015,2,0,B|56:176,1,80,0|12
216,192,51413,1,0
376,192,51679,1,8
376,32,51944,2,0,B|304:32|304:96,2,80,0|0|8
376,192,52475,1,0
376,272,52608,1,0
376,192,52741,1,8
216,192,53006,2,0,B|128:192,1,80
56,192,53272,5,8
152,64,53537,2,0,B|240:64,1,80
312,64,53803,1,8
216,192,54068,1,0
312,64,54334,2,8,B|376:64|376:128,1,80
376,184,54599,2,0,B|472:184,1,80
456,264,54865,1,8
312,328,55130,1,0
200,216,55396,5,12
120,216,55528,1,0
120,296,55661,1,0
56,152,55927,2,8,B|112:80,1,80
152,32,56192,1,0
312,48,56458,5,8
392,48,56590,1,0
352,120,56723,2,0,B|352:208,1,80
432,216,56989,1,8
272,216,57254,1,0
384,328,57520,6,0,B|288:328,1,80,12|0
224,328,57785,1,0
144,312,57918,1,0
96,248,58051,1,8
96,168,58183,1,0
128,96,58316,1,0
200,56,58449,1,0
280,40,58582,5,8
312,32,58648,1,0
344,40,58714,1,0
368,64,58781,1,0
384,96,58847,1,0
376,128,58913,1,0
368,160,58980,1,0
376,192,59046,1,0
392,216,59113,1,0
64,216,59378,1,2
392,216,59644,1,4
232,336,59909,6,0,B|288:336|288:272,1,80,2|0
312,216,60174,1,8
232,216,60307,1,0
272,144,60440,1,2
192,144,60573,1,0
136,88,60705,1,8
216,64,60838,2,0,B|320:64,1,80,0|2
376,80,61104,1,0
448,112,61236,1,8
224,328,61502,5,2
64,48,61767,1,4
224,80,62033,5,2
280,136,62166,1,0
200,152,62298,2,0,B|200:200|144:200,1,80,8|0
64,200,62564,1,2
184,304,62829,2,0,B|248:232,1,80
288,304,63095,1,0
368,280,63228,2,0,B|416:272|440:208,1,80,0|8
136,40,63626,1,2
456,40,63891,6,0,B|456:136,1,80,12|0
376,120,64157,2,0,B|280:120,1,80,2|0
216,120,64422,1,8
216,120,64688,1,2
56,136,64953,2,0,B|32:184|80:232,1,80,8|0
112,272,65219,1,2
176,320,65351,1,0
256,328,65484,1,8
288,256,65617,2,0,B|360:320,1,80,0|8
504,24,66015,5,6
8,24,66413,1,2
8,360,66812,1,2
248,176,67343,5,10
328,160,67475,2,0,B|320:104|248:96,1,80,0|2
120,104,67874,2,0,B|24:104,1,80,8|0
32,184,68139,6,0,B|48:272|152:288,1,160,6|8
224,288,68537,2,0,B|400:288,1,160,0|2
448,240,68936,1,8
448,160,69068,1,0
400,96,69201,2,0,B|256:8,1,160,2|8
200,64,69599,2,0,B|80:184,1,160,0|2
120,248,69998,5,8
192,280,70130,2,2,B|256:216,1,80
408,304,70528,1,8
480,160,70794,1,2
408,16,71059,1,8
248,16,71325,2,0,B|184:16|184:72,1,80,2|0
256,96,71590,2,0,B|256:152|200:152,1,80,8|0
128,152,71856,1,2
168,304,72121,2,0,B|272:304,1,80,8|0
328,304,72387,5,6
440,192,72652,1,8
440,192,72918,1,2
352,56,73183,2,0,B|288:136,1,80,8|0
248,184,73449,1,6
104,120,73714,1,8
40,264,73980,1,2
192,320,74245,5,8
272,320,74378,1,0
352,320,74511,2,0,B|440:248,1,80,2|0
360,208,74776,2,0,B|288:120,1,80,8|0
384,120,75042,2,0,B|472:48,1,80,2|0
376,24,75307,2,0,B|288:24,1,80,8|0
216,24,75573,5,2
144,56,75705,1,0
80,104,75838,1,8
64,184,75971,1,0
64,264,76104,1,2
64,264,76635,5,4
256,192,83006,12,2,84865
96,80,85130,5,12
256,80,85396,2,0,B|328:32|416:88,1,160,0|8
464,232,85927,1,0
336,320,86192,2,0,B|248:320,1,80,8|0
296,248,86458,2,0,B|296:152,1,80
224,208,86723,2,0,B|48:208,1,160,8|0
112,56,87254,6,0,B|168:40|184:104,1,80,8|0
256,88,87520,1,0
336,88,87652,2,0,B|344:40|416:48,1,80,0|8
395,46,88051,1,0
448,200,88316,2,0,B|432:296|320:288,1,160,8|0
64,200,88847,2,0,B|80:296|192:288,1,160,8|0
256,152,89378,5,12
136,48,89644,2,0,B|304:48,1,160,0|8
456,56,90174,1,0
456,216,90440,1,12
336,320,90705,1,0
200,232,90971,2,0,B|104:232|104:128,1,160,8|0
240,48,91502,5,12
320,32,91635,1,0
400,40,91767,1,0
440,112,91900,1,4
448,192,92033,1,12
384,240,92166,1,0
312,272,92298,1,0
232,296,92431,1,4
152,280,92564,5,12
120,264,92630,1,0
104,240,92697,1,0
88,160,92829,1,0
120,88,92962,1,0
192,56,93095,5,8
440,112,93360,1,0
312,16,93626,6,0,B|312:120,1,80,12|0
240,64,93891,2,0,B|240:168,1,80
312,184,94157,1,8
432,288,94422,1,0
272,296,94688,2,0,B|232:336|176:288,1,80,8|0
208,224,94953,2,0,B|168:184|112:232,1,80
120,296,95219,2,0,B|80:336|24:288,1,80,8|0
8,232,95484,1,0
104,104,95750,5,8
176,64,95882,1,0
176,144,96015,2,0,B|280:144,1,80
272,64,96281,2,0,B|368:64,1,80,8|0
336,144,96546,2,0,B|336:200|400:200,1,80
416,128,96812,1,8
456,192,96944,1,0
456,272,97077,1,0
376,288,97210,2,0,B|288:296,1,80,0|8
296,295,97608,1,0
136,296,97874,6,0,B|56:224|104:120,1,160,8|0
152,96,98272,2,0,B|320:96,1,160,8|0
376,144,98670,1,0
448,104,98803,1,0
448,184,98936,1,8
336,296,99201,1,0
176,296,99467,2,0,B|56:296|56:176,1,160,8|0
192,120,99998,6,0,B|240:120|240:64,1,80,8|0
296,128,100263,2,0,B|352:128|352:192,1,80
272,200,100528,2,0,B|272:256|216:256,1,80,8|0
144,256,100794,2,0,B|80:256|80:184,1,80
80,136,101059,1,8
104,56,101192,1,0
184,56,101325,2,0,B|272:56,1,80
264,56,101590,1,8
416,112,101856,1,0
456,184,101989,1,0
376,184,102121,6,0,B|216:184,1,160,8|0
80,264,102652,2,0,B|240:264,1,160,8|0
392,312,103183,1,8
448,256,103316,1,0
376,216,103449,2,0,B|328:184|352:128,1,80
408,96,103714,1,8
248,96,103980,1,0
128,208,104245,6,0,B|128:296,3,80,8|0|0|0
200,256,104776,2,0,B|312:256,3,80,8|0|0|0
360,256,105307,2,0,B|456:248|448:144,1,160,8|0
448,147,105838,1,8
128,144,106369,5,4
384,144,107431,1,4
256,296,108493,5,0
256,216,108626,1,8
256,136,108759,2,0,B|256:80|184:80,1,80,0|8
128,104,109024,2,0,B|128:200,1,80,0|8
176,248,109290,2,0,B|272:248,1,80
320,208,109555,1,8
344,192,109621,1,0
376,168,109688,1,0
408,144,109754,2,0,B|440:120,5,40,0|0|0|0|0|8
32,80,118714,6,0,B|136:40,3,80,2|0|0|12
48,200,119378,5,0
120,160,119511,1,0
120,240,119644,2,0,B|120:304|200:304,1,80,8|0
240,304,119909,1,0
320,304,120042,2,0,B|384:240,1,80,0|8
432,304,120307,1,0
488,248,120440,1,0
432,192,120573,2,0,B|432:88,1,80,0|8
296,32,120971,1,0
72,264,121236,1,8
40,104,121502,5,0
104,48,121635,1,0
152,112,121767,2,0,B|208:112|224:168,1,80,8|0
240,224,122033,2,0,B|240:280|296:288,1,80
360,280,122298,1,8
424,232,122431,1,0
464,160,122564,1,0
384,160,122697,2,0,B|296:160,1,80,0|8
144,160,123095,1,0
264,48,123360,6,0,B|368:48,1,80,12|0
288,104,123626,2,0,B|184:104,1,80
128,104,123891,1,8
128,104,124157,1,0
128,264,124422,2,0,B|128:328|192:328,1,80,12|0
248,328,124688,2,0,B|344:328,1,80
392,280,124953,1,8
456,232,125086,2,0,B|384:160,1,80
304,48,125484,6,0,B|416:48,2,80,12|0|0
312,128,125882,2,0,B|408:128,2,80,0|8|0
280,200,126281,2,0,B|216:224|184:160,1,80
200,112,126546,2,0,B|200:56|136:56,1,80,8|0
88,112,126812,1,0
408,112,127077,1,8
64,208,127343,5,2
384,216,127608,1,4
280,336,127874,6,0,B|224:336|224:272,1,80,2|0
200,216,128139,1,8
152,152,128272,1,0
232,152,128405,1,2
312,152,128537,1,0
368,96,128670,1,8
288,80,128803,2,0,B|184:80,1,80,0|2
128,72,129068,2,0,B|56:128,1,80,0|8
288,328,129467,5,2
448,48,129732,1,4
288,80,129998,5,8
232,136,130130,1,0
312,152,130263,2,0,B|312:200|368:200,1,80,2|0
448,200,130528,1,8
416,272,130661,1,0
336,280,130794,2,0,B|248:280,1,80,2|0
176,280,131059,2,0,B|104:216,1,80,8|0
116,226,131325,1,2
376,40,131590,1,8
56,40,131856,6,0,B|56:136,1,80,6|0
136,120,132121,2,0,B|232:120,1,80,8|0
296,120,132387,1,2
296,120,132652,1,8
456,120,132918,1,2
440,200,133051,1,0
400,272,133183,1,8
336,320,133316,1,0
256,328,133449,1,2
256,248,133582,1,0
184,288,133714,1,8
256,36,133980,5,6
464,336,134378,1,6
48,336,134776,1,6
264,176,135307,5,10
184,160,135440,2,0,B|192:104|264:96,1,80,0|2
392,104,135838,1,8
472,104,135971,1,0
480,184,136104,6,0,B|464:272|360:288,1,160,6|8
288,288,136502,2,0,B|112:288,1,160,0|2
64,240,136900,1,8
64,160,137033,1,0
112,96,137166,6,0,B|256:8,1,160,2|8
312,64,137564,2,0,B|432:184,1,160
392,248,137962,1,8
320,288,138095,1,0
256,248,138228,5,2
104,304,138493,1,8
32,160,138759,1,2
104,16,139024,1,8
264,16,139290,2,0,B|328:16|328:72,1,80,2|0
256,96,139555,2,0,B|256:152|312:152,1,80,8|0
384,152,139821,1,2
344,304,140086,2,0,B|240:304,1,80,8|0
184,304,140351,5,6
72,192,140617,1,8
72,192,140750,1,2
72,192,140882,1,6
160,56,141148,2,0,B|224:136,1,80,8|0
264,184,141413,1,6
408,120,141679,1,8
464,176,141812,1,0
468,256,141944,1,6
320,320,142210,5,8
240,320,142343,1,0
160,320,142475,2,0,B|72:248,1,80,6|0
152,208,142741,2,0,B|224:120,1,80,8|0
128,120,143006,2,0,B|40:48,1,80,2|0
136,24,143272,2,0,B|224:24,1,80,8|0
296,24,143537,5,2
368,56,143670,1,0
432,104,143803,1,8
496,152,143936,2,0,B|528:184|488:232,1,80
494,224,144599,5,0
424,72,163714,6,0,B|424:176|296:176,1,160,4|8
192,88,164245,2,0,B|192:264,1,160,0|8
352,248,164776,1,0
224,344,165042,2,0,B|112:360|72:248,1,160,8|0
40,128,165573,1,8
176,48,165838,6,0,B|336:48,1,160,0|8
464,144,166369,2,0,B|280:144,1,160,0|8
256,296,166900,1,6
256,296,167033,1,0
256,48,167298,1,0
256,48,167431,1,2
440,56,167962,6,0,B|376:152|480:160|424:216|416:272|256:216,1,320,8|8
128,288,169024,2,0,B|40:232|104:120,1,160,8|0
232,72,169555,1,8
256,192,170086,12,6,171679
312,64,172210,6,0,B|136:64,1,160,4|8
96,120,172608,1,0
152,176,172741,2,0,B|328:176,1,160,0|8
456,240,173272,2,0,B|432:336|336:328,1,160,0|8
184,328,173803,2,0,B|88:328|176:240|24:240,1,160,0|8
112,88,174334,5,2
432,88,174865,1,2
112,88,175396,2,0,B|112:176,1,80,2|0
184,208,175661,2,0,B|280:208,1,80
320,152,175927,1,2
480,152,176458,6,0,B|480:256|376:256,1,160,0|8
232,304,176989,2,0,B|144:344|56:272,1,160,0|8
64,128,177520,2,0,B|232:72|184:208|400:88,1,320,2|2
256,192,178582,12,4,180705
64,256,188936,5,8
112,104,189201,2,0,B|184:48|280:96,1,160,2|8
216,152,189599,2,0,B|288:208|400:136,1,160,2|0
336,80,189998,2,0,B|424:80,1,80,8|0
464,144,190263,5,2
464,304,190528,1,8
400,256,190661,1,0
256,320,190927,2,0,B|152:320,1,80,0|8
96,320,191192,1,0
56,248,191325,5,2
256,80,191590,1,8
408,48,191856,6,0,B|480:112,1,80,2|0
400,152,192121,2,0,B|336:216,1,80,8|0
264,216,192387,2,0,B|152:216,1,80,2|0
152,144,192652,2,0,B|152:56,1,80,8|0
72,64,192918,1,2
392,56,193449,6,0,B|288:56|288:152,1,160,4|8
448,152,193980,2,0,B|448:264|336:264,1,160,0|8
200,264,194511,2,0,B|144:264|144:200,1,80,4|0
208,176,194776,2,0,B|208:128|152:128,1,80
80,128,195042,1,8
80,128,195307,1,0
224,40,195573,5,12
304,40,195705,1,0
384,40,195838,1,0
384,120,195971,1,0
384,200,196104,2,0,B|312:272,1,80,8|0
248,256,196369,2,0,B|136:256,1,80
88,240,196635,5,8
64,216,196701,1,0
56,184,196767,1,0
48,152,196834,1,0
56,120,196900,1,0
72,96,196967,1,0
96,80,197033,1,0
128,64,197099,1,0
160,64,197166,1,4
448,208,197431,5,2
128,216,197697,1,6
232,336,197962,6,2,B|288:336|288:272,1,80,8|0
312,216,198228,1,2
344,144,198360,1,0
264,144,198493,1,8
184,144,198626,1,0
144,72,198759,1,2
224,72,198891,2,0,B|328:72,1,80,0|8
384,72,199157,1,0
456,112,199290,1,2
224,328,199555,5,8
64,48,199821,1,6
224,80,200086,5,8
280,136,200219,1,0
200,152,200351,2,0,B|200:200|144:200,1,80,2|0
64,200,200617,1,8
208,264,200882,2,0,B|320:264,3,80,2|0|8|0
368,264,201413,1,2
136,40,201679,1,8
456,40,201944,6,0,B|456:136,1,80,6|0
376,120,202210,2,0,B|280:120,1,80,8|0
216,120,202475,1,2
216,120,202741,1,8
56,136,203006,2,2,B|24:184|80:240,1,80,10|0
112,272,203272,1,8
176,320,203405,1,0
256,328,203537,1,2
264,248,203670,2,0,B|328:240|344:304,1,80,0|8
468,320,204068,5,6
44,320,204467,1,6
256,188,204865,1,6
256,188,205396,5,10
332,168,205528,2,0,B|324:112|252:104,1,80,0|2
120,104,205927,1,8
40,104,206059,1,0
32,184,206192,6,0,B|48:272|152:288,1,160,6|8
224,288,206590,2,0,B|400:288,1,160,2|0
448,240,206989,1,8
448,160,207121,1,0
400,96,207254,2,0,B|256:8,1,160,2|8
200,64,207652,2,0,B|80:184,1,160,2|0
120,248,208051,5,8
176,304,208183,2,0,B|248:232,1,80,0|2
408,304,208582,1,8
480,160,208847,1,2
408,16,209113,1,8
248,16,209378,2,0,B|184:16|184:72,1,80,2|0
256,96,209644,2,0,B|256:152|200:152,1,80,8|0
128,152,209909,1,2
168,304,210175,6,0,B|272:304,1,80,8|0
328,304,210440,1,6
440,192,210705,1,8
440,192,210971,1,2
352,56,211236,2,0,B|288:136,1,80,8|0
248,184,211502,1,6
136,144,211701,1,0
136,144,211767,1,8
40,264,212033,1,2
192,320,212298,5,8
272,320,212431,1,0
352,320,212564,2,0,B|440:248,1,80,2|0
360,208,212829,2,0,B|288:120,1,80,8|0
384,120,213095,2,0,B|472:48,1,80,2|0
376,24,213360,2,0,B|288:24,1,80,8|0
216,24,213626,6,0,B|160:24|160:80,1,80,2|0
232,96,213891,2,0,B|232:152|176:152,1,80,8|0
112,128,214157,2,0,B|56:128|56:184,1,80,2|0
120,216,214422,2,0,B|120:272|64:272,1,80,8|0
74,271,214688,1,6
256,40,215484,5,10
256,200,215750,1,6
416,200,216546,5,10
256,200,216812,1,6
256,360,217608,5,10
256,200,217874,1,6
96,200,218537,5,10
96,200,218670,1,14
256,200,218936,1,6
80,80,222918,6,0,B|192:80,1,80,2|0
240,80,223183,2,0,B|368:80|368:184,3,160,12|0|0|8
240,304,224245,2,0,B|368:304|368:200,3,160,8|0|0|8
432,88,225307,6,0,B|264:24|272:184|96:72,1,320,8|8
96,272,226369,1,8
416,272,226900,1,8
256,240,227166,6,0,B|256:136,2,80,2|0|12
256,80,227697,1,2
256,80,227962,1,8
416,80,228228,2,0,B|496:16,2,80,2|0|12
416,240,228759,1,2
272,312,229024,2,0,B|176:352|96:288,1,160,8|2
256,192,229555,12,2,231413
136,80,231679,5,4
208,104,231944,2,0,B|296:104,1,80,8|0
344,168,232475,2,0,B|408:232,1,80,2|0
344,288,233006,2,0,B|296:312,1,40,8|0
224,304,233405,2,0,B|184:280,1,40,0|2
120,240,233803,6,0,B|72:224|96:168,1,80,0|8
144,112,234334,2,0,B|208:40,2,80,0|8|0
208,160,235130,1,8
272,208,235396,2,0,B|272:264|328:224|320:256,1,80,0|8
376,312,235927,6,0,B|472:208|360:88,1,240,4|0
208,88,237254,1,2
152,144,237520,2,0,B|176:184|240:168,1,80,0|2
256,192,238051,12,0,239378
464,176,239644,6,0,B|456:88,1,80,2|8
376,80,240175,1,4
304,104,240440,2,8,B|216:104,1,80,8|0
168,168,240971,2,0,B|104:232,1,80
168,288,241502,2,0,B|216:312,1,40,8|0
288,304,241900,2,0,B|328:280,1,40,0|2
392,240,242298,6,0,B|440:224|416:168,1,80,0|8
368,112,242829,2,0,B|304:40,2,80,0|8|0
304,160,243626,1,8
240,208,243891,2,0,B|240:264|184:224|192:256,1,80,0|8
136,312,244422,6,0,B|40:208|152:88,1,240,4|8
304,88,245750,1,2
360,144,246015,2,0,B|336:184|272:168,1,80,0|8
208,168,246546,6,0,B|128:168,1,80,0|8
168,240,247077,2,0,B|256:240,1,80,0|8
328,216,247608,1,0
392,176,247874,2,8,B|376:128,1,40
344,112,248139,2,0,B|304:96,1,40
264,96,248405,2,0,B|224:96,1,40,8|0
