osu file format v9

[General]
AudioFilename: beelzebub_TV_ED.mp3
AudioLeadIn: 1000
PreviewTime: 51526
Countdown: 0
SampleSet: Normal
StackLeniency: 0.7
Mode: 0
LetterboxInBreaks: 1

[Editor]
DistanceSpacing: 0.8
BeatDivisor: 1
GridSize: 8

[Metadata]
Title:Answer (TV size)
Artist:no3b
Creator:S o r d a
Version:Normal
Source:Beelzebub
Tags:muya akb48

[Difficulty]
HPDrainRate:3
CircleSize:4
OverallDifficulty:3
ApproachRate:3
SliderMultiplier:0.9
SliderTickRate:1

[Events]
//Background and Video events
0,0,"BG.jpg"
Video,0,"video.avi"
//Break Periods
//Storyboard Layer 0 (Background)
//Storyboard Layer 1 (Fail)
//Storyboard Layer 2 (Pass)
//Storyboard Layer 3 (Foreground)
//Storyboard Sound Samples
//Background Colour Transformations
3,100,163,162,255

[TimingPoints]
415,370.37037037037,4,1,0,70,1,0
51526,-100,4,1,0,81,0,1
74489,-100,4,1,0,70,0,0
76340,-100,4,2,0,70,0,0
77452,-100,4,2,0,70,0,0
80785,-100,4,1,0,70,0,0

[Colours]
Combo1 : 255,150,0
Combo2 : 5,240,5
Combo3 : 128,0,255
Combo4 : 255,0,0
Combo5 : 0,128,255

[HitObjects]
256,192,415,12,0,2266
128,112,2637,5,0
200,112,3007,1,0
272,112,3377,1,0
256,184,3748,1,0
208,240,4118,1,0
160,296,4489,1,0
160,296,4859,1,4
304,288,5600,5,0
344,224,5970,1,0
392,168,6340,1,0
408,96,6711,1,0
336,96,7081,1,0
264,96,7452,1,0
264,96,7822,1,4
120,120,8563,6,0,B|72:168|120:208,4,90
192,120,10414,1,0
264,120,10785,1,0
336,120,11155,1,0
336,192,11526,2,0,B|272:200|288:272,1,90,0|4
360,256,12266,2,0,B|424:264|408:336,1,90,0|4
336,328,13007,2,0,B|328:392|256:376,1,90,0|4
256,192,13748,12,0,15600
352,112,16711,6,0,B|248:112,1,90
256,184,17452,2,0,B|256:288,1,90
192,304,18192,2,0,B|128:296|144:224,1,90
136,168,18933,2,0,B|144:104|216:120,1,90
272,120,19674,1,4
240,256,20414,6,0,B|112:256,2,90
152,144,21896,1,0
224,144,22266,1,0
296,144,22637,1,0
368,152,23007,2,0,B|368:256,2,90
368,152,24118,1,0
232,200,24859,5,0
176,240,25229,1,0
232,288,25600,1,0
288,240,25970,1,0
288,168,26340,2,0,B|296:104|368:120,2,90
488,40,28563,5,2
488,112,28933,1,2
488,184,29303,1,2
376,272,30044,1,2
304,272,30414,1,2
232,272,30785,1,2
160,272,31155,2,0,B|64:272,1,90,0|4
152,152,32266,6,0,B|232:88,1,90
296,96,33007,2,0,B|384:160,1,90
368,224,33748,1,0
368,296,34118,1,0
296,296,34489,2,0,B|208:296,3,90
136,296,35970,1,4
136,152,36711,6,0,B|232:152,4,90
64,152,38563,1,0
64,224,38933,1,0
264,312,40044,5,0
336,312,40414,1,0
336,240,40785,2,0,B|416:168,1,90
352,128,41526,2,0,B|280:72,1,90
224,112,42266,1,0
168,160,42637,1,0
112,208,43007,1,0
256,192,43377,12,0,44859
256,192,45600,5,0
400,192,46340,1,0
400,264,46711,2,0,B|304:264,1,90
240,264,47452,2,0,B|152:264,1,90
152,192,48192,2,0,B|152:104,1,90
224,104,48933,2,0,B|320:104,1,90
400,216,50044,5,2
280,296,50785,1,2
272,152,51526,5,0
336,112,51896,1,0
400,72,52266,1,0
472,72,52637,2,0,B|472:264,1,180
416,296,53748,1,4
272,320,54489,5,0
200,320,54859,1,0
128,320,55229,1,0
128,248,55600,2,0,B|128:48,1,180
200,72,56711,1,4
320,152,57452,5,2
376,200,57822,1,2
320,248,58192,1,2
376,296,58563,1,2
320,344,58933,1,2
248,336,59303,6,0,B|248:248,1,90,0|0
240,176,60044,2,0,B|336:176,1,90
384,224,60785,2,0,B|384:328,1,90
312,320,61526,2,0,B|224:320,1,90
216,248,62266,1,0
216,176,62637,1,4
72,200,63377,5,0
128,152,63748,1,0
184,104,64118,1,0
256,88,64489,2,0,B|376:224,1,180
416,280,65600,1,4
272,304,66340,5,0
200,304,66711,1,0
128,304,67081,1,0
56,304,67452,1,0
56,232,67822,2,0,B|72:128|176:104,1,180,0|4
296,176,69303,5,0
352,224,69674,1,0
408,272,70044,1,0
360,328,70414,2,0,B|256:328,1,90
200,328,71155,2,0,B|96:328,1,90
112,256,71896,2,0,B|112:152,1,90
168,120,72637,1,0
240,136,73007,2,0,B|368:288,1,180
304,328,74118,1,0
232,328,74489,1,4
120,240,75229,6,0,B|136:136|240:112,1,180
304,104,76340,1,0
304,176,76711,1,0
304,248,77081,1,0
304,320,77452,1,0
160,320,78192,6,0,B|160:224,1,90
160,160,78933,2,0,B|160:64,1,90
232,88,79674,1,0
296,120,80044,1,0
352,168,80415,1,0
280,296,81155,6,0,B|176:280|152:176,1,180
80,184,82266,1,0
144,224,82637,1,0
80,264,83007,1,0
144,304,83377,1,0
80,344,83748,1,0
8,336,84118,6,0,B|8:232|8:232,1,90
8,176,84859,2,0,B|8:80,1,90
80,88,85600,2,2,B|176:88,1,90,0|0
256,192,86340,12,0,87822
