osu file format v9

[General]
AudioFilename: beelzebub_TV_ED.mp3
AudioLeadIn: 993
PreviewTime: 51526
Countdown: 0
SampleSet: Soft
StackLeniency: 0.7
Mode: 0
LetterboxInBreaks: 1

[Editor]
DistanceSpacing: 0.8
BeatDivisor: 1
GridSize: 8

[Metadata]
Title:Answer (TV size)
Artist:no3b
Creator:S o r d a
Version:Easy
Source:Beelzebub
Tags:muya akb48

[Difficulty]
HPDrainRate:3
CircleSize:3
OverallDifficulty:3
ApproachRate:3
SliderMultiplier:0.7
SliderTickRate:1

[Events]
//Background and Video events
0,0,"BG.jpg"
Video,0,"video.avi"
//Break Periods
//Storyboard Layer 0 (Background)
//Storyboard Layer 1 (Fail)
//Storyboard Layer 2 (Pass)
//Storyboard Layer 3 (Foreground)
//Storyboard Sound Samples
//Background Colour Transformations
3,100,163,162,255

[TimingPoints]
415,370.37037037037,4,1,0,71,1,0
24118,-100,4,2,1,71,0,0
27081,-100,4,1,0,71,0,0
51526,-100,4,1,0,70,0,1
74490,-100,4,2,0,100,0,0

[Colours]
Combo1 : 255,150,0
Combo2 : 5,240,5
Combo3 : 128,0,255
Combo4 : 240,5,5
Combo5 : 0,128,255

[HitObjects]
256,192,415,12,0,1896
128,136,2637,5,0
208,216,3377,1,0
128,288,4118,1,0
48,208,4859,1,0
32,96,5600,6,0,B|176:96,1,140
176,152,6711,2,0,B|328:152,1,140
376,152,7822,1,0
288,224,8563,5,0
400,224,9303,1,0
400,112,10044,1,0
288,112,10785,1,0
176,112,11526,1,0
64,112,12266,1,0
64,224,13007,2,2,B|192:296,1,140,0|0
16,336,16711,5,0
104,272,17452,1,0
192,208,18192,1,0
304,208,18933,2,2,B|456:208,1,140,0|0
376,296,20414,2,2,B|216:296,1,140,0|0
176,152,21896,5,0
288,152,22637,1,0
376,224,23377,1,0
264,224,24118,2,8,B|168:224,1,70,0|8
192,280,24859,2,8,B|280:280,1,70,0|8
320,280,25600,2,8,B|400:280,1,70,0|8
384,336,26340,2,8,B|296:336,1,70,0|8
256,336,27081,1,0
144,336,27822,1,4
256,224,28563,5,0
144,224,29303,2,0,B|56:224,2,70
144,168,30415,2,0,B|144:80,2,70
200,168,31526,1,0
304,200,32266,6,2,B|432:288,1,140,0|0
312,296,33748,1,0
200,296,34489,1,0
88,296,35229,1,0
88,184,35970,2,0,B|272:64,1,210
304,112,37452,1,0
368,208,38192,1,0
432,304,38933,1,0
264,296,40044,6,0,B|176:296,1,70
184,184,41155,2,0,B|256:128,1,70
296,144,41896,1,0
408,144,42637,1,0
408,32,43377,1,0
312,88,44118,6,0,B|248:144,1,70
216,176,44859,1,4
160,272,45600,2,0,B|232:320,1,70
272,312,46340,1,4
312,104,47452,5,0
312,216,48192,1,0
200,216,48933,1,0
200,272,49303,1,0
296,328,50044,2,2,B|456:328,1,140,0|0
408,216,51526,5,0
352,312,52266,1,0
296,216,53007,1,0
232,312,53748,1,0
176,216,54489,2,0,B|24:216,1,140,0|0
40,104,55970,2,0,B|184:104,1,140,0|0
256,192,57452,6,0,B|384:280,3,140
256,264,60414,2,0,B|168:392,3,140
80,320,63377,5,0
160,240,64118,1,0
248,176,64859,1,0
160,112,65600,1,0
56,160,66340,2,0,B|56:304,1,140,0|0
168,304,67822,2,0,B|320:304,1,140,0|0
320,192,69303,5,0
208,192,70044,1,0
96,192,70785,1,0
96,304,71526,2,0,B|240:304,2,140
96,192,73748,2,0,B|96:40,1,140,0|0
200,88,75229,5,0
296,144,75970,1,0
376,216,76711,1,0
264,216,77452,2,0,B|176:344,2,140
328,120,79674,1,0
392,24,80414,1,4
280,24,81155,6,0,B|120:24,1,140
136,136,82637,2,0,B|136:288|136:288,1,140
248,280,84118,2,0,B|400:280,1,140
392,168,85600,1,0
256,192,86340,12,0,87822
