osu file format v5

[General]
AudioFilename: .mp3
AudioLeadIn: 2923
PreviewTime: -1
Countdown: 1
SampleSet: Normal
StackLeniency: 0.7
Mode: 0
LetterboxInBreaks: 1
EditorDistanceSpacing: 0.800000011920929

[Metadata]
Title:Theme of room of Tetsuko
Artist:no Artist
Creator:bogbogbarg
Version:Insane
Source:
Tags:

[Difficulty]
HPDrainRate:5
CircleSize:5
OverallDifficulty:5
SliderMultiplier:1.4
SliderTickRate:1

[Events]
//Background and Video events
//Break Periods
//Storyboard Layer 0 (Background)
//Storyboard Layer 1 (Failing)
//Storyboard Layer 2 (Passing)
//Storyboard Layer 3 (Foreground)
//Storyboard Sound Samples
//Background Colour Transformations
3,100,163,162,255

[TimingPoints]
0,400,4,1,0,100,1,0

[HitObjects]
64,256,5350,1,0
160,160,5750,1,0
160,160,5950,1,0
224,160,6350,1,0
256,160,6500,1,0
256,160,6750,1,0
288,160,6900,1,0
352,160,7350,1,0
384,160,7550,1,0
416,160,8000,1,0
416,160,8250,1,0
416,160,8400,1,0
192,192,8700,1,0
160,256,9150,1,0
288,256,9600,1,0
256,128,10050,1,0
128,96,10500,1,0
64,192,10950,1,0
64,192,11200,1,0
192,192,12300,5,0
288,192,12750,1,0
288,192,12950,1,0
384,160,13350,1,0
384,160,13600,1,0
384,160,13800,1,0
320,224,14000,1,0
320,256,14450,1,0
320,256,14650,1,0
192,256,15100,1,0
192,256,15300,1,0
192,256,15500,1,0
128,192,15700,1,0
192,128,16200,1,0
288,128,16600,1,0
288,224,17050,1,0
224,192,17500,1,0
224,192,17750,1,0
128,192,18150,1,0
256,288,19150,5,0
352,192,19750,1,0
352,192,19950,1,0
224,160,20350,1,0
224,160,20600,1,0
224,160,20800,1,0
192,224,21000,1,0
256,288,21450,1,0
256,288,21650,1,0
384,96,22100,1,0
384,96,22300,1,0
352,96,22500,1,0
160,96,22800,1,0
96,128,23250,1,0
128,256,23650,1,0
224,224,24100,1,0
256,128,24600,1,0
320,128,25650,5,0
256,128,25850,1,0
192,128,26050,1,0
128,128,26250,1,0
96,160,26750,1,0
96,256,27150,1,0
192,256,27600,1,0
288,224,28050,1,0
224,160,28450,1,0
224,160,28700,1,0
416,96,29800,1,0
256,192,30800,1,0
128,192,31300,1,0
256,192,31800,12,0,34900
