osu file format v13

[General]
AudioFilename: Lunatic Princess.mp3
AudioLeadIn: 0
PreviewTime: 87365
Countdown: 0
SampleSet: None
StackLeniency: 0.7
Mode: 0
LetterboxInBreaks: 0
WidescreenStoryboard: 0

[Editor]
DistanceSpacing: 0.5
BeatDivisor: 4
GridSize: 4
TimelineZoom: 1.9

[Metadata]
Title:sola
TitleUnicode:sola
Artist:nmk
ArtistUnicode:nmk
Creator:sjoy
Version:cwR's Insane
Source:BMS
Tags:Touhou 東方音弾遊戯6 taketori hishou 竹取飛翔 ~ Lunatic Princess Houraisan Kaguya imoutosan chenwu Sakaue Nachi artcore sharlo flower Optie
BeatmapID:440413
BeatmapSetID:183267

[Difficulty]
HPDrainRate:6
CircleSize:4
OverallDifficulty:7
ApproachRate:8.5
SliderMultiplier:1.5
SliderTickRate:2

[Events]
//Background and Video events
0,0,"bg.jpg",0,0
Video,-182,"2333.avi"
//Break Periods
//Storyboard Layer 0 (Background)
//Storyboard Layer 1 (Fail)
//Storyboard Layer 2 (Pass)
//Storyboard Layer 3 (Foreground)
//Storyboard Sound Samples
//Background Colour Transformations
3,100,163,162,255

[TimingPoints]
11058,307.692307692308,4,2,1,50,1,0
11058,-133.333333333333,4,2,1,50,0,0
19058,-133.333333333333,4,2,1,55,0,0
19673,-133.333333333333,4,2,1,60,0,0
20288,-100,4,2,1,65,0,0
20596,-100,4,2,1,70,0,0
20904,-100,4,2,1,30,0,0
22134,-100,4,2,1,60,0,0
41827,-83.3333333333333,4,1,2,60,0,0
43058,-100,4,2,2,60,0,0
62442,-83.3333333333333,4,1,2,60,0,0
65211,-100,4,2,1,60,0,0
73827,-83.3333333333333,4,1,2,60,0,0
75058,-100,4,2,1,60,0,0
83673,-83.3333333333333,4,1,2,60,0,0
84288,-74.0740740740741,4,1,2,60,0,0
84596,-66.6666666666667,4,1,2,60,0,0
86134,-100,4,2,1,40,0,0
87365,-83.3333333333333,4,2,1,70,0,1
95981,-83.3333333333333,4,1,2,70,0,1
97211,-83.3333333333333,4,2,1,70,0,1
99673,-83.3333333333333,4,2,1,60,0,1
102134,-83.3333333333333,4,2,1,70,0,1
104596,-83.3333333333333,4,2,1,60,0,1
105827,-83.3333333333333,4,1,2,70,0,1
107058,-83.3333333333333,4,2,1,80,0,1
109519,-83.3333333333333,4,2,1,70,0,1
111981,-83.3333333333333,4,2,1,80,0,1
116288,-83.3333333333333,4,1,1,70,0,1
116904,-100,4,2,1,60,0,0
120596,-100,4,2,2,60,0,0
121519,-100,4,2,1,60,0,0
125519,-100,4,1,2,60,0,0
126750,-100,4,2,1,60,0,0
130442,-100,4,2,2,60,0,0
131365,-100,4,2,1,60,0,0
135365,-100,4,1,2,60,0,0
135673,-83.3333333333333,4,1,2,60,0,0
135981,-74.0740740740741,4,1,2,60,0,0
136288,-66.6666666666667,4,1,2,60,0,0
139058,-66.6666666666667,4,1,2,50,0,0

[Colours]
Combo1 : 250,180,220
Combo2 : 172,251,255
Combo3 : 138,255,125
Combo4 : 255,255,106

[HitObjects]
256,192,10750,5,0,0:0:0:0:
268,208,10904,1,0,0:0:0:0:
282,221,11058,6,0,L|338:238,1,56.2500021457673,2|0,0:0|0:0,0:0:0:0:
386,165,11365,2,0,L|330:148,1,56.2500021457673
241,127,11673,2,0,P|232:97|231:71,2,56.2500021457673,8|0|0,0:0|0:0|0:0,0:0:0:0:
282,221,12134,1,0,0:0:0:0:
204,286,12288,6,0,P|177:306|152:313,1,56.2500021457673,2|0,0:0|0:0,0:0:0:0:
128,217,12596,2,0,P|100:210|75:190,1,56.2500021457673
146,119,12904,2,0,P|137:88|141:61,2,56.2500021457673,8|0|0,0:0|0:0|0:0,0:0:0:0:
241,127,13365,1,0,0:0:0:0:
302,57,13519,6,0,L|360:46,1,56.2500021457673,2|0,0:0|0:0,0:0:0:0:
355,138,13827,2,0,L|413:149,1,56.2500021457673
372,235,14134,2,0,L|425:266,2,56.2500021457673,8|0|0,0:0|0:0|0:0,0:0:0:0:
356,328,14596,6,0,P|299:343|242:343,1,112.500004291535,2|0,0:0|0:0,0:0:0:0:
178,231,15058,2,0,P|207:206|227:199,1,56.2500021457673
242,289,15365,2,0,P|249:326|245:347,1,56.2500021457673,8|0,0:0|0:0,0:0:0:0:
159,315,15673,2,0,P|122:302|106:288,1,56.2500021457673
96,192,15981,6,0,L|90:137,1,56.2500021457673,2|0,0:0|0:0,0:0:0:0:
176,89,16288,2,0,L|182:144,1,56.2500021457673
178,231,16596,1,8,0:0:0:0:
242,289,16750,1,0,0:0:0:0:
261,205,16904,1,0,0:0:0:0:
325,147,17058,1,0,0:0:0:0:
344,231,17211,6,0,P|366:249|393:258,1,56.2500021457673,2|0,0:0|0:0,0:0:0:0:
454,194,17519,2,0,P|432:176|405:167,1,56.2500021457673
325,147,17827,2,0,P|327:118|340:93,2,56.2500021457673,8|0|0,0:0|0:0|0:0,0:0:0:0:
344,231,18288,1,2,0:0:0:0:
363,315,18442,6,0,L|370:353,7,28.1250010728836
314,344,19058,6,0,L|308:382,7,28.1250010728836,8|0|0|0|0|0|0|0,0:0|0:0|0:0|0:0|0:0|0:0|0:0|0:0,0:0:0:0:
258,355,19673,6,0,L|239:388,7,28.1250010728836
202,346,20288,6,0,L|174:371,3,37.5,8|0|0|0,0:0|0:0|0:0|0:0,0:0:0:0:
153,318,20596,2,0,L|117:332,3,37.5,8|0|0|0,0:0|0:0|0:0|0:0,0:0:0:0:
256,192,20904,12,0,22134,1:0:0:0:
256,192,22211,12,4,23058,0:0:0:0:
306,253,23365,6,0,L|379:269,2,75,2|0|8,0:0|0:0|0:0,0:0:0:0:
221,211,23827,2,0,P|214:171|219:135,1,75
293,75,24134,1,2,0:0:0:0:
372,168,24288,2,0,P|332:175|296:170,1,75,10|2,0:0|0:0,0:0:0:0:
140,156,24596,6,0,P|100:149|64:154,2,75,2|0|8,0:0|0:0|0:0,0:0:0:0:
221,211,25058,1,0,0:0:0:0:
219,303,25211,2,0,L|211:342,2,37.5,2|0|0,0:0|0:0|0:0,0:0:0:0:
306,253,25519,2,0,L|379:237,1,75,10|0,0:0|0:0,0:0:0:0:
416,150,25827,6,0,P|377:106|293:75,1,150,2|8,0:0|0:0,0:0:0:0:
254,157,26288,1,0,0:0:0:0:
167,129,26442,2,0,L|151:56,1,75,2|0,0:0|0:0,0:0:0:0:
64,19,26750,1,10,0:0:0:0:
14,101,26904,6,0,P|56:168|63:248,1,150,2|4,0:0|0:0,0:0:0:0:
153,267,27365,2,0,P|126:306|103:322,1,75,10|0,0:0|0:0,0:0:0:0:
240,228,27673,2,0,P|245:268|239:303,1,75,0|0,1:0|1:0,0:0:0:0:
288,148,27981,2,0,P|316:178|329:211,1,75,10|0,0:0|0:0,0:0:0:0:
352,294,28288,6,0,P|383:323|414:333,1,75,2|0,0:0|0:0,0:0:0:0:
438,234,28596,2,0,P|466:214|495:184,1,75,8|0,0:0|0:0,0:0:0:0:
396,134,28904,2,0,L|417:62,2,75,2|0|10,0:0|0:0|0:0,0:0:0:0:
288,148,29365,1,2,0:0:0:0:
183,109,29519,6,0,L|163:29,2,75,2|0|8,0:0|0:0|0:0,0:0:0:0:
206,208,29981,1,0,0:0:0:0:
123,267,30134,2,0,L|84:275,2,37.5,2|0|0,0:0|0:0|0:0,0:0:0:0:
208,316,30442,1,10,0:0:0:0:
301,261,30596,1,2,0:0:0:0:
366,359,30750,6,0,P|376:319|394:292,1,75
495,261,31058,2,0,P|485:221|467:194,1,75,10|0,0:0|0:0,0:0:0:0:
361,178,31365,1,0,0:0:0:0:
419,100,31519,1,0,0:0:0:0:
341,42,31673,1,10,0:0:0:0:
283,120,31827,6,0,P|210:130|141:100,1,150,2|4,0:0|0:0,0:0:0:0:
71,52,32288,1,10,0:0:0:0:
84,148,32442,1,2,0:0:0:0:
32,244,32596,2,0,P|68:224|104:224,1,75,2|0,1:2|1:0,0:0:0:0:
177,285,32904,1,10,0:0:0:0:
181,283,32981,1,0,0:0:0:0:
185,281,33058,1,0,0:0:0:0:
95,336,33211,6,0,P|172:360|245:363,1,150,2|8,0:0|0:0,0:0:0:0:
281,282,33673,2,0,P|313:260|351:251,1,75
432,301,33981,1,2,0:0:0:0:
348,349,34134,1,10,0:0:0:0:
347,251,34288,1,2,0:0:0:0:
431,203,34442,6,0,P|450:168|457:131,1,75,2|0,0:0|0:0,0:0:0:0:
364,133,34750,2,0,P|355:89|341:59,1,75,8|0,0:0|0:0,0:0:0:0:
268,117,35058,2,0,P|204:72|133:56,1,150,2|10,0:0|0:0,0:0:0:0:
153,152,35519,1,0,0:0:0:0:
256,234,35673,6,0,P|262:315|226:376,1,150,2|8,0:0|0:0,0:0:0:0:
134,282,36134,1,0,0:0:0:0:
153,152,36288,6,0,P|220:106|290:106,1,150,2|8,0:0|0:0,0:0:0:0:
256,234,36750,1,0,0:0:0:0:
134,282,36904,6,0,P|60:246|25:185,1,150,2|8,0:0|0:0,0:0:0:0:
153,152,37365,1,0,0:0:0:0:
256,234,37519,2,0,P|276:199|284:160,1,75,2|0,1:2|1:0,0:0:0:0:
272,60,37827,1,10,0:0:0:0:
276,58,37904,1,0,0:0:0:0:
280,56,37981,1,0,0:0:0:0:
407,58,38134,6,0,L|425:209,1,150,2|8,0:0|0:0,0:0:0:0:
437,304,38596,1,0,0:0:0:0:
343,337,38750,2,0,L|323:369,2,37.5,2|0|0,0:0|0:0|0:0,0:0:0:0:
361,239,39058,1,10,0:0:0:0:
263,221,39211,1,2,0:0:0:0:
245,319,39365,6,0,L|93:339,1,150,2|8,0:0|0:0,0:0:0:0:
37,261,39827,1,0,0:0:0:0:
7,168,39981,2,0,P|47:169|83:180,1,75,2|0,0:0|0:0,0:0:0:0:
160,237,40288,2,0,P|170:201|170:163,1,75,10|2,0:0|0:0,0:0:0:0:
144,32,40596,5,0,0:0:0:0:
213,77,40750,1,0,0:0:0:0:
282,122,40904,2,0,L|357:127,1,75,8|0,0:0|0:0,0:0:0:0:
208,159,41211,2,0,L|166:164,2,37.5
277,204,41519,2,0,L|352:209,1,75,8|0,0:0|0:0,0:0:0:0:
348,300,41827,6,0,L|258:306,1,89.9999972534181,2|0,0:0|0:0,0:0:0:0:
160,316,42134,1,2,0:0:0:0:
128,232,42288,1,2,0:0:0:0:
124,228,42365,1,0,0:0:0:0:
120,224,42442,2,0,L|124:180,2,44.999998626709,0|0|4,0:0|0:0|0:0,0:0:0:0:
61,326,42750,2,0,P|37:275|33:240,1,89.9999972534181,10|0,0:0|0:0,0:0:0:0:
70,83,43058,6,0,P|105:66|144:58,1,75,0|0,0:0|0:0,0:0:0:0:
171,154,43365,2,0,P|206:171|245:179,1,75,8|0,0:0|0:0,0:0:0:0:
332,139,43673,1,0,0:0:0:0:
358,45,43827,1,4,0:0:0:0:
264,70,43981,1,8,0:0:0:0:
264,70,44058,1,0,0:0:0:0:
264,70,44134,1,0,0:0:0:0:
332,139,44288,6,0,L|350:215,1,75
436,246,44596,2,0,L|418:322,1,75,8|0,0:0|0:0,0:0:0:0:
330,348,44904,2,0,P|288:355|251:353,1,75,0|4,0:0|0:0,0:0:0:0:
214,264,45211,1,8,0:0:0:0:
214,264,45288,1,0,0:0:0:0:
214,264,45365,1,0,0:0:0:0:
144,349,45519,6,0,P|127:314|119:275,1,75
62,208,45827,2,0,P|70:171|86:137,1,75,8|0,0:0|0:0,0:0:0:0:
162,90,46134,1,0,0:0:0:0:
84,47,46288,1,4,0:0:0:0:
86,137,46442,1,8,0:0:0:0:
164,180,46596,2,0,L|178:218,2,37.5,0|0|4,0:0|0:0|0:0,0:0:0:0:
162,90,46904,5,4,0:0:0:0:
238,43,47058,1,8,0:0:0:0:
240,133,47211,1,0,0:0:0:0:
316,86,47365,1,0,1:0:0:0:
327,100,47441,1,0,0:0:0:0:
339,115,47519,1,4,0:0:0:0:
392,39,47673,2,0,P|431:42|468:62,1,75,8|0,0:0|0:0,0:0:0:0:
426,153,47981,6,0,L|457:222,1,75
415,319,48288,2,0,L|384:250,1,75,8|0,0:0|0:0,0:0:0:0:
307,189,48596,1,0,0:0:0:0:
215,191,48750,1,4,0:0:0:0:
180,275,48904,1,8,0:0:0:0:
97,312,49058,1,0,0:0:0:0:
79,307,49134,1,0,0:0:0:0:
60,302,49211,6,0,P|31:270|14:239,1,75
103,193,49519,2,0,P|105:151|115:117,1,75,8|0,0:0|0:0,0:0:0:0:
203,97,49827,1,0,0:0:0:0:
215,191,49981,1,4,0:0:0:0:
270,264,50134,1,8,0:0:0:0:
360,284,50288,1,0,0:0:0:0:
365,266,50365,1,0,0:0:0:0:
371,248,50442,6,0,L|440:217,1,75
449,113,50750,2,0,L|380:144,1,75,8|0,0:0|0:0,0:0:0:0:
307,189,51058,1,0,0:0:0:0:
270,264,51211,1,4,0:0:0:0:
273,348,51365,1,8,0:0:0:0:
360,284,51519,6,0,P|437:292|502:324,1,150,0|4,0:0|0:0,0:0:0:0:
423,212,51981,2,0,P|461:203|505:205,1,75,8|0,0:0|0:0,0:0:0:0:
383,129,52288,2,0,P|417:97|460:79,1,75,0|4,1:0|0:0,0:0:0:0:
306,83,52596,2,0,L|315:42,2,37.5,8|0|0,0:0|0:0|0:0,0:0:0:0:
320,195,52904,6,0,P|294:229|263:244,1,75,0|0,0:0|0:0,0:0:0:0:
173,130,53211,2,0,P|215:135|243:154,1,75,8|0,0:0|0:0,0:0:0:0:
190,289,53519,2,0,P|150:305|116:302,1,75,0|4,0:0|0:0,0:0:0:0:
60,223,53827,1,8,0:0:0:0:
54,205,53904,1,0,0:0:0:0:
48,187,53981,1,0,0:0:0:0:
112,53,54134,6,0,P|142:35|183:31,1,75
173,130,54442,2,0,P|157:168|156:203,1,75,8|0,0:0|0:0,0:0:0:0:
320,195,54750,2,0,P|281:179|246:178,1,75,0|4,0:0|0:0,0:0:0:0:
190,289,55058,1,8,0:0:0:0:
199,305,55134,1,0,0:0:0:0:
208,321,55211,1,0,0:0:0:0:
354,287,55365,6,0,L|432:276,1,75
492,184,55673,2,0,L|414:195,1,75,8|0,0:0|0:0,0:0:0:0:
320,195,55981,1,0,0:0:0:0:
238,144,56134,1,4,0:0:0:0:
292,63,56288,1,8,0:0:0:0:
195,56,56442,6,0,B|130:94|130:94|146:133|132:175,1,150,0|4,0:0|0:0,0:0:0:0:
45,206,56904,2,0,P|36:167|42:131,1,75,8|0,0:0|0:0,0:0:0:0:
134,167,57211,1,0,1:0:0:0:
124,264,57365,1,4,0:0:0:0:
84,354,57519,1,8,0:0:0:0:
100,363,57595,1,0,0:0:0:0:
117,372,57672,1,0,0:0:0:0:
202,322,57827,6,0,P|221:281|218:245,1,75
134,167,58134,2,0,P|174:147|210:150,1,75,8|0,0:0|0:0,0:0:0:0:
293,191,58442,1,0,0:0:0:0:
313,286,58596,1,4,0:0:0:0:
390,344,58750,2,0,P|435:354|467:348,1,75,8|0,0:0|0:0,0:0:0:0:
421,245,59058,6,0,L|483:200,1,75
386,146,59365,2,0,P|372:112|372:73,1,75,8|0,0:0|0:0,0:0:0:0:
468,92,59673,1,0,0:0:0:0:
386,146,59827,1,4,0:0:0:0:
288,152,59981,1,8,0:0:0:0:
278,136,60058,1,0,0:0:0:0:
268,120,60134,1,0,0:0:0:0:
256,192,60288,12,2,62442,1:2:0:0:
196,272,62750,5,2,0:0:0:0:
302,290,62904,2,0,L|323:333,2,44.999998626709
256,192,63211,1,2,0:0:0:0:
362,210,63365,2,0,L|383:253,2,44.999998626709
316,112,63673,2,0,P|264:92|230:95,1,89.9999972534181,2|0,0:0|0:0,0:0:0:0:
150,174,63981,6,0,L|102:170,1,44.999998626709
60,256,64211,2,0,L|105:260,1,44.999998626709
196,272,64442,1,0,0:0:0:0:
217,279,64519,1,0,0:0:0:0:
239,276,64596,1,2,0:0:0:0:
261,273,64673,1,0,0:0:0:0:
282,280,64750,1,0,0:0:0:0:
352,336,64904,1,2,0:0:0:0:
383,232,65058,1,2,0:0:0:0:
304,152,65211,6,0,P|340:68|392:36,1,150,2|8,0:0|0:0,0:0:0:0:
440,120,65673,1,0,0:0:0:0:
416,224,65827,2,0,P|360:264|282:280,1,150,2|8,0:0|0:0,0:0:0:0:
192,244,66288,1,0,0:0:0:0:
104,204,66442,6,0,P|60:196|20:200,2,75,2|0|8,0:0|0:0|0:0,0:0:0:0:
192,244,66904,1,2,0:0:0:0:
144,116,67058,2,0,L|116:36,1,75,2|0,0:0|0:0,0:0:0:0:
232,156,67365,5,10,0:0:0:0:
328,140,67519,1,2,0:0:0:0:
308,44,67673,2,0,P|248:84|232:156,1,150,2|8,0:0|0:0,0:0:0:0:
293,231,68134,1,2,0:0:0:0:
368,292,68287,5,2,0:0:0:0:
449,238,68441,1,2,0:0:0:0:
422,144,68595,1,10,0:0:0:0:
328,140,68750,1,2,0:0:0:0:
293,231,68904,6,0,P|223:253|154:213,2,150,6|8|0,0:0|0:0|0:0,0:0:0:0:
293,231,69827,5,10,0:0:0:0:
328,140,69981,1,2,0:0:0:0:
279,54,70134,2,0,P|200:37|130:51,1,150,2|8,0:0|0:0,0:0:0:0:
75,129,70596,1,0,0:0:0:0:
129,209,70750,2,0,P|111:282|32:324,1,150,2|8,0:0|0:0,0:0:0:0:
32,224,71211,1,0,0:0:0:0:
129,209,71365,6,0,P|177:213|210:226,1,75,2|0,0:0|0:0,0:0:0:0:
254,278,71673,1,8,0:0:0:0:
288,344,71827,1,2,0:0:0:0:
306,225,71981,2,0,L|319:144,1,75,2|0,0:0|0:0,0:0:0:0:
279,54,72288,5,10,0:0:0:0:
187,87,72442,1,2,0:0:0:0:
90,73,72596,2,0,P|86:133|129:209,1,150,2|8,0:0|0:0,0:0:0:0:
214,257,73058,1,2,0:0:0:0:
306,225,73211,5,2,0:0:0:0:
364,302,73365,1,2,0:0:0:0:
308,380,73519,1,10,0:0:0:0:
216,350,73672,1,2,0:0:0:0:
214,257,73827,5,2,0:0:0:0:
200,239,73903,1,0,0:0:0:0:
186,221,73980,1,0,0:0:0:0:
306,225,74134,2,0,L|321:131,1,89.9999972534181,10|0,0:0|0:0,0:0:0:0:
225,76,74442,2,0,L|240:170,1,89.9999972534181,2|0,0:0|0:0,0:0:0:0:
214,257,74750,5,2,0:0:0:0:
134,305,74904,1,0,0:0:0:0:
63,243,75058,2,0,P|51:167|71:92,1,150,2|8,0:0|0:0,0:0:0:0:
140,30,75519,1,0,0:0:0:0:
225,76,75673,2,0,P|277:73|306:63,1,75,2|0,0:0|0:0,0:0:0:0:
359,145,75981,2,0,P|411:148|440:158,1,75,8|0,0:0|0:0,0:0:0:0:
352,242,76288,6,0,P|339:303|419:326,1,150,2|8,0:0|0:0,0:0:0:0:
440,200,76750,1,2,0:0:0:0:
359,145,76904,2,0,P|307:148|278:158,1,75,2|0,0:0|0:0,0:0:0:0:
214,257,77211,6,0,P|177:266|140:266,1,75,10|2,0:0|0:0,0:0:0:0:
65,203,77519,2,0,B|98:136|98:136|141:140|177:124,1,150,2|8,0:0|0:0,0:0:0:0:
236,51,77981,1,2,0:0:0:0:
331,53,78134,5,2,0:0:0:0:
359,145,78288,1,2,0:0:0:0:
280,199,78442,1,10,0:0:0:0:
204,141,78596,1,2,0:0:0:0:
236,51,78750,6,0,P|331:53|361:103,1,150,6|8,0:0|0:0,0:0:0:0:
204,141,79365,1,0,0:0:0:0:
204,141,79673,5,10,0:0:0:0:
191,235,79827,1,2,0:0:0:0:
276,276,79981,2,0,P|311:295|336:325,1,75,2|0,0:0|0:0,0:0:0:0:
240,384,80288,2,0,P|204:364|179:334,1,75,8|0,0:0|0:0,0:0:0:0:
191,235,80596,1,2,0:0:0:0:
116,176,80750,1,0,0:0:0:0:
204,141,80904,2,0,P|226:104|228:71,1,75,8|0,0:0|0:0,0:0:0:0:
279,200,81211,6,0,P|312:137|319:51,1,150,2|8,0:0|0:0,0:0:0:0:
362,148,81673,1,2,0:0:0:0:
404,235,81827,2,0,P|441:257|474:259,1,75,2|0,0:0|0:0,0:0:0:0:
337,359,82134,6,0,L|324:278,1,75,10|2,0:0|0:0,0:0:0:0:
279,200,82442,2,0,B|237:193|206:213|206:213|189:250|151:268,1,150,2|8,0:0|0:0,0:0:0:0:
116,176,82904,1,2,0:0:0:0:
204,141,83058,5,2,0:0:0:0:
197,46,83211,1,2,0:0:0:0:
104,23,83365,1,10,0:0:0:0:
53,104,83519,1,2,0:0:0:0:
116,176,83673,5,2,0:0:0:0:
128,194,83749,1,0,0:0:0:0:
141,213,83826,1,0,0:0:0:0:
204,141,83981,2,0,L|298:126,1,89.9999972534181,10|0,0:0|0:0,0:0:0:0:
264,212,84288,2,0,L|370:212,1,101.250000386238,2|4,0:0|0:0,0:0:0:0:
310,291,84596,2,0,L|423:309,1,112.500004291535,10|0,0:0|0:0,0:0:0:0:
256,192,84904,12,0,86134,0:0:0:0:
315,82,87365,6,0,L|306:173,1,89.9999972534181,6|0,0:0|0:0,0:0:0:0:
298,261,87673,1,8,0:0:0:0:
298,261,87827,1,0,0:0:0:0:
194,148,87981,2,0,L|212:238,1,89.9999972534181,2|0,0:0|0:0,0:0:0:0:
233,323,88288,1,8,0:0:0:0:
318,349,88442,1,0,0:0:0:0:
340,352,88519,1,0,0:0:0:0:
362,355,88596,6,0,L|454:368,1,89.9999972534181,2|2,0:0|0:0,0:0:0:0:
388,267,88904,2,0,L|480:254,1,89.9999972534181,10|2,0:0|0:0,0:0:0:0:
390,176,89211,1,2,0:0:0:0:
494,123,89365,1,2,0:0:0:0:
382,86,89519,2,0,L|390:176,1,89.9999972534181,10|0,0:0|0:0,0:0:0:0:
298,276,89827,6,0,L|206:289,1,89.9999972534181,2|0,0:0|0:0,0:0:0:0:
119,302,90134,1,8,0:0:0:0:
119,302,90288,1,0,0:0:0:0:
194,148,90442,2,0,L|182:238,1,89.9999972534181,2|0,0:0|0:0,0:0:0:0:
119,302,90750,1,8,0:0:0:0:
40,258,90904,1,2,0:0:0:0:
36,167,91058,5,2,0:0:0:0:
104,72,91211,1,2,0:0:0:0:
194,148,91365,1,10,0:0:0:0:
308,121,91519,1,2,0:0:0:0:
284,224,91673,1,0,0:0:0:0:
279,246,91749,1,0,0:0:0:0:
275,268,91826,1,0,0:0:0:0:
270,290,91903,1,0,0:0:0:0:
266,312,91981,2,0,L|266:358,3,44.999998626709,8|0|0|0,0:0|0:0|0:0|0:0,0:0:0:0:
322,320,92288,6,0,L|414:307,1,89.9999972534181,6|0,0:0|0:0,0:0:0:0:
500,294,92596,1,8,0:0:0:0:
500,294,92750,1,0,0:0:0:0:
378,235,92904,2,0,L|436:166,1,89.9999972534181,2|0,0:0|0:0,0:0:0:0:
495,98,93211,1,8,0:0:0:0:
446,22,93365,1,0,0:0:0:0:
433,40,93442,1,0,0:0:0:0:
420,58,93519,6,0,P|375:61|330:46,1,89.9999972534181,2|2,0:0|0:0,0:0:0:0:
374,141,93827,2,0,P|322:159|283:161,1,89.9999972534181,10|2,0:0|0:0,0:0:0:0:
378,235,94134,1,2,0:0:0:0:
293,316,94288,1,2,0:0:0:0:
175,319,94442,2,0,P|128:302|93:267,1,89.9999972534181,10|0,0:0|0:0,0:0:0:0:
190,200,94750,6,0,L|203:108,1,89.9999972534181,2|0,0:0|0:0,0:0:0:0:
218,21,95058,1,8,0:0:0:0:
218,21,95211,1,0,0:0:0:0:
76,99,95365,2,0,L|168:95,1,89.9999972534181,2|0,0:0|0:0,0:0:0:0:
218,21,95673,1,8,0:0:0:0:
283,84,95827,1,2,0:0:0:0:
371,101,95981,6,0,L|417:108,3,44.999998626709
386,158,96288,2,0,L|427:189,3,44.999998626709,2|0|0|0,0:0|0:0|0:0|0:0,0:0:0:0:
368,211,96596,2,0,L|381:303,1,89.9999972534181,10|0,0:0|0:0,0:0:0:0:
290,154,96904,2,0,L|277:246,1,89.9999972534181,2|2,0:0|0:0,0:0:0:0:
198,329,97211,6,0,P|169:288|163:246,1,89.9999972534181,6|0,0:0|0:0,0:0:0:0:
167,158,97519,1,8,0:0:0:0:
167,158,97673,1,0,0:0:0:0:
71,289,97827,2,0,P|72:239|92:199,1,89.9999972534181,2|0,0:0|0:0,0:0:0:0:
167,158,98134,1,8,0:0:0:0:
252,130,98288,1,0,0:0:0:0:
271,142,98365,1,0,0:0:0:0:
290,154,98442,6,0,L|426:139,2,134.999995880127,2|10|2,0:0|0:0|0:0,0:0:0:0:
316,66,99058,2,0,L|405:56,2,89.9999972534181,2|2|10,0:0|0:0|0:0,0:0:0:0:
252,130,99519,1,0,0:0:0:0:
184,69,99673,6,0,L|148:39,3,44.999998626709
163,111,99981,2,0,L|119:106,3,44.999998626709,8|0|0|0,0:0|0:0|0:0|0:0,0:0:0:0:
167,158,100288,2,0,L|211:163,3,44.999998626709
146,200,100596,2,0,L|182:230,3,44.999998626709,8|0|0|0,0:0|0:0|0:0|0:0,0:0:0:0:
172,276,100904,6,0,L|172:326,3,44.999998626709
230,331,101211,2,0,L|230:286,3,44.999998626709,8|0|0|0,0:0|0:0|0:0|0:0,0:0:0:0:
282,286,101519,2,0,L|282:336,3,44.999998626709
340,321,101827,2,0,L|340:276,3,44.999998626709,8|0|0|0,0:0|0:0|0:0|0:0,0:0:0:0:
392,296,102134,6,0,L|428:210,1,89.9999972534181,6|0,0:0|0:0,0:0:0:0:
464,130,102442,1,8,0:0:0:0:
464,130,102596,1,0,0:0:0:0:
334,32,102750,2,0,P|384:34|420:52,1,89.9999972534181,2|0,0:0|0:0,0:0:0:0:
464,130,103058,1,8,0:0:0:0:
369,198,103211,1,0,0:0:0:0:
256,164,103365,6,0,P|239:121|241:78,1,89.9999972534181,2|2,0:0|0:0,0:0:0:0:
369,198,103673,2,0,P|414:204|450:228,1,89.9999972534181,10|2,0:0|0:0,0:0:0:0:
283,278,103981,2,0,P|254:314|216:333,2,89.9999972534181,2|2|10,0:0|0:0|0:0,0:0:0:0:
170,244,104442,1,0,0:0:0:0:
57,210,104596,6,0,L|20:235,3,44.999998626709
59,157,104904,2,0,L|16:172,3,44.999998626709,8|0|0|0,0:0|0:0|0:0|0:0,0:0:0:0:
74,108,105211,2,0,L|30:111,3,44.999998626709
102,64,105519,2,0,L|58:55,3,44.999998626709,8|0|0|0,0:0|0:0|0:0|0:0,0:0:0:0:
140,28,105827,5,2,0:0:0:0:
242,85,105981,1,0,0:0:0:0:
142,145,106134,1,2,0:0:0:0:
143,261,106287,1,2,0:0:0:0:
244,317,106442,1,8,0:0:0:0:
266,321,106519,1,0,0:0:0:0:
288,321,106596,1,0,0:0:0:0:
310,317,106673,1,0,0:0:0:0:
331,309,106750,2,0,L|423:322,1,89.9999972534181,2|2,0:0|0:0,0:0:0:0:
422,230,107058,6,0,L|330:217,1,89.9999972534181,6|0,0:0|0:0,0:0:0:0:
243,201,107365,1,8,0:0:0:0:
243,201,107519,1,0,0:0:0:0:
377,94,107673,2,0,L|326:172,1,89.9999972534181,2|0,0:0|0:0,0:0:0:0:
243,201,107981,1,8,0:0:0:0:
172,145,108134,1,0,0:0:0:0:
149,145,108211,1,0,0:0:0:0:
126,145,108288,6,0,P|77:193|76:262,2,134.999995880127,2|10|2,0:0|0:0|0:0,0:0:0:0:
158,229,108904,2,0,P|185:270|224:289,2,89.9999972534181,2|2|10,0:0|0:0|0:0,0:0:0:0:
243,201,109365,1,0,0:0:0:0:
256,111,109519,6,0,L|262:67,3,44.999998626709
299,131,109827,2,0,L|328:96,3,44.999998626709,8|0|0|0,0:0|0:0|0:0|0:0,0:0:0:0:
327,169,110134,2,0,L|298:204,3,44.999998626709
370,189,110442,2,0,L|364:233,3,44.999998626709,8|0|0|0,0:0|0:0|0:0|0:0,0:0:0:0:
340,276,110750,6,0,L|340:326,3,44.999998626709
282,331,111057,2,0,L|282:286,3,44.999998626709,8|0|0|0,0:0|0:0|0:0|0:0,0:0:0:0:
230,286,111365,2,0,L|230:336,3,44.999998626709
172,321,111673,2,0,L|172:276,3,44.999998626709,8|0|0|0,0:0|0:0|0:0|0:0,0:0:0:0:
120,296,111980,6,0,L|84:210,1,89.9999972534181,6|0,0:0|0:0,0:0:0:0:
48,130,112288,1,8,0:0:0:0:
48,130,112442,1,0,0:0:0:0:
202,202,112596,2,0,P|157:202|114:192,1,89.9999972534181,2|0,0:0|0:0,0:0:0:0:
48,130,112904,1,8,0:0:0:0:
159,94,113058,1,0,0:0:0:0:
202,202,113211,6,0,P|202:247|212:290,1,89.9999972534181,2|2,0:0|0:0,0:0:0:0:
274,110,113519,2,0,P|312:87|345:57,1,89.9999972534181,10|2,0:0|0:0,0:0:0:0:
159,94,113827,2,0,P|120:71|77:58,2,89.9999972534181,2|2|10,0:0|0:0|0:0,0:0:0:0:
202,202,114288,1,0,0:0:0:0:
245,310,114442,6,0,P|283:332|326:345,1,89.9999972534181,2|0,0:0|0:0,0:0:0:0:
417,339,114750,1,8,0:0:0:0:
417,339,114904,1,0,0:0:0:0:
446,167,115058,2,0,P|424:205|411:248,1,89.9999972534181,2|0,0:0|0:0,0:0:0:0:
417,339,115365,1,8,0:0:0:0:
508,266,115519,1,0,0:0:0:0:
446,167,115673,6,0,P|402:178|363:199,1,89.9999972534181,2|0,0:0|0:0,0:0:0:0:
246,215,115981,2,0,P|269:177|282:134,1,89.9999972534181,8|0,0:0|1:0,0:0:0:0:
132,102,116288,1,2,0:0:0:0:
160,188,116442,1,0,0:0:0:0:
18,130,116596,1,2,0:0:0:0:
132,102,116750,1,2,0:0:0:0:
46,216,116904,6,0,P|52:300|123:320,1,150,2|8,0:0|0:0,0:0:0:0:
180,262,117365,1,0,0:0:0:0:
188,165,117519,2,0,P|253:127|327:122,1,150,2|8,0:0|0:0,0:0:0:0:
405,179,117981,1,0,0:0:0:0:
396,275,118134,6,0,P|405:314|428:341,2,75,2|0|8,0:0|0:0|0:0,0:0:0:0:
405,179,118596,1,2,0:0:0:0:
385,83,118750,2,0,P|356:59|319:51,1,75,2|0,0:0|0:0,0:0:0:0:
282,142,119058,5,10,0:0:0:0:
188,165,119211,1,2,0:0:0:0:
137,82,119365,2,0,P|92:143|102:212,1,150,2|8,0:0|0:0,0:0:0:0:
180,262,119827,1,2,0:0:0:0:
333,225,119981,5,2,0:0:0:0:
282,142,120134,1,2,0:0:0:0:
188,165,120288,1,10,0:0:0:0:
180,262,120442,1,2,0:0:0:0:
270,298,120596,6,0,P|308:302|346:294,1,75,6|4,0:0|0:0,0:0:0:0:
283,142,120904,2,0,P|243:154|211:175,1,75,10|0,0:0|0:0,0:0:0:0:
333,225,121211,2,0,P|358:205|382:168,1,75,2|4,1:2|0:0,0:0:0:0:
291,45,121519,5,10,0:0:0:0:
283,142,121673,1,2,0:0:0:0:
188,165,121827,2,0,P|116:165|44:204,1,150,2|8,0:0|0:0,0:0:0:0:
20,293,122289,1,0,0:0:0:0:
87,363,122442,2,0,P|159:363|231:324,1,150,2|8,0:0|0:0,0:0:0:0:
255,235,122904,1,0,0:0:0:0:
283,142,123058,6,0,P|327:120|362:116,1,75,2|0,0:0|0:0,0:0:0:0:
426,128,123365,1,8,0:0:0:0:
488,86,123519,1,2,0:0:0:0:
447,199,123673,2,0,P|459:239|480:271,1,75,2|0,0:0|0:0,0:0:0:0:
376,182,123981,5,10,0:0:0:0:
344,274,124134,1,2,0:0:0:0:
265,331,124288,2,0,P|188:363|119:362,1,150,2|8,0:0|0:0,0:0:0:0:
156,236,124750,1,2,0:0:0:0:
203,86,124904,5,2,0:0:0:0:
283,142,125058,1,2,0:0:0:0:
255,235,125211,1,10,0:0:0:0:
156,236,125365,1,2,0:0:0:0:
125,144,125519,5,6,0:0:0:0:
109,133,125595,1,0,0:0:0:0:
94,122,125672,1,4,0:0:0:0:
203,86,125827,2,0,L|281:28,1,75,10|0,0:0|0:0,0:0:0:0:
283,142,126134,2,0,L|359:141,1,75,2|4,0:0|0:0,0:0:0:0:
255,235,126442,5,10,0:0:0:0:
270,245,126518,1,0,0:0:0:0:
285,256,126595,1,0,0:0:0:0:
301,267,126672,1,0,0:0:0:0:
316,278,126750,2,0,P|354:219|358:141,1,150,2|8,0:0|0:0,0:0:0:0:
298,63,127211,1,0,0:0:0:0:
203,86,127365,2,0,P|164:81|126:64,1,75,2|0,0:0|0:0,0:0:0:0:
32,136,127673,2,0,P|71:141|109:158,1,75,8|0,0:0|0:0,0:0:0:0:
42,231,127981,6,0,P|54:309|116:326,1,150,2|8,0:0|0:0,0:0:0:0:
185,259,128442,1,2,0:0:0:0:
256,192,128596,2,0,P|279:232|282:268,1,75,2|0,0:0|0:0,0:0:0:0:
256,354,128904,5,10,0:0:0:0:
350,330,129058,1,2,0:0:0:0:
421,263,129211,2,0,P|444:303|447:339,2,75,2|0|8,0:0|0:0|0:0,0:0:0:0:
354,192,129673,1,2,0:0:0:0:
225,98,129827,5,2,0:0:0:0:
304,39,129980,1,2,0:0:0:0:
384,95,130134,1,10,0:0:0:0:
354,192,130288,1,2,0:0:0:0:
256,192,130442,6,0,P|218:188|180:196,1,75,6|4,0:0|0:0,0:0:0:0:
152,296,130750,2,0,P|192:284|224:263,1,75,10|0,0:0|0:0,0:0:0:0:
128,136,131057,2,0,P|103:156|79:193,1,75,2|4,1:2|0:0,0:0:0:0:
54,286,131365,5,10,0:0:0:0:
152,296,131519,1,2,0:0:0:0:
234,348,131673,2,0,P|314:337|362:282,1,150,2|8,0:0|0:0,0:0:0:0:
354,192,132134,1,0,0:0:0:0:
308,105,132288,2,0,P|283:125|259:162,1,75,2|0,0:0|0:0,0:0:0:0:
212,264,132596,2,0,P|192:232|182:196,1,75,8|0,0:0|0:0,0:0:0:0:
161,85,132904,6,0,P|92:127|66:188,1,150,2|8,0:0|0:0,0:0:0:0:
54,286,133365,1,2,0:0:0:0:
140,241,133519,2,0,P|172:248|212:264,1,75,2|0,0:0|0:0,0:0:0:0:
282,332,133827,5,10,0:0:0:0:
334,249,133981,1,2,0:0:0:0:
256,192,134134,2,0,P|241:157|233:120,2,75,2|0|8,0:0|0:0|0:0,0:0:0:0:
334,249,134596,1,2,0:0:0:0:
439,131,134750,5,2,0:0:0:0:
488,214,134904,1,2,0:0:0:0:
424,286,135058,1,10,0:0:0:0:
334,249,135211,1,2,0:0:0:0:
344,152,135365,5,6,0:0:0:0:
334,135,135441,1,0,0:0:0:0:
324,119,135518,1,4,0:0:0:0:
256,192,135673,2,0,L|178:135,1,89.9999972534181,10|0,0:0|0:0,0:0:0:0:
174,240,135981,2,0,L|68:232,1,101.250000386238,2|4,0:0|0:0,0:0:0:0:
136,326,136288,2,0,L|27:351,1,112.500004291535,10|0,0:0|0:0,0:0:0:0:
256,192,136596,12,4,139058,0:0:0:0:
