osu file format v13

[General]
AudioFilename: Lunatic Princess.mp3
AudioLeadIn: 0
PreviewTime: 87365
Countdown: 0
SampleSet: None
StackLeniency: 0.7
Mode: 0
LetterboxInBreaks: 0
WidescreenStoryboard: 0

[Editor]
DistanceSpacing: 1
BeatDivisor: 2
GridSize: 4
TimelineZoom: 1.8

[Metadata]
Title:sola
TitleUnicode:sola
Artist:nmk
ArtistUnicode:nmk
Creator:sjoy
Version:Normal
Source:BMS
Tags:Touhou 東方音弾遊戯6 taketori hishou 竹取飛翔 ~ Lunatic Princess Houraisan Kaguya imoutosan chenwu Sakaue Nachi artcore sharlo flower Optie
BeatmapID:440570
BeatmapSetID:183267

[Difficulty]
HPDrainRate:4
CircleSize:3
OverallDifficulty:4
ApproachRate:5
SliderMultiplier:1
SliderTickRate:1

[Events]
//Background and Video events
0,0,"bg.jpg",0,0
Video,-182,"2333.avi"
//Break Periods
2,62950,64011
//Storyboard Layer 0 (Background)
//Storyboard Layer 1 (Fail)
//Storyboard Layer 2 (Pass)
//Storyboard Layer 3 (Foreground)
//Storyboard Sound Samples
//Background Colour Transformations
3,100,163,162,255

[TimingPoints]
11058,307.692307692308,4,2,1,50,1,0
11058,-100,4,2,1,50,0,0
19058,-100,4,2,1,55,0,0
19673,-100,4,2,1,60,0,0
20288,-100,4,2,1,65,0,0
20596,-100,4,2,1,70,0,0
20904,-100,4,2,1,30,0,0
22134,-100,4,2,1,60,0,0
23365,-100,4,2,2,60,0,0
33211,-100,4,2,1,60,0,0
33365,-100,4,2,2,60,0,0
43058,-100,4,2,1,60,0,0
43211,-100,4,2,2,60,0,0
52904,-100,4,2,1,60,0,0
52981,-100,4,2,2,60,0,0
62442,-100,4,1,2,60,0,0
65211,-100,4,2,2,60,0,0
83673,-100,4,1,2,60,0,0
84288,-100,4,1,2,60,0,0
84596,-100,4,1,2,60,0,0
86134,-100,4,2,1,5,0,0
87365,-100,4,2,1,60,0,1
87519,-100,4,2,2,60,0,1
97211,-100,4,2,1,70,0,1
97288,-100,4,2,2,70,0,1
105827,-100,4,2,1,70,0,1
107058,-100,4,2,1,80,0,1
107134,-100,4,2,2,80,0,1
116904,-100,4,2,1,60,0,0
126750,-100,4,2,1,70,0,0
139058,-100,4,1,1,50,0,0

[Colours]
Combo1 : 250,180,220
Combo2 : 172,251,255
Combo3 : 138,255,125
Combo4 : 255,255,106

[HitObjects]
44,80,11058,6,0,P|94:74|160:80,1,100,4|8,0:0|0:0,0:0:0:0:
212,148,11673,2,0,P|264:158|324:148,1,100,2|8,0:0|0:0,0:0:0:0:
378,78,12288,1,0,0:0:0:0:
450,147,12596,1,8,0:0:0:0:
388,226,12904,2,0,L|325:262,2,50,2|0|8,0:0|0:0|0:0,0:0:0:0:
468,285,13519,6,0,L|364:352,1,100,0|8,0:0|0:0,0:0:0:0:
286,315,14134,1,2,0:0:0:0:
188,336,14442,2,0,L|188:272,1,50,8|2,0:0|0:0,0:0:0:0:
252,149,15058,1,8,0:0:0:0:
172,89,15365,1,2,0:0:0:0:
92,149,15673,1,8,0:0:0:0:
60,243,15981,6,0,P|66:295|101:340,1,100,4|8,0:0|0:0,0:0:0:0:
156,256,16596,2,0,P|205:249|260:262,1,100,2|8,0:0|0:0,0:0:0:0:
349,290,17211,2,0,P|400:296|456:268,1,100,0|8,0:0|0:0,0:0:0:0:
383,199,17827,2,0,P|368:148|317:112,1,100,2|8,0:0|0:0,0:0:0:0:
238,148,18442,6,0,B|173:144|173:144|112:170|112:170|34:168,1,200,4|8,0:0|0:0,0:0:0:0:
180,313,19673,2,0,L|289:316,1,100,4|0,0:0|0:0,0:0:0:0:
371,274,20288,1,4,0:0:0:0:
292,212,20596,1,4,0:0:0:0:
256,192,20904,12,4,23365,0:0:0:0:
267,307,24288,5,8,0:0:0:0:
172,338,24596,1,0,0:0:0:0:
90,280,24904,1,8,0:0:0:0:
103,181,25211,2,0,L|33:196,2,50,2|0|8,0:0|0:0|0:0,0:0:0:0:
172,108,25827,6,0,P|220:97|286:109,1,100,0|8,0:0|0:0,0:0:0:0:
356,153,26442,1,2,0:0:0:0:
268,201,26750,2,0,L|233:259,1,50,8|2,0:0|0:0,0:0:0:0:
354,343,27365,1,8,0:0:0:0:
449,312,27673,1,2,0:0:0:0:
479,216,27981,1,8,0:0:0:0:
382,242,28288,6,0,P|329:251|279:244,1,100,0|8,0:0|0:0,0:0:0:0:
184,227,28904,2,0,L|174:287,2,50,2|0|8,0:0|0:0|0:0,0:0:0:0:
137,138,29519,2,0,P|188:124|241:143,1,100,0|8,0:0|0:0,0:0:0:0:
329,159,30134,2,0,L|339:99,2,50,2|0|8,0:0|0:0|0:0,0:0:0:0:
266,237,30750,6,0,P|256:287|276:341,1,100,0|8,0:0|0:0,0:0:0:0:
172,313,31365,1,2,0:0:0:0:
77,279,31673,2,0,L|96:213,1,50,8|2,0:0|0:0,0:0:0:0:
126,85,32288,1,8,0:0:0:0:
212,34,32596,1,2,0:0:0:0:
303,73,32904,1,8,0:0:0:0:
387,20,33211,6,0,P|397:77|379:136,1,100,4|8,0:0|0:0,0:0:0:0:
303,171,33827,2,0,L|301:228,2,50,2|0|8,0:0|0:0|0:0,0:0:0:0:
397,203,34442,2,0,P|446:214|493:256,1,100,2|8,0:0|0:0,0:0:0:0:
399,297,35058,2,0,P|354:321|291:313,1,100,2|8,0:0|0:0,0:0:0:0:
218,271,35673,6,0,P|168:262|107:283,1,100,2|8,0:0|0:0,0:0:0:0:
151,179,36288,1,2,0:0:0:0:
95,95,36596,2,0,L|63:33,1,50,8|2,0:0|0:0,0:0:0:0:
29,194,37211,1,8,0:0:0:0:
21,293,37519,1,2,0:0:0:0:
102,351,37827,1,8,0:0:0:0:
193,310,38134,6,0,P|243:299|311:313,1,100,2|8,0:0|0:0,0:0:0:0:
390,322,38750,1,2,0:0:0:0:
352,229,39058,1,8,0:0:0:0:
406,145,39365,2,0,B|431:68|380:37|380:37|280:59,1,200,2|2,0:0|0:0,0:0:0:0:
209,90,40288,1,8,0:0:0:0:
256,192,40596,12,4,43058,0:0:0:0:
306,154,43981,5,8,0:0:0:0:
211,185,44288,2,0,P|165:202|99:196,1,100,2|8,0:0|0:0,0:0:0:0:
54,120,44904,2,0,P|100:103|166:109,1,100,2|8,0:0|0:0,0:0:0:0:
247,81,45519,5,2,0:0:0:0:
306,154,45827,1,8,0:0:0:0:
288,252,46134,1,2,0:0:0:0:
192,281,46442,2,0,L|131:293,1,50,8|2,0:0|0:0,0:0:0:0:
282,347,47058,1,8,0:0:0:0:
381,337,47365,1,2,0:0:0:0:
463,279,47673,1,8,0:0:0:0:
369,241,47981,6,0,P|360:189|379:139,1,100,2|8,0:0|0:0,0:0:0:0:
304,74,48596,2,0,P|253:74|192:101,1,100,2|8,0:0|0:0,0:0:0:0:
148,171,49211,1,2,0:0:0:0:
158,270,49519,1,8,0:0:0:0:
227,342,49827,2,0,P|280:354|347:333,1,100,2|8,0:0|0:0,0:0:0:0:
400,276,50442,6,0,P|412:223|391:156,1,100,2|8,0:0|0:0,0:0:0:0:
336,104,51058,1,2,0:0:0:0:
244,142,51365,2,0,L|194:147,1,50,8|2,0:0|0:0,0:0:0:0:
44,165,51981,1,8,0:0:0:0:
73,69,52288,1,2,0:0:0:0:
171,49,52596,1,8,0:0:0:0:
194,147,52904,6,0,P|184:198|191:267,1,100,4|8,0:0|0:0,0:0:0:0:
208,343,53519,1,2,0:0:0:0:
406,320,54134,2,0,P|416:269|409:200,1,100,2|8,0:0|0:0,0:0:0:0:
358,137,54750,1,2,0:0:0:0:
177,220,55365,6,0,P|126:230|57:223,1,100,2|8,0:0|0:0,0:0:0:0:
34,137,55981,1,2,0:0:0:0:
110,72,56288,2,0,L|166:58,1,50,8|2,0:0|0:0,0:0:0:0:
294,124,56904,1,8,0:0:0:0:
392,108,57211,1,2,0:0:0:0:
470,45,57519,1,8,0:0:0:0:
486,143,57827,6,0,L|497:209,1,50,2|2,0:0|0:0,0:0:0:0:
388,299,58442,2,0,P|336:313|281:305,1,100,2|8,0:0|0:0,0:0:0:0:
190,306,59058,2,0,L|117:318,1,50,2|2,0:0|0:0,0:0:0:0:
26,212,59673,2,0,P|19:158|34:102,1,100,2|8,0:0|0:0,0:0:0:0:
256,192,60288,12,8,62750,2:0:0:0:
64,128,65211,6,0,P|121:118|184:126,1,100,2|8,0:0|0:0,0:0:0:0:
236,189,65827,2,0,P|293:199|356:191,1,100,2|8,0:0|0:0,0:0:0:0:
434,187,66442,2,0,P|452:236|450:289,1,100,2|8,0:0|0:0,0:0:0:0:
408,309,66904,2,0,L|356:326,1,50,2|2,0:0|0:0,0:0:0:0:
260,330,67365,2,0,L|190:325,1,50,8|2,0:0|0:0,0:0:0:0:
159,323,67673,6,0,P|130:279|125:213,1,100,2|8,0:0|0:0,0:0:0:0:
113,133,68288,2,0,B|153:99|153:99|223:140|308:101,1,200,2|2,0:0|0:0,0:0:0:0:
380,54,69211,1,8,0:0:0:0:
436,136,69519,1,2,0:0:0:0:
349,186,69827,2,0,L|301:212,1,50,8|2,0:0|0:0,0:0:0:0:
258,228,70134,6,8,P|203:238|149:234,1,100,2|8,0:0|0:0,0:0:0:0:
94,312,70750,2,8,P|149:322|203:318,1,100,2|8,0:0|0:0,0:0:0:0:
292,314,71365,2,8,P|343:309|402:334,1,100,2|8,0:0|0:0,0:0:0:0:
424,289,71827,2,0,L|444:239,1,50,2|2,0:0|0:0,0:0:0:0:
449,142,72288,2,0,L|429:92,1,50,8|2,0:0|0:0,0:0:0:0:
409,49,72596,5,2,0:0:0:0:
310,29,72904,1,8,0:0:0:0:
242,102,73211,2,0,B|197:127|197:127|117:100|36:125,1,200,2|0,0:0|0:0,0:0:0:0:
27,218,74134,5,8,0:0:0:0:
87,298,74442,1,0,0:0:0:0:
166,237,74750,2,0,L|213:290,1,50,10|2,2:0|2:0,0:0:0:0:
233,311,75058,6,0,P|284:317|336:310,1,100,2|8,0:0|0:0,0:0:0:0:
343,211,75673,2,0,P|349:160|342:108,1,100,2|8,0:0|0:0,0:0:0:0:
269,44,76288,1,2,0:0:0:0:
158,145,76750,2,0,L|106:191,1,50,2|2,0:0|0:0,0:0:0:0:
184,255,77211,2,0,L|236:301,1,50,2|2,0:0|0:0,0:0:0:0:
266,310,77519,6,0,P|314:316|381:301,1,100,2|8,0:0|0:0,0:0:0:0:
411,219,78134,2,0,B|331:188|308:108|308:108|276:149,1,200,2|2,0:0|0:0,0:0:0:0:
221,222,79058,1,8,0:0:0:0:
136,169,79365,1,2,0:0:0:0:
196,89,79673,2,0,L|229:40,1,50,8|2,0:0|0:0,0:0:0:0:
274,50,79981,6,0,P|322:64|389:54,1,100,2|8,0:0|0:0,0:0:0:0:
411,151,80596,2,0,P|362:165|296:155,1,100,2|8,0:0|0:0,0:0:0:0:
260,245,81211,1,2,0:0:0:0:
109,238,81673,2,0,L|98:177,1,50,2|2,0:0|0:0,0:0:0:0:
43,106,82134,2,0,L|54:45,1,50,8|2,0:0|0:0,0:0:0:0:
93,28,82442,2,0,P|137:21|197:33,1,100,2|8,0:0|0:0,0:0:0:0:
236,120,83058,2,0,B|285:115|285:115|325:127|325:127|385:114,1,150,2|0,0:0|0:0,0:0:0:0:
430,98,83673,6,0,L|463:212,1,100,2|0,0:0|0:0,0:0:0:0:
386,264,84288,1,2,0:0:0:0:
285,262,84596,1,2,0:0:0:0:
256,192,84904,12,0,86134,0:0:0:0:
325,141,87365,6,0,L|348:254,1,100,6|8,0:0|0:0,0:0:0:0:
246,221,87981,2,0,L|223:334,1,100,2|8,0:0|0:0,0:0:0:0:
126,324,88596,1,2,0:2:0:0:
74,238,88904,1,8,0:0:0:0:
110,145,89211,2,0,L|166:153,2,50,4|4|8,0:0|0:0|0:0,0:0:0:0:
54,61,89827,6,0,L|16:164,1,100,2|8,0:2|0:0,0:0:0:0:
74,238,90442,2,8,L|40:343,1,100,2|8,0:0|0:0,0:0:0:0:
139,304,91058,2,0,P|189:297|249:302,1,100,0|8,0:0|0:0,0:0:0:0:
337,316,91673,2,0,L|370:276,2,50,4|4|8,0:0|0:0|0:0,0:0:0:0:
300,222,92288,6,0,L|264:128,1,100,2|8,0:2|0:0,0:0:0:0:
363,144,92904,2,0,L|404:36,1,100,2|8,0:2|0:0,0:0:0:0:
299,34,93519,1,2,0:2:0:0:
265,129,93827,1,8,0:0:0:0:
363,144,94134,2,0,L|428:169,2,50,4|4|8,0:0|0:0|0:0,0:0:0:0:
319,234,94750,6,0,L|271:325,1,100,2|8,0:2|0:0,0:0:0:0:
173,339,95365,1,2,0:2:0:0:
77,308,95673,2,0,L|61:253,1,50,8|2,0:0|0:2,0:0:0:0:
52,210,95981,2,0,L|164:188,1,100,2|8,0:2|0:0,0:0:0:0:
181,95,96596,2,0,L|122:108,2,50,4|4|8,0:0|0:0|0:0,0:0:0:0:
251,166,97211,6,0,P|301:173|374:171,1,100,4|8,0:0|0:0,0:0:0:0:
411,253,97827,2,0,P|360:260|288:258,1,100,2|8,0:0|0:0,0:0:0:0:
211,259,98442,2,0,P|171:268|123:296,2,75,2|2|2,0:0|0:0|0:0,0:0:0:0:
231,305,99058,2,0,L|246:360,2,50,2|2|8,0:0|0:0|0:0,0:0:0:0:
150,364,99673,6,0,P|97:365|50:355,1,100,2|8,0:0|0:0,0:0:0:0:
17,261,100288,2,0,P|8:210|23:153,1,100,2|8,0:0|0:0,0:0:0:0:
86,89,100904,1,2,0:0:0:0:
176,130,101211,1,8,0:0:0:0:
271,99,101519,2,0,L|341:104,2,50,4|4|8,0:0|0:0|0:0,0:0:0:0:
240,194,102134,6,0,P|236:246|252:295,1,100,2|8,0:0|0:0,0:0:0:0:
330,351,102750,2,0,P|343:303|340:253,1,100,2|8,0:0|0:0,0:0:0:0:
436,281,103365,1,2,0:0:0:0:
476,189,103673,1,8,0:0:0:0:
426,102,103981,2,0,L|421:38,2,50,2|0|8,0:0|0:0|0:0,0:0:0:0:
332,138,104596,6,0,P|278:146|223:138,1,100,2|8,0:0|0:0,0:0:0:0:
133,133,105211,2,0,L|86:174,2,50,4|4|8,0:0|0:0|0:0,0:0:0:0:
173,224,105827,2,0,P|168:274|178:326,1,100,4|8,0:0|0:0,0:0:0:0:
79,347,106442,2,0,L|30:358,2,50,8|8|4,0:0|0:0|0:0,0:0:0:0:
56,249,107058,6,0,L|37:136,1,100,4|8,0:0|0:0,0:0:0:0:
137,170,107673,2,0,L|156:57,1,100,2|8,0:0|0:0,0:0:0:0:
252,86,108288,2,0,P|292:92|346:94,2,75,2|2|2,0:0|0:0|0:0,0:0:0:0:
241,135,108904,2,0,L|230:202,2,50,4|4|8,0:0|0:0|0:0,0:0:0:0:
322,192,109519,6,0,L|333:311,1,100,2|8,0:0|0:0,0:0:0:0:
424,328,110134,2,0,L|433:228,1,100,2|8,0:0|0:0,0:0:0:0:
448,129,110750,2,0,L|376:121,2,50,4|8|8,0:0|0:0|0:0,0:0:0:0:
422,32,111365,1,10,0:0:0:0:
324,56,111673,1,8,0:0:0:0:
229,23,111981,6,0,P|227:78|262:129,1,100,2|8,0:0|0:0,0:0:0:0:
157,158,112596,2,0,P|152:103|118:54,1,100,2|8,0:0|0:0,0:0:0:0:
60,137,113211,1,2,0:0:0:0:
87,234,113519,1,8,0:0:0:0:
185,249,113827,2,0,P|218:248|251:268,2,50,2|2|8,0:0|0:0|0:0,0:0:0:0:
124,328,114442,5,10,0:0:0:0:
220,353,114750,1,8,0:0:0:0:
311,313,115058,1,8,0:0:0:0:
403,349,115365,2,0,L|436:305,1,50,8|2,0:0|0:0,0:0:0:0:
454,269,115673,2,0,P|459:213|437:169,1,100,2|8,0:0|0:0,0:0:0:0:
342,198,116288,2,0,P|310:204|277:199,2,50,2|2|8,0:0|0:0|0:0,0:0:0:0:
362,99,116904,6,0,P|305:89|242:97,1,100,6|8,0:0|0:0,0:0:0:0:
177,143,117520,2,0,P|167:200|175:263,1,100,2|8,0:0|0:0,0:0:0:0:
72,219,118134,2,0,P|69:169|78:120,1,100,2|8,0:0|0:0,0:0:0:0:
104,75,118597,2,0,L|156:58,1,50,2|2,0:0|0:0,0:0:0:0:
252,54,119058,2,0,L|322:59,1,50,8|2,0:0|0:0,0:0:0:0:
353,61,119366,6,0,P|382:105|387:171,1,100,2|8,0:0|0:0,0:0:0:0:
399,251,119981,2,0,B|359:285|359:285|289:244|204:283,1,200,2|2,0:0|0:0,0:0:0:0:
132,330,120904,1,8,0:0:0:0:
76,248,121212,1,2,0:0:0:0:
163,198,121520,2,0,L|211:172,1,50,8|2,0:0|0:0,0:0:0:0:
254,156,121827,6,8,P|309:146|363:150,1,100,2|8,0:0|0:0,0:0:0:0:
418,72,122443,2,8,P|363:62|309:66,1,100,2|8,0:0|0:0,0:0:0:0:
220,70,123058,2,8,P|169:75|110:50,1,100,2|8,0:0|0:0,0:0:0:0:
88,95,123520,2,0,L|68:145,1,50,2|2,0:0|0:0,0:0:0:0:
63,242,123981,2,0,L|83:292,1,50,8|2,0:0|0:0,0:0:0:0:
103,335,124289,5,2,0:0:0:0:
202,355,124597,1,8,0:0:0:0:
270,282,124904,2,0,B|315:257|315:257|395:284|476:259,1,200,2|4,0:0|0:0,0:0:0:0:
485,166,125827,5,8,0:0:0:0:
425,86,126135,1,4,0:0:0:0:
346,147,126443,2,0,L|299:94,1,50,10|2,2:0|2:0,0:0:0:0:
279,73,126751,6,0,P|228:67|176:74,1,100,6|8,0:0|0:0,0:0:0:0:
82,97,127366,2,0,P|76:148|83:200,1,100,2|8,0:0|0:0,0:0:0:0:
158,260,127981,1,2,0:0:0:0:
308,262,128443,2,0,L|360:216,1,50,2|2,0:0|0:0,0:0:0:0:
328,129,128904,2,0,L|276:83,1,50,2|2,0:0|0:0,0:0:0:0:
246,74,129212,6,0,P|198:68|131:83,1,100,2|8,0:0|0:0,0:0:0:0:
101,165,129827,2,0,B|181:196|204:276|204:276|236:235,1,200,2|2,0:0|0:0,0:0:0:0:
291,162,130751,1,8,0:0:0:0:
376,215,131058,1,2,0:0:0:0:
316,295,131366,2,0,L|283:344,1,50,8|2,0:0|0:0,0:0:0:0:
238,334,131674,6,0,P|190:320|123:330,1,100,2|8,0:0|0:0,0:0:0:0:
101,233,132289,2,0,P|150:219|216:229,1,100,2|8,0:0|0:0,0:0:0:0:
296,242,132904,1,2,0:0:0:0:
442,275,133366,2,0,L|460:217,1,50,2|2,0:0|0:0,0:0:0:0:
386,156,133827,2,0,L|375:95,1,50,8|2,0:0|0:0,0:0:0:0:
370,56,134135,2,0,P|326:49|266:61,1,100,2|8,0:0|0:0,0:0:0:0:
195,124,134751,2,0,B|190:173|190:173|202:213|202:213|189:273,1,150,2|0,0:0|0:0,0:0:0:0:
156,308,135366,6,0,L|47:308,1,100,6|8,0:0|0:0,0:0:0:0:
41,208,135981,1,6,0:0:0:0:
98,125,136289,1,6,0:0:0:0:
256,192,136597,12,4,139058,0:0:0:0:
