osu file format v13

[General]
AudioFilename: Lunatic Princess.mp3
AudioLeadIn: 0
PreviewTime: 87365
Countdown: 0
SampleSet: None
StackLeniency: 0.7
Mode: 0
LetterboxInBreaks: 0
WidescreenStoryboard: 0

[Editor]
DistanceSpacing: 1.3
BeatDivisor: 4
GridSize: 4
TimelineZoom: 3.999998

[Metadata]
Title:sola
TitleUnicode:sola
Artist:nmk
ArtistUnicode:nmk
Creator:sjoy
Version:Nachi's Hard
Source:BMS
Tags:Touhou 東方音弾遊戯6 taketori hishou 竹取飛翔 ~ Lunatic Princess Houraisan Kaguya imoutosan chenwu Sakaue Nachi artcore sharlo flower Optie
BeatmapID:440569
BeatmapSetID:183267

[Difficulty]
HPDrainRate:5
CircleSize:4
OverallDifficulty:6
ApproachRate:8
SliderMultiplier:1.3
SliderTickRate:2

[Events]
//Background and Video events
0,0,"bg.jpg",0,0
Video,-182,"2333.avi"
//Break Periods
//Storyboard Layer 0 (Background)
//Storyboard Layer 1 (Fail)
//Storyboard Layer 2 (Pass)
//Storyboard Layer 3 (Foreground)
//Storyboard Sound Samples
//Background Colour Transformations
3,100,163,162,255

[TimingPoints]
11058,307.692307692308,4,1,0,50,1,0
11058,-133.333333333333,4,2,1,50,0,0
18442,-100,4,2,1,50,0,0
18750,-100,4,2,1,55,0,0
19058,-100,4,2,1,60,0,0
19365,-100,4,2,1,65,0,0
19673,-100,4,2,1,70,0,0
20288,-100,4,2,1,75,0,0
20596,-100,4,2,1,80,0,0
21750,-100,4,3,1,50,0,0
22134,-100,4,2,1,40,0,0
22750,-133.333333333333,4,2,1,40,0,0
23058,-100,4,2,1,40,0,0
23365,-90.9090909090909,4,2,1,65,0,0
31981,-90.9090909090909,4,2,2,65,0,0
32058,-90.9090909090909,4,2,1,65,0,0
40288,-90.9090909090909,4,2,1,50,0,0
40442,-90.9090909090909,4,2,1,60,0,0
40596,-90.9090909090909,4,2,1,70,0,0
40673,-90.9090909090909,4,2,1,65,0,0
41827,-90.9090909090909,4,2,1,40,0,0
43058,-90.9090909090909,4,2,1,65,0,0
51673,-90.9090909090909,4,2,2,50,0,0
51750,-90.9090909090909,4,2,1,65,0,0
59981,-90.9090909090909,4,2,1,65,0,0
60134,-90.9090909090909,4,2,1,70,0,0
60288,-90.9090909090909,4,2,1,75,0,0
60365,-90.9090909090909,4,2,1,50,0,0
62750,-90.9090909090909,4,2,1,40,0,0
63981,-90.9090909090909,4,2,1,40,0,0
64288,-90.9090909090909,4,2,1,50,0,0
64596,-90.9090909090909,4,2,1,60,0,0
65211,-90.9090909090909,4,2,1,70,0,0
86134,-142.857142857143,4,2,1,50,0,0
86442,-125,4,2,1,50,0,0
86750,-111.111111111111,4,2,1,50,0,0
87058,-100,4,2,1,50,0,0
87365,-90.9090909090909,4,2,1,75,0,1
99673,-90.9090909090909,4,2,2,75,0,1
102134,-90.9090909090909,4,2,1,75,0,1
104596,-90.9090909090909,4,2,2,75,0,1
105827,-90.9090909090909,4,2,1,75,0,1
109519,-90.9090909090909,4,2,2,60,0,1
111981,-90.9090909090909,4,2,1,75,0,1
114442,-90.9090909090909,4,2,2,60,0,1
116904,-90.9090909090909,4,2,1,65,0,0
132750,-90.9090909090909,4,2,2,65,0,0
133211,-90.9090909090909,4,2,1,65,0,0

[Colours]
Combo1 : 250,180,220
Combo2 : 172,251,255
Combo3 : 138,255,125
Combo4 : 255,255,106

[HitObjects]
124,76,11058,5,4,0:0:0:0:
193,169,11365,1,2,0:0:0:0:
91,227,11673,1,8,0:0:0:0:
388,76,12288,5,4,0:0:0:0:
319,169,12595,1,2,0:0:0:0:
421,227,12903,1,8,0:0:0:0:
154,195,13519,5,4,0:0:0:0:
255,253,13826,1,2,0:0:0:0:
357,196,14134,1,8,0:0:0:0:
352,78,14442,5,2,0:0:0:0:
301,130,14596,1,2,0:0:0:0:
160,78,14904,5,2,0:0:0:0:
211,130,15058,1,2,0:0:0:0:
198,272,15365,6,0,L|166:310,1,48.750001859665,10|0,0:0|0:0,0:0:0:0:
314,272,15673,2,0,L|345:310,1,48.750001859665,2|0,0:0|0:0,0:0:0:0:
341,183,15981,6,0,L|408:184,1,48.750001859665,6|0,0:0|0:0,0:0:0:0:
307,86,16288,2,0,L|357:86,1,48.750001859665,2|0,0:0|0:0,0:0:0:0:
203,86,16596,2,0,L|153:86,1,48.750001859665,10|0,0:0|0:0,0:0:0:0:
171,183,16904,2,0,L|104:184,1,48.750001859665,2|8,0:0|0:0,0:0:0:0:
256,243,17211,6,0,L|256:304,1,48.750001859665,2|0,0:0|0:0,0:0:0:0:
256,166,17519,2,0,L|256:104,1,48.750001859665,2|0,0:0|0:0,0:0:0:0:
210,55,17827,2,0,P|255:38|300:54,1,97.50000371933,10|2,0:0|0:0,0:0:0:0:
357,118,18288,1,2,0:0:0:0:
266,195,18442,6,0,L|278:243,7,32.5,4|0|0|0|0|0|0|0,0:0|0:0|0:0|0:0|0:0|0:0|0:0|0:0,0:0:0:0:
221,181,19058,2,0,L|204:216,7,32.5,0|0|0|0|0|0|0|0,0:0|0:0|0:0|0:0|0:0|0:0|0:0|0:0,0:0:0:0:
221,134,19673,2,0,L|168:150,7,32.5,4|0|0|0|0|0|0|0,0:0|0:0|0:0|0:0|0:0|0:0|0:0|0:0,0:0:0:0:
266,120,20288,6,0,L|308:80,3,32.5,4|0|0|0,0:0|0:0|0:0|0:0,0:0:0:0:
293,158,20596,2,0,L|353:157,3,32.5,4|0|0|0,0:0|0:0|0:0|0:0,0:0:0:0:
256,192,20904,12,0,21827,0:0:0:0:
196,114,22134,6,0,P|150:170|175:245,1,130,10|8,0:0|0:0,0:0:0:0:
222,267,22596,1,10,0:0:0:0:
322,219,22750,2,0,L|221:184,1,97.50000371933,10|8,0:0|0:0,0:0:0:0:
330,132,23365,5,6,0:0:0:0:
393,178,23519,1,0,0:0:0:0:
396,256,23673,2,0,P|356:293|257:271,1,143.000004364014,8|0,0:0|0:0,0:0:0:0:
204,246,24134,1,0,0:0:0:0:
185,169,24288,1,8,0:0:0:0:
33,127,24596,5,2,0:0:0:0:
66,199,24750,1,0,0:0:0:0:
135,238,24904,2,0,P|169:248|276:178,1,143.000004364014,8|0,0:0|0:0,0:0:0:0:
295,133,25365,1,0,0:0:0:0:
282,55,25519,1,8,0:0:0:0:
318,209,25827,5,2,0:0:0:0:
372,266,25981,1,0,0:0:0:0:
445,293,26134,2,0,P|490:310|524:302,1,71.5000021820069,8|0,0:0|0:0,0:0:0:0:
496,229,26442,1,0,0:0:0:0:
420,205,26596,1,0,0:0:0:0:
372,266,26749,1,10,0:0:0:0:
322,328,26904,1,2,0:0:0:0:
193,237,27211,5,2,0:0:0:0:
192,158,27365,2,0,P|184:121|159:83,1,71.5000021820069,8|0,0:0|0:0,0:0:0:0:
185,15,27673,2,0,P|110:37|86:98,1,143.000004364014,10|8,0:0|0:0,0:0:0:0:
80,171,28134,1,0,0:0:0:0:
89,249,28288,5,2,0:0:0:0:
137,311,28442,1,0,0:0:0:0:
214,329,28596,2,0,L|366:329,1,143.000004364014,10|0,0:0|0:0,0:0:0:0:
436,330,29058,1,0,0:0:0:0:
434,251,29211,1,8,0:0:0:0:
432,93,29519,5,2,0:0:0:0:
372,41,29673,1,0,0:0:0:0:
295,21,29827,2,0,L|148:21,1,143.000004364014,8|0,0:0|0:0,0:0:0:0:
84,61,30288,1,0,0:0:0:0:
43,128,30442,1,8,0:0:0:0:
153,261,30750,5,2,0:0:0:0:
153,261,30904,1,0,0:0:0:0:
230,281,31058,1,8,0:0:0:0:
230,281,31211,1,0,0:0:0:0:
281,221,31365,2,0,P|240:202|205:204,1,71.5000021820069,0|0,0:0|0:0,0:0:0:0:
230,281,31673,1,8,0:0:0:0:
331,281,31827,1,0,0:0:0:0:
331,281,31904,1,0,0:0:0:0:
331,281,31981,6,0,P|358:234|353:192,1,71.5000021820069,4|0,0:0|0:0,0:0:0:0:
319,134,32288,2,0,P|316:95|305:61,1,71.5000021820069,8|0,0:0|0:0,0:0:0:0:
221,104,32596,2,0,P|206:67|185:38,2,71.5000021820069,8|0|8,0:0|0:0|0:0,0:0:0:0:
42,155,33211,5,6,0:0:0:0:
87,218,33365,1,0,0:0:0:0:
148,266,33519,2,0,P|210:251|239:175,1,143.000004364014,8|0,0:0|0:0,0:0:0:0:
161,188,33981,1,0,0:0:0:0:
87,218,34134,1,8,0:0:0:0:
242,323,34442,6,0,P|288:301|305:265,1,71.5000021820069,2|0,0:0|0:0,0:0:0:0:
410,347,34750,2,0,P|388:301|352:284,1,71.5000021820069,8|0,0:0|0:0,2:0:0:0:
428,178,35058,2,0,P|382:200|364:236,1,71.5000021820069,0|0,0:0|0:0,2:0:0:0:
262,158,35365,2,0,P|284:204|320:221,1,71.5000021820069,8|0,0:0|0:0,2:0:0:0:
210,93,35673,6,0,P|188:47|152:30,1,71.5000021820069,2|0,0:0|0:0,2:0:0:0:
262,158,35981,2,0,P|308:136|325:100,1,71.5000021820069,8|0,0:0|0:0,2:0:0:0:
184,169,36288,2,0,P|206:215|242:232,1,71.5000021820069,2|0,0:0|0:0,2:0:0:0:
300,238,36596,1,10,0:0:0:0:
365,194,36750,1,2,0:0:0:0:
288,331,37058,5,2,0:0:0:0:
209,328,37211,2,0,P|182:347|140:401,1,71.5000021820069,8|0,0:0|0:0,0:0:0:0:
77,361,37519,2,0,P|58:283|-1:243,1,143.000004364014,10|8,0:0|0:0,0:0:0:0:
108,158,37981,1,0,0:0:0:0:
129,233,38134,5,2,0:0:0:0:
185,178,38288,1,0,0:0:0:0:
108,158,38442,2,0,P|63:162|27:180,1,71.5000021820069,8|0,0:0|0:0,0:0:0:0:
129,233,38750,2,0,P|161:264|198:279,1,71.5000021820069,2|0,0:0|0:0,0:0:0:0:
268,283,39058,2,0,P|314:253|334:232,1,71.5000021820069,8|0,0:0|0:0,0:0:0:0:
367,171,39365,6,0,L|367:87,2,71.5000021820069,2|0|8,0:0|0:0|0:0,0:0:0:0:
284,114,39827,2,0,L|248:46,2,71.5000021820069,2|8|0,0:0|0:0|0:0,0:0:0:0:
285,199,40288,1,8,0:0:0:0:
285,199,40442,1,8,0:0:0:0:
285,199,40596,1,12,0:0:0:0:
256,192,40673,12,0,41519,0:0:0:0:
177,193,41827,6,0,P|172:147|190:93,2,71.5000021820069,8|0|8,0:0|0:0|0:0,0:0:0:0:
258,165,42288,1,10,0:0:0:0:
330,211,42442,2,0,P|335:257|317:311,2,71.5000021820069,8|0|8,0:0|0:0|0:0,0:0:0:0:
73,183,43058,6,0,P|96:109|169:80,2,143.000004364014,6|8|0,0:0|0:0|0:0,0:0:0:0:
150,336,43981,1,8,0:0:0:0:
162,165,44288,6,0,P|238:154|295:208,2,143.000004364014,2|8|0,0:0|0:0|0:0,0:0:0:0:
59,303,45211,1,8,0:0:0:0:
215,236,45519,6,0,P|264:295|249:372,2,143.000004364014,2|8|0,0:0|0:0|0:0,0:0:0:0:
124,97,46442,1,10,0:0:0:0:
187,50,46596,1,2,0:0:0:0:
365,56,46904,5,2,0:0:0:0:
304,105,47058,1,10,0:0:0:0:
272,177,47211,1,2,0:0:0:0:
272,177,47365,2,0,P|273:226|300:267,1,71.5000021820069,2|0,0:0|0:0,0:0:0:0:
380,296,47673,1,10,0:0:0:0:
160,349,47981,6,0,P|209:348|250:321,1,71.5000021820069,2|0,0:0|0:0,0:0:0:0:
117,279,48288,2,0,P|81:276|48:288,1,71.5000021820069,10|0,0:0|0:0,0:0:0:0:
191,278,48596,2,0,P|190:229|163:188,1,71.5000021820069,2|0,0:0|0:0,0:0:0:0:
48,289,48904,2,0,P|49:338|76:379,1,71.5000021820069,10|0,0:0|0:0,0:0:0:0:
34,196,49211,6,0,P|23:148|-10:112,1,71.5000021820069,2|0,0:0|0:0,0:0:0:0:
86,47,49519,2,0,P|146:80|217:39,1,143.000004364014,10|0,0:0|0:0,0:0:0:0:
289,44,49981,1,0,0:0:0:0:
356,84,50134,2,0,P|391:93|461:81,1,71.5000021820069,8|0,0:0|0:0,0:0:0:0:
448,168,50442,5,2,0:0:0:0:
374,196,50596,1,0,0:0:0:0:
319,252,50750,2,0,P|284:293|197:288,1,143.000004364014,8|0,0:0|0:0,0:0:0:0:
160,222,51211,1,0,0:0:0:0:
206,158,51365,2,0,L|254:240,1,71.5000021820069,8|0,0:0|0:0,0:0:0:0:
242,219,51673,5,4,0:0:0:0:
200,290,51827,1,0,0:0:0:0:
121,289,51981,2,0,P|91:251|86:210,1,71.5000021820069,8|0,0:0|0:0,0:0:0:0:
157,119,52288,2,0,P|217:82|285:99,1,143.000004364014,8|8,0:0|0:0,0:0:0:0:
427,166,52904,6,0,P|355:200|288:164,1,143.000004364014,4|8,0:0|0:0,0:0:0:0:
283,98,53365,1,0,0:0:0:0:
360,121,53519,2,0,P|395:93|449:87,1,71.5000021820069,0|0,0:0|0:0,0:0:0:0:
495,124,53827,2,0,P|506:168|488:223,1,71.5000021820069,8|0,0:0|0:0,0:0:0:0:
423,306,54134,6,0,P|361:280|275:319,1,143.000004364014,2|8,0:0|0:0,0:0:0:0:
291,302,54596,1,2,0:0:0:0:
154,261,54750,1,2,0:0:0:0:
229,237,54904,1,2,0:0:0:0:
213,314,55058,1,10,0:0:0:0:
171,184,55365,6,0,P|254:164|308:224,1,143.000004364014,2|8,0:0|0:0,0:0:0:0:
372,213,55827,1,2,0:0:0:0:
421,151,55981,1,0,0:0:0:0:
343,139,56134,1,2,0:0:0:0:
372,213,56288,1,8,0:0:0:0:
421,151,56442,1,2,0:0:0:0:
412,308,56750,5,2,0:0:0:0:
412,308,56904,2,0,L|326:338,1,71.5000021820069,8|0,0:0|0:0,0:0:0:0:
277,278,57211,2,0,L|186:299,1,71.5000021820069,8|0,0:0|0:0,0:0:0:0:
129,310,57519,1,8,0:0:0:0:
227,186,57827,6,0,L|170:122,1,71.5000021820069,2|0,0:0|0:0,0:0:0:0:
263,113,58134,2,0,L|280:40,1,71.5000021820069,8|0,0:0|0:0,0:0:0:0:
346,98,58442,2,0,L|410:56,1,71.5000021820069,0|0,0:0|0:0,0:0:0:0:
415,144,58750,2,0,L|499:174,1,71.5000021820069,8|0,0:0|0:0,0:0:0:0:
376,256,59058,6,0,L|304:255,1,71.5000021820069,10|0,0:0|0:0,0:0:0:0:
134,256,59365,2,0,L|237:255,1,71.5000021820069,8|0,0:0|0:0,0:0:0:0:
255,175,59673,1,10,0:0:0:0:
255,175,59827,1,2,0:0:0:0:
255,95,59981,1,8,0:0:0:0:
255,95,60134,1,8,0:0:0:0:
255,95,60288,5,12,0:0:0:0:
256,192,60365,12,0,61442,0:0:0:0:
256,192,61519,12,0,62442,0:0:0:0:
258,91,62750,6,0,P|303:86|357:104,2,71.5000021820069,8|0|8,0:0|0:0|0:0,0:0:0:0:
292,169,63211,1,10,0:0:0:0:
254,246,63365,2,0,P|207:251|153:233,2,71.5000021820069,8|0|8,0:0|0:0|0:0,0:0:0:0:
284,94,63981,6,0,L|302:51,3,35.7500010910034,8|0|0|0,0:0|0:0|0:0|0:0,0:0:0:0:
248,119,64288,2,0,L|219:82,3,35.7500010910034,8|0|0|0,0:0|0:0|0:0|0:0,0:0:0:0:
311,183,64596,1,8,0:0:0:0:
401,183,64750,2,0,P|448:169|472:146,1,71.5000021820069,0|8,0:0|0:0,0:0:0:0:
398,83,65058,1,8,0:0:0:0:
401,183,65211,6,0,P|384:234|298:277,1,143.000004364014,6|8,0:0|0:0,0:0:0:0:
309,276,65673,1,0,0:0:0:0:
247,228,65827,2,0,P|235:173|247:137,2,71.5000021820069,2|0|8,0:0|0:0|0:0,0:0:0:0:
311,183,66288,1,0,0:0:0:0:
287,107,66442,6,0,P|240:89|163:154,1,143.000004364014,2|8,0:0|0:0,0:0:0:0:
125,203,66904,1,0,0:0:0:0:
154,275,67058,2,0,P|242:301|299:273,1,143.000004364014,2|8,0:0|0:0,0:0:0:0:
349,236,67519,1,0,0:0:0:0:
372,159,67673,6,0,P|429:241|398:297,1,143.000004364014,2|8,0:0|0:0,0:0:0:0:
418,273,68134,1,0,0:0:0:0:
365,331,68288,2,0,L|284:331,1,71.5000021820069,10|0,0:0|0:0,0:0:0:0:
252,263,68596,2,0,L|158:264,1,71.5000021820069,8|0,0:0|0:0,0:0:0:0:
113,198,68904,5,6,0:0:0:0:
251,75,69211,1,10,0:0:0:0:
411,168,69519,1,2,0:0:0:0:
252,263,69827,2,0,L|252:180,1,71.5000021820069,8|0,0:0|0:0,0:0:0:0:
320,301,70134,6,0,P|242:341|186:307,1,143.000004364014,2|8,0:0|0:0,0:0:0:0:
140,265,70596,1,0,0:0:0:0:
132,186,70750,2,0,P|150:148|178:127,2,71.5000021820069,2|0|8,0:0|0:0|0:0,0:0:0:0:
209,199,71211,1,0,0:0:0:0:
248,130,71365,6,0,L|393:131,1,143.000004364014,2|8,0:0|0:0,0:0:0:0:
457,174,71827,1,0,0:0:0:0:
419,243,71981,2,0,L|262:241,1,143.000004364014,2|8,0:0|0:0,0:0:0:0:
197,242,72442,1,0,0:0:0:0:
118,242,72596,6,0,L|120:90,1,143.000004364014,2|8,0:0|0:0,0:0:0:0:
119,99,73058,1,0,0:0:0:0:
206,35,73211,2,0,P|241:51|266:85,1,71.5000021820069,10|0,0:0|0:0,0:0:0:0:
219,151,73519,2,0,P|220:186|208:220,1,71.5000021820069,8|0,0:0|0:0,0:0:0:0:
167,304,73827,5,6,0:0:0:0:
351,283,74134,1,10,0:0:0:0:
219,151,74442,1,2,0:0:0:0:
392,40,74750,2,0,L|392:128,1,71.5000021820069,8|0,0:0|0:0,0:0:0:0:
359,248,75058,6,0,P|300:222|223:273,1,143.000004364014,6|8,0:0|0:0,0:0:0:0:
298,298,75519,1,0,0:0:0:0:
370,325,75673,2,0,P|404:313|426:286,2,71.5000021820069,2|0|8,0:0|0:0|0:0,0:0:0:0:
359,248,76134,1,0,0:0:0:0:
428,210,76288,6,0,P|495:250|487:335,1,143.000004364014,2|8,0:0|0:0,0:0:0:0:
426,286,76750,1,0,0:0:0:0:
359,248,76904,2,0,P|361:170|425:130,1,143.000004364014,2|8,0:0|0:0,0:0:0:0:
408,132,77365,1,0,0:0:0:0:
375,52,77519,6,0,P|306:74|223:35,1,143.000004364014,2|8,0:0|0:0,0:0:0:0:
241,52,77981,1,0,0:0:0:0:
175,106,78134,2,0,L|176:207,1,71.5000021820069,10|0,0:0|0:0,0:0:0:0:
102,224,78442,2,0,L|101:325,1,71.5000021820069,8|0,0:0|0:0,0:0:0:0:
179,347,78750,5,6,0:0:0:0:
365,346,79058,1,10,0:0:0:0:
179,347,79365,1,2,0:0:0:0:
102,224,79673,2,0,L|102:152,1,71.5000021820069,8|0,0:0|0:0,0:0:0:0:
173,187,79981,6,0,P|219:218|299:184,1,143.000004364014,2|8,0:0|0:0,0:0:0:0:
102,152,80596,2,0,P|57:168|33:207,2,71.5000021820069,2|0|8,0:0|0:0|0:0,0:0:0:0:
173,187,81058,1,0,0:0:0:0:
191,110,81211,6,0,P|147:60|63:61,1,143.000004364014,2|8,0:0|0:0,0:0:0:0:
102,153,81673,1,0,0:0:0:0:
173,187,81827,2,0,P|258:161|272:106,1,143.000004364014,2|8,0:0|0:0,0:0:0:0:
272,116,82288,1,0,0:0:0:0:
338,74,82442,6,0,P|379:118|389:203,1,143.000004364014,2|8,0:0|0:0,0:0:0:0:
390,197,82904,1,0,0:0:0:0:
314,254,83058,2,0,L|314:176,1,71.5000021820069,10|0,0:0|0:0,0:0:0:0:
224,298,83365,2,0,L|225:206,1,71.5000021820069,8|0,0:0|0:0,0:0:0:0:
224,121,83673,6,0,L|225:68,3,35.7500010910034,14|0|0|0,0:0|0:0|0:0|0:0,0:0:0:0:
181,121,83981,2,0,L|181:170,4,35.7500010910034,8|0|0|0|2,0:0|0:0|0:0|0:0|0:0,0:0:0:0:
314,254,84596,1,10,0:0:0:0:
155,350,84904,1,6,0:0:0:0:
256,192,84981,12,0,86134,0:0:0:0:
178,126,86442,6,0,L|180:56,1,52,2|0,0:0|0:0,0:0:0:0:
277,117,86750,2,0,L|302:56,1,58.4999982147217,2|0,0:0|0:0,0:0:0:0:
373,145,87058,2,0,L|434:79,1,65,2|0,0:0|0:0,0:0:0:0:
430,216,87365,5,6,0:0:0:0:
245,214,87673,1,8,0:0:0:0:
430,216,87981,1,2,0:0:0:0:
245,214,88288,1,8,0:0:0:0:
88,202,88596,5,2,0:0:0:0:
5,176,88750,1,0,0:0:0:0:
5,91,88904,1,8,0:0:0:0:
88,67,89058,1,0,0:0:0:0:
137,134,89211,2,0,P|166:174|163:224,1,71.5000021820069,10|0,0:0|0:0,0:0:0:0:
88,202,89519,1,8,0:0:0:0:
214,100,89827,5,6,0:0:0:0:
400,99,90134,1,8,0:0:0:0:
214,100,90442,1,2,0:0:0:0:
136,237,90750,1,8,0:0:0:0:
101,166,90904,1,0,0:0:0:0:
208,189,91058,6,0,P|220:224|217:270,1,71.5000021820069,10|0,0:0|0:0,0:0:0:0:
136,237,91365,2,0,P|106:260|62:272,1,71.5000021820069,8|0,0:0|0:0,0:0:0:0:
101,166,91673,2,0,P|72:160|59:128,6,35.7500010910034,10|0|0|0|8|0|0,0:0|0:0|0:0|0:0|0:0|0:0|0:0,0:0:0:0:
124,68,92288,5,6,0:0:0:0:
250,204,92596,1,8,0:0:0:0:
124,68,92904,1,2,0:0:0:0:
250,204,93211,1,8,0:0:0:0:
332,339,93519,5,2,0:0:0:0:
413,366,93673,1,0,0:0:0:0:
464,296,93827,1,8,0:0:0:0:
413,227,93981,1,0,0:0:0:0:
332,253,94134,2,0,P|285:278|259:310,2,71.5000021820069,10|0|8,0:0|0:0|0:0,0:0:0:0:
293,118,94750,5,6,0:0:0:0:
461,38,95058,1,8,0:0:0:0:
293,118,95365,1,2,0:0:0:0:
150,25,95673,1,2,0:0:0:0:
150,25,95827,1,2,0:0:0:0:
104,90,95981,6,0,L|69:72,3,35.7500010910034,10|0|0|0,0:0|0:0|0:0|0:0,0:0:0:0:
78,126,96288,2,0,L|16:142,3,35.7500010910034,8|0|0|0,0:0|0:0|0:0|0:0,0:0:0:0:
76,178,96596,2,0,L|19:234,1,71.5000021820069,10|0,0:0|0:0,0:0:0:0:
5,319,96904,1,10,0:0:0:0:
182,274,97211,5,6,0:0:0:0:
367,275,97519,1,8,0:0:0:0:
182,274,97827,1,2,0:0:0:0:
367,275,98134,1,8,0:0:0:0:
291,91,98442,6,0,P|347:73|402:95,2,107.25000327301,2|2|2,0:0|0:0|0:0,0:0:0:0:
237,167,99058,1,2,0:0:0:0:
289,242,99211,1,2,0:0:0:0:
344,167,99365,1,6,0:0:0:0:
218,95,99673,6,0,L|175:146,3,35.7500010910034,6|0|4|0,0:0|0:0|0:0|0:0,0:0:0:0:
250,128,99981,2,0,L|250:170,3,35.7500010910034,8|0|0|0,0:0|0:0|0:0|0:0,0:0:0:0:
295,134,100288,2,0,L|316:174,3,35.7500010910034,6|0|4|0,0:0|0:0|0:0|0:0,0:0:0:0:
334,107,100596,2,0,L|374:130,3,35.7500010910034,8|0|0|0,0:0|0:0|0:0|0:0,0:0:0:0:
347,65,100904,6,0,L|348:22,3,35.7500010910034,2|0|0|0,0:0|0:0|0:0|0:0,0:0:0:0:
307,65,101211,2,0,L|307:117,3,35.7500010910034,10|0|0|0,0:0|0:0|0:0|0:0,0:0:0:0:
265,65,101519,2,0,L|265:14,3,35.7500010910034,2|0|0|0,0:0|0:0|0:0|0:0,0:0:0:0:
224,65,101827,2,0,L|223:116,3,35.7500010910034,10|0|0|0,0:0|0:0|0:0|0:0,0:0:0:0:
224,65,102134,5,6,0:0:0:0:
302,232,102442,1,8,0:0:0:0:
224,65,102750,1,2,0:0:0:0:
302,232,103058,1,8,0:0:0:0:
179,113,103365,5,2,0:0:0:0:
104,167,103519,1,0,0:0:0:0:
188,201,103673,1,8,0:0:0:0:
179,113,103827,1,0,0:0:0:0:
104,167,103981,2,0,L|103:246,1,71.5000021820069,10|0,0:0|0:0,0:0:0:0:
188,201,104288,1,8,0:0:0:0:
96,94,104596,6,0,L|44:60,3,35.7500010910034,6|0|4|0,0:0|0:0|0:0|0:0,0:0:0:0:
75,139,104904,2,0,L|25:140,3,35.7500010910034,8|0|0|0,0:0|0:0|0:0|0:0,0:0:0:0:
104,167,105211,2,0,L|161:180,3,35.7500010910034,6|0|4|0,0:0|0:0|0:0|0:0,0:0:0:0:
76,207,105519,2,0,L|105:238,3,35.7500010910034,8|0|0|0,0:0|0:0|0:0|0:0,0:0:0:0:
39,279,105827,5,10,0:0:0:0:
112,335,105981,1,8,0:0:0:0:
196,298,106134,1,8,0:0:0:0:
207,205,106288,1,8,0:0:0:0:
268,116,106442,2,0,P|314:85|349:85,2,71.5000021820069,2|8|0,0:0|0:0|0:0,0:0:0:0:
121,206,107058,5,6,0:0:0:0:
186,378,107365,1,8,0:0:0:0:
121,206,107673,1,2,0:0:0:0:
186,378,107981,1,8,0:0:0:0:
321,291,108288,6,0,P|378:272|446:288,2,107.25000327301,2|2|2,0:0|0:0|0:0,0:0:0:0:
277,208,108904,2,0,P|257:163|257:120,1,71.5000021820069,2|0,0:0|0:0,0:0:0:0:
347,152,109211,1,8,0:0:0:0:
158,114,109519,6,0,L|130:140,7,35.7500010910034,6|0|4|0|12|0|0|0,0:0|0:0|0:0|0:0|0:0|0:0|0:0|0:0,0:0:0:0:
111,191,110134,2,0,L|116:248,7,35.7500010910034,6|0|4|0|12|4|4|4,0:0|0:0|0:0|0:0|0:0|0:0|0:0|0:0,0:0:0:0:
148,275,110750,6,0,L|195:298,3,35.7500010910034,6|0|4|0,0:0|0:0|0:0|0:0,0:0:0:0:
238,298,111058,2,0,L|278:288,3,35.7500010910034,12|0|4|0,0:0|0:0|0:0|0:0,0:0:0:0:
319,252,111365,2,0,L|342:203,3,35.7500010910034,6|0|4|0,0:0|0:0|0:0|0:0,0:0:0:0:
335,158,111673,2,0,L|325:114,3,35.7500010910034,12|0|4|0,0:0|0:0|0:0|0:0,0:0:0:0:
335,158,111981,5,6,0:0:0:0:
157,112,112288,1,8,0:0:0:0:
335,158,112596,1,2,0:0:0:0:
157,112,112904,1,8,0:0:0:0:
212,293,113211,5,2,0:0:0:0:
292,292,113365,1,0,0:0:0:0:
189,216,113519,1,8,0:0:0:0:
310,215,113673,1,0,0:0:0:0:
250,162,113827,2,0,L|250:91,2,71.5000021820069,10|0|8,0:0|0:0|0:0,0:0:0:0:
412,71,114442,6,0,L|459:79,2,35.7500010910034,8|0|0,0:0|0:0|0:0,0:0:0:0:
412,164,114750,2,0,L|447:169,2,35.7500010910034,8|0|0,0:0|0:0|0:0,0:0:0:0:
392,255,115058,1,8,0:0:0:0:
207,278,115365,1,2,0:0:0:0:
169,177,115519,1,0,0:0:0:0:
275,199,115673,6,0,L|326:214,3,35.7500010910034,2|0|0|0,0:0|0:0|0:0|0:0,0:0:0:0:
283,153,115981,2,0,L|334:168,3,35.7500010910034,2|0|0|0,0:0|0:0|0:0|0:0,0:0:0:0:
290,117,116288,2,0,L|302:37,1,71.5000021820069,14|0,0:0|0:0,0:0:0:0:
191,32,116596,2,0,L|182:104,1,71.5000021820069,12|0,0:0|0:0,0:0:0:0:
76,96,116904,6,0,L|75:254,1,143.000004364014,6|8,0:0|0:0,0:0:0:0:
123,300,117365,1,0,0:0:0:0:
173,239,117519,2,0,L|173:167,2,71.5000021820069,2|0|8,0:0|0:0|0:0,0:0:0:0:
123,300,117981,1,0,0:0:0:0:
199,318,118134,6,0,P|251:264|244:199,1,143.000004364014,2|8,0:0|0:0,0:0:0:0:
244,200,118596,1,0,0:0:0:0:
174,168,118750,2,0,P|219:129|313:168,1,143.000004364014,2|8,0:0|0:0,0:0:0:0:
295,145,119211,1,0,0:0:0:0:
343,207,119365,6,0,L|343:307,1,71.5000021820069,2|0,0:0|0:0,0:0:0:0:
425,207,119673,2,0,L|427:113,1,71.5000021820069,8|0,0:0|0:0,0:0:0:0:
398,62,119981,1,2,0:0:0:0:
322,36,120134,1,2,0:0:0:0:
398,62,120288,1,10,0:0:0:0:
322,36,120442,1,2,0:0:0:0:
231,58,120596,5,2,0:0:0:0:
66,145,120904,1,10,0:0:0:0:
120,322,121211,1,2,0:0:0:0:
212,160,121519,2,0,L|113:161,1,71.5000021820069,8|0,0:0|0:0,0:0:0:0:
61,231,121827,6,0,L|210:232,1,143.000004364014,2|8,0:0|0:0,0:0:0:0:
281,216,122288,1,0,0:0:0:0:
295,138,122442,2,0,P|267:89|230:67,2,71.5000021820069,2|0|8,0:0|0:0|0:0,0:0:0:0:
281,216,122904,1,0,0:0:0:0:
234,279,123058,6,0,L|77:280,1,143.000004364014,2|8,0:0|0:0,0:0:0:0:
91,279,123519,1,0,0:0:0:0:
60,207,123673,2,0,P|68:126|120:80,1,143.000004364014,2|8,0:0|0:0,0:0:0:0:
109,84,124134,1,0,0:0:0:0:
181,52,124288,6,0,L|285:53,1,71.5000021820069,2|0,0:0|0:0,0:0:0:0:
331,131,124596,2,0,L|241:132,1,71.5000021820069,8|0,0:0|0:0,0:0:0:0:
203,188,124904,1,2,0:0:0:0:
273,223,125058,1,2,0:0:0:0:
351,217,125211,1,10,0:0:0:0:
411,166,125365,1,2,0:0:0:0:
397,73,125519,5,2,0:0:0:0:
229,153,125827,1,10,0:0:0:0:
307,322,126134,1,2,0:0:0:0:
411,166,126442,2,0,L|411:87,1,71.5000021820069,8|0,0:0|0:0,0:0:0:0:
308,179,126750,6,0,L|307:321,1,143.000004364014,6|8,0:0|0:0,0:0:0:0:
232,346,127211,1,0,0:0:0:0:
153,338,127365,2,0,P|120:313|103:257,2,71.5000021820069,2|0|8,0:0|0:0|0:0,0:0:0:0:
184,265,127827,1,0,0:0:0:0:
126,211,127981,6,0,P|62:224|28:304,1,143.000004364014,2|8,0:0|0:0,0:0:0:0:
27,288,128442,1,0,0:0:0:0:
107,287,128596,2,0,P|170:315|237:296,1,143.000004364014,2|8,0:0|0:0,0:0:0:0:
254,218,129058,1,0,0:0:0:0:
192,169,129211,6,0,P|173:219|178:253,1,71.5000021820069,2|0,0:0|0:0,0:0:0:0:
219,362,129519,2,0,P|234:330|238:295,1,71.5000021820069,8|0,0:0|0:0,0:0:0:0:
309,258,129827,1,2,0:0:0:0:
375,299,129981,1,2,0:0:0:0:
307,338,130134,1,10,0:0:0:0:
309,258,130288,1,2,0:0:0:0:
387,207,130442,5,2,0:0:0:0:
227,303,130750,1,10,0:0:0:0:
237,117,131058,1,2,0:0:0:0:
413,59,131365,2,0,L|413:130,1,71.5000021820069,8|0,0:0|0:0,0:0:0:0:
293,34,131673,6,0,L|142:34,1,143.000004364014,2|8,0:0|0:0,0:0:0:0:
86,79,132134,1,0,0:0:0:0:
78,157,132288,1,2,0:0:0:0:
152,131,132442,1,0,0:0:0:0:
145,209,132596,1,8,0:0:0:0:
218,177,132750,1,0,0:0:0:0:
218,177,132904,6,0,P|210:258|148:291,1,143.000004364014,2|8,0:0|0:0,0:0:0:0:
110,348,133365,1,0,0:0:0:0:
186,364,133519,2,0,L|331:363,1,143.000004364014,2|8,0:0|0:0,0:0:0:0:
395,319,133981,1,0,0:0:0:0:
426,247,134134,6,0,L|426:161,1,71.5000021820069,2|0,0:0|0:0,0:0:0:0:
361,129,134442,2,0,L|360:54,1,71.5000021820069,8|0,0:0|0:0,0:0:0:0:
246,44,134750,1,8,0:0:0:0:
187,117,134904,1,8,0:0:0:0:
280,131,135058,1,8,0:0:0:0:
246,44,135211,1,8,0:0:0:0:
153,37,135365,6,0,P|100:88|112:167,1,143.000004364014,4|8,0:0|0:0,0:0:0:0:
286,284,135981,1,2,0:0:0:0:
387,117,136288,1,2,0:0:0:0:
187,117,136596,1,6,0:0:0:0:
256,192,136673,12,4,139058,0:1:0:0:
