osu file format v13

[General]
AudioFilename: Lunatic Princess.mp3
AudioLeadIn: 0
PreviewTime: 87365
Countdown: 0
SampleSet: None
StackLeniency: 0.3
Mode: 0
LetterboxInBreaks: 0
WidescreenStoryboard: 0

[Editor]
DistanceSpacing: 1.1
BeatDivisor: 4
GridSize: 4
TimelineZoom: 1.9

[Metadata]
Title:sola
TitleUnicode:sola
Artist:nmk
ArtistUnicode:nmk
Creator:sjoy
Version:Imouto's Extra
Source:BMS
Tags:Touhou 東方音弾遊戯6 taketori hishou 竹取飛翔 ~ Lunatic Princess Houraisan Kaguya imoutosan chenwu Sakaue Nachi artcore sharlo flower Optie
BeatmapID:439824
BeatmapSetID:183267

[Difficulty]
HPDrainRate:7.2
CircleSize:3.5
OverallDifficulty:8
ApproachRate:9
SliderMultiplier:1.9
SliderTickRate:1

[Events]
//Background and Video events
0,0,"bg.jpg",0,0
Video,-182,"2333.avi"
//Break Periods
//Storyboard Layer 0 (Background)
//Storyboard Layer 1 (Fail)
//Storyboard Layer 2 (Pass)
//Storyboard Layer 3 (Foreground)
//Storyboard Sound Samples
//Background Colour Transformations
3,100,163,162,255

[TimingPoints]
11058,307.692307692308,4,1,0,100,1,0
11058,-133.333333333333,4,2,1,50,0,0
23365,-100,4,2,1,60,0,0
23442,-100,4,2,1,60,0,0
27058,-100,4,2,1,70,0,0
28288,-100,4,2,1,60,0,0
31981,-100,4,2,1,70,0,0
33211,-100,4,2,1,60,0,0
33288,-100,4,2,1,60,0,0
36904,-100,4,2,1,70,0,0
38134,-100,4,2,1,60,0,0
40596,-100,4,2,1,70,0,0
41673,-100,4,2,1,60,0,0
43134,-100,4,2,1,60,0,0
46750,-100,4,2,1,70,0,0
47981,-100,4,2,1,60,0,0
51673,-100,4,2,1,70,0,0
52904,-100,4,2,1,70,0,0
52981,-100,4,2,1,70,0,0
56596,-100,4,2,1,80,0,0
57827,-100,4,2,1,70,0,0
60288,-100,4,2,1,60,0,0
61519,-100,4,2,1,80,0,0
61981,-100,4,2,1,60,0,0
62750,-100,4,2,1,70,0,0
65288,-100,4,2,1,60,0,0
68904,-100,4,2,1,70,0,0
70134,-100,4,2,1,60,0,0
73827,-80,4,1,1,70,0,0
75058,-100,4,2,1,70,0,0
75134,-100,4,2,1,60,0,0
78750,-100,4,2,1,70,0,0
80058,-100,4,2,1,60,0,0
83673,-100,4,1,1,40,0,0
84904,-200,4,2,1,40,0,0
86032,-200,4,2,1,5,0,0
86134,-200,4,2,1,40,0,0
86442,-200,4,2,1,55,0,0
86750,-200,4,2,1,70,0,0
87058,-62.5,4,2,1,85,0,0
87365,-100,4,1,1,60,0,1
87442,-100,4,1,2,60,0,1
99673,-100,4,2,1,70,0,1
102134,-100,4,1,2,60,0,1
104442,-100,4,2,1,70,0,1
105827,-80,4,2,1,80,0,1
106442,-80,4,2,1,80,0,1
107058,-80,4,1,1,70,0,1
107134,-80,4,1,2,60,0,1
109365,-80,4,2,1,70,0,1
111981,-80,4,1,2,60,0,1
114288,-80,4,2,1,70,0,1
114750,-76.9230769230769,4,2,1,70,0,1
115058,-58.8235294117647,4,2,1,70,0,1
116904,-100,4,2,1,60,0,0
126134,-80,4,2,1,60,0,0
126750,-100,4,2,1,70,0,0
130442,-100,4,2,1,60,0,0
131673,-100,4,2,1,70,0,0

[Colours]
Combo1 : 250,180,220
Combo2 : 172,251,255
Combo3 : 138,255,125
Combo4 : 255,255,106

[HitObjects]
44,124,11058,5,4,0:0:0:0:
124,100,11211,1,0,0:0:0:0:
172,172,11365,1,2,0:0:0:0:
248,120,11518,1,0,0:0:0:0:
336,136,11673,2,0,P|368:116|388:88,1,71.2500027179719,8|0,0:0|0:0,0:0:0:0:
352,0,11981,2,0,P|320:20|300:48,1,71.2500027179719
336,136,12288,5,0,0:0:0:0:
388,204,12442,1,0,0:0:0:0:
364,288,12596,1,2,0:0:0:0:
364,288,12750,1,0,0:0:0:0:
303,223,12904,2,0,P|269:211|234:211,1,71.2500027179719,8|0,0:0|0:0,0:0:0:0:
234,339,13211,2,0,P|268:351|304:352,1,71.2500027179719
148,299,13519,5,0,0:0:0:0:
125,129,13673,1,0,0:0:0:0:
136,214,13827,1,2,0:0:0:0:
160,384,13981,1,0,0:0:0:0:
24,268,14134,1,8,0:0:0:0:
48,99,14288,1,0,0:0:0:0:
36,183,14442,1,0,0:0:0:0:
59,15,14596,1,2,0:0:0:0:
24,268,14750,6,0,P|60:275|96:267,1,71.2500027179719
236,159,15058,2,0,P|224:192|201:219,1,71.2500027179719,2|0,0:0|0:0,0:0:0:0:
116,147,15365,2,0,P|127:113|150:86,1,71.2500027179719,8|0,0:0|0:0,0:0:0:0:
326,37,15673,2,0,P|290:30|254:38,1,71.2500027179719,2|0,0:0|0:0,0:0:0:0:
320,135,15981,5,4,0:0:0:0:
376,199,16134,1,0,0:0:0:0:
384,287,16288,1,2,0:0:0:0:
356,366,16441,1,0,0:0:0:0:
273,352,16596,2,0,P|250:318|241:286,1,71.2500027179719,8|0,0:0|0:0,0:0:0:0:
288,175,16904,2,0,P|310:208|319:240,1,71.2500027179719,0|0,0:0|0:0,0:0:0:0:
200,179,17211,5,0,0:0:0:0:
120,154,17365,1,0,0:0:0:0:
71,222,17519,1,0,0:0:0:0:
120,289,17673,1,0,0:0:0:0:
262,233,17827,2,0,P|234:255|200:263,1,71.2500027179719,8|0,0:0|0:0,0:0:0:0:
240,382,18134,2,0,P|216:356|184:343,1,71.2500027179719,2|0,0:0|0:0,0:0:0:0:
44,296,18442,6,0,L|24:328,7,35.625001358986,4|0|0|0|0|0|0|0,0:0|0:0|0:0|0:0|0:0|0:0|0:0|0:0,0:0:0:0:
72,324,19058,2,0,L|70:361,7,35.625001358986,8|0|0|0|0|0|0|0,0:0|0:0|0:0|0:0|0:0|0:0|0:0|0:0,0:0:0:0:
99,337,19673,5,4,0:0:0:0:
130,339,19750,1,0,0:0:0:0:
160,329,19827,1,0,0:0:0:0:
183,309,19904,1,0,0:0:0:0:
197,281,19981,1,0,0:0:0:0:
200,251,20058,1,0,0:0:0:0:
191,221,20135,1,0,0:0:0:0:
172,197,20212,1,0,0:0:0:0:
152,173,20288,5,4,0:0:0:0:
143,143,20365,1,0,0:0:0:0:
146,112,20442,1,0,0:0:0:0:
160,85,20519,1,0,0:0:0:0:
184,65,20596,1,4,0:0:0:0:
213,55,20673,1,0,0:0:0:0:
244,57,20750,1,0,0:0:0:0:
272,70,20827,1,0,0:0:0:0:
296,88,20904,5,4,0:0:0:0:
256,192,20981,12,4,23058,0:1:0:0:
512,128,23365,5,4,0:0:0:0:
436,70,23519,1,0,0:0:0:0:
374,145,23673,1,0,1:0:0:0:
283,116,23827,1,0,0:0:0:0:
191,143,23981,2,0,P|208:188|203:235,1,95,0|0,0:0|0:0,0:0:0:0:
103,158,24288,2,0,P|87:114|92:68,1,95,0|8,1:0|0:0,0:0:0:0:
64,384,24596,5,0,0:0:0:0:
3,315,24750,1,0,0:0:0:0:
48,236,24904,1,0,1:0:0:0:
136,255,25058,1,0,0:0:0:0:
232,379,25211,2,0,P|185:374|147:347,1,95,0|8,0:0|0:0,0:0:0:0:
224,272,25519,2,0,P|270:276|309:303,1,95,0|0,1:0|0:0,0:0:0:0:
412,384,25827,5,0,0:0:0:0:
492,281,25981,1,0,0:0:0:0:
389,200,26135,1,0,1:0:0:0:
309,303,26289,1,0,0:0:0:0:
401,292,26442,5,8,0:0:0:0:
481,189,26596,1,0,0:0:0:0:
378,108,26750,1,0,1:0:0:0:
298,211,26904,1,0,0:0:0:0:
248,76,27058,6,0,L|304:0,1,95
298,211,27365,2,0,L|354:135,1,95,0|0,1:0|0:0,0:0:0:0:
68,180,27673,2,0,L|124:104,1,95,2|0,1:0|0:0,0:0:0:0:
320,384,27981,2,0,L|376:308,1,95,0|0,1:0|0:0,0:0:0:0:
512,80,28288,5,4,0:0:0:0:
424,44,28442,1,0,0:0:0:0:
367,120,28595,1,0,1:0:0:0:
311,196,28749,1,0,0:0:0:0:
254,273,28904,2,0,L|158:233,1,95,0|8,0:0|0:0,0:0:0:0:
0,144,29211,2,0,L|87:180,1,95,0|0,1:0|0:0,0:0:0:0:
417,329,29519,5,0,0:0:0:0:
340,384,29673,1,0,0:0:0:0:
253,348,29827,1,0,1:0:0:0:
165,311,29981,1,0,0:0:0:0:
77,274,30134,2,0,L|0:328,1,95,0|8,0:0|0:0,0:0:0:0:
128,192,30442,2,0,L|205:138,1,95,0|0,1:0|0:0,0:0:0:0:
388,39,30750,5,0,0:0:0:0:
298,163,30904,1,0,0:0:0:0:
444,115,31058,1,0,1:0:0:0:
297,67,31211,1,0,0:0:0:0:
388,192,31365,5,8,0:0:0:0:
297,317,31519,1,0,0:0:0:0:
444,269,31673,1,0,1:0:0:0:
298,221,31827,1,0,0:0:0:0:
388,345,31981,6,0,B|364:280|364:280|368:252,1,95
388,39,32288,2,0,B|364:104|364:104|368:132,1,95,0|0,1:0|0:0,0:0:0:0:
267,382,32596,2,0,L|280:288,1,95,2|0,1:0|0:0,0:0:0:0:
267,1,32904,2,0,L|280:96,1,95,0|0,1:0|0:0,0:0:0:0:
367,254,33211,5,4,0:0:0:0:
279,95,33365,1,0,0:0:0:0:
216,232,33519,1,0,1:0:0:0:
136,284,33673,1,0,0:0:0:0:
40,296,33827,2,0,P|12:268|0:212,1,95,0|8,0:0|0:0,0:0:0:0:
44,52,34134,2,0,P|72:80|84:136,1,95,0|0,1:0|0:0,0:0:0:0:
136,284,34442,5,0,0:0:0:0:
223,124,34596,1,0,0:0:0:0:
287,261,34750,1,0,1:0:0:0:
367,313,34904,1,0,0:0:0:0:
463,325,35058,2,0,P|491:297|503:241,1,95,0|8,0:0|0:0,0:0:0:0:
459,81,35365,2,0,P|431:109|419:165,1,95,0|0,1:0|0:0,0:0:0:0:
367,313,35673,5,0,0:0:0:0:
287,261,35827,1,0,0:0:0:0:
145,247,35981,1,0,1:0:0:0:
225,195,36135,1,0,0:0:0:0:
367,176,36288,5,8,0:0:0:0:
287,124,36442,1,0,0:0:0:0:
145,110,36596,1,0,1:0:0:0:
225,58,36750,1,0,0:0:0:0:
316,0,36904,6,0,L|368:79,1,95
448,252,37211,2,0,L|368:304,1,95,0|0,1:0|0:0,0:0:0:0:
196,384,37519,2,0,L|143:304,1,95,2|0,1:0|0:0,0:0:0:0:
64,132,37827,2,0,L|146:78,1,95,0|0,1:0|0:0,0:0:0:0:
231,167,38134,5,0,0:0:0:0:
187,61,38288,1,0,0:0:0:0:
187,185,38442,1,0,1:0:0:0:
231,80,38596,1,0,0:0:0:0:
144,167,38750,2,0,L|64:219,1,95,8|0,0:0|0:0,0:0:0:0:
248,124,39057,2,0,L|327:71,1,95,0|0,1:0|0:0,0:0:0:0:
281,217,39365,5,0,0:0:0:0:
325,323,39519,1,0,0:0:0:0:
325,199,39673,1,0,1:0:0:0:
281,304,39827,1,0,0:0:0:0:
368,217,39981,2,0,L|447:164,1,95,8|0,0:0|0:0,0:0:0:0:
264,260,40288,2,0,L|184:312,1,95,0|0,1:0|0:0,0:0:0:0:
256,192,40596,12,0,42750,0:0:0:0:
392,288,43058,5,4,0:0:0:0:
452,216,43211,1,0,0:0:0:0:
436,124,43365,1,0,1:0:0:0:
360,68,43519,1,0,0:0:0:0:
272,100,43673,5,8,0:0:0:0:
205,168,43826,1,0,0:0:0:0:
137,100,43980,1,0,1:0:0:0:
205,33,44134,1,0,0:0:0:0:
272,100,44288,5,0,0:0:0:0:
296,192,44442,1,0,0:0:0:0:
264,280,44596,1,0,1:0:0:0:
180,328,44750,1,0,0:0:0:0:
84,328,44904,5,8,0:0:0:0:
151,261,45058,1,0,0:0:0:0:
242,244,45212,1,0,1:0:0:0:
327,292,45366,1,0,0:0:0:0:
406,346,45519,5,0,0:0:0:0:
499,320,45673,1,0,0:0:0:0:
505,224,45827,1,0,1:0:0:0:
412,252,45981,1,0,0:0:0:0:
327,292,46134,5,0,0:0:0:0:
242,244,46288,1,0,0:0:0:0:
259,149,46442,1,0,1:0:0:0:
343,197,46596,1,0,0:0:0:0:
396,112,46750,5,0,0:0:0:0:
396,112,46904,1,0,0:0:0:0:
259,149,47058,1,0,1:0:0:0:
259,149,47211,1,0,0:0:0:0:
140,72,47365,5,8,0:0:0:0:
140,72,47519,1,0,0:0:0:0:
3,109,47673,1,0,1:0:0:0:
3,109,47826,1,0,0:0:0:0:
156,292,47981,5,0,0:0:0:0:
87,152,48134,1,0,0:0:0:0:
80,242,48287,1,0,1:0:0:0:
0,279,48442,1,0,0:0:0:0:
87,152,48596,5,8,0:0:0:0:
156,292,48750,1,0,0:0:0:0:
244,164,48904,1,0,1:0:0:0:
161,202,49057,1,0,0:0:0:0:
244,40,49211,5,0,0:0:0:0:
350,102,49365,1,0,0:0:0:0:
244,164,49519,1,0,1:0:0:0:
229,51,49673,5,0,0:0:0:0:
347,83,49827,1,8,0:0:0:0:
261,171,49981,1,0,0:0:0:0:
217,65,50134,5,0,1:0:0:0:
279,173,50288,1,0,0:0:0:0:
340,66,50442,5,0,0:0:0:0:
210,83,50596,1,0,0:0:0:0:
88,104,50750,1,0,1:0:0:0:
168,196,50904,1,0,0:0:0:0:
298,170,51058,1,8,0:0:0:0:
296,292,51211,1,0,0:0:0:0:
196,364,51365,5,0,1:0:0:0:
196,364,51519,1,0,0:0:0:0:
172,220,51673,1,0,1:0:0:0:
59,312,51827,1,0,0:0:0:0:
211,347,51981,5,0,1:0:0:0:
150,215,52135,1,0,0:0:0:0:
65,333,52289,1,0,1:0:0:0:
221,328,52442,5,8,0:0:0:0:
221,328,52519,1,8,0:0:0:0:
221,328,52596,1,0,1:0:0:0:
128,215,52750,1,8,0:0:0:0:
128,215,52827,1,8,0:0:0:0:
128,215,52904,5,4,0:0:0:0:
76,351,53058,1,0,0:0:0:0:
128,215,53211,1,0,1:0:0:0:
176,80,53365,1,0,0:0:0:0:
32,36,53519,5,8,0:0:0:0:
52,140,53673,1,0,0:0:0:0:
128,215,53827,1,0,1:0:0:0:
232,236,53981,1,0,0:0:0:0:
232,236,54058,1,0,0:0:0:0:
232,236,54134,5,0,0:0:0:0:
312,113,54288,1,0,0:0:0:0:
232,236,54441,1,0,1:0:0:0:
144,348,54595,1,0,0:0:0:0:
0,340,54749,5,8,0:0:0:0:
92,244,54904,1,0,0:0:0:0:
232,236,55057,1,0,1:0:0:0:
365,304,55211,1,0,0:0:0:0:
255,88,55365,5,0,0:0:0:0:
470,198,55519,1,0,0:0:0:0:
232,236,55673,1,0,1:0:0:0:
403,64,55827,1,0,0:0:0:0:
365,304,55981,5,8,0:0:0:0:
221,328,56134,1,0,0:0:0:0:
107,222,56289,1,0,1:0:0:0:
132,60,56442,1,0,0:0:0:0:
296,0,56596,6,0,L|388:24,1,95
159,174,56904,2,0,L|251:198,1,95,0|0,1:0|0:0,0:0:0:0:
40,36,57211,2,0,L|132:60,1,95,2|0,1:0|0:0,0:0:0:0:
0,296,57519,2,0,L|92:320,1,95,0|0,1:0|0:0,0:0:0:0:
159,174,57827,5,0,0:0:0:0:
220,384,57981,1,0,0:0:0:0:
292,264,58134,1,0,1:0:0:0:
380,316,58288,5,0,0:0:0:0:
414,324,58364,1,0,0:0:0:0:
449,320,58441,1,8,0:0:0:0:
481,305,58518,1,0,0:0:0:0:
507,280,58595,1,0,0:0:0:0:
512,184,58750,2,0,L|512:136,2,47.5,0|0|0,1:0|0:0|0:0,0:0:0:0:
380,316,59058,5,8,0:0:0:0:
319,106,59212,1,0,0:0:0:0:
251,226,59365,1,0,1:0:0:0:
163,174,59519,5,0,0:0:0:0:
128,165,59595,1,0,0:0:0:0:
93,169,59672,1,8,0:0:0:0:
61,184,59749,1,0,0:0:0:0:
35,209,59826,1,0,0:0:0:0:
27,306,59981,2,0,L|27:354,2,47.5,0|0|0,1:0|0:0|0:0,0:0:0:0:
40,96,60288,6,0,L|6:62,2,47.5,4|0|0,1:0|0:0|0:0,0:0:0:0:
148,214,60596,6,0,L|181:247,2,47.5,0|0|0,1:0|0:0|0:0,3:0:0:0:
35,209,60904,6,0,L|1:242,2,47.5,0|0|0,1:0|0:0|0:0,0:0:0:0:
153,101,61211,6,0,L|186:67,2,47.5,0|0|0,1:0|0:0|0:0,3:0:0:0:
84,308,61519,1,4,0:0:0:0:
228,352,61673,1,8,0:0:0:0:
348,256,61827,1,0,1:0:0:0:
328,104,61981,1,8,0:0:0:0:
332,66,62057,1,8,0:0:0:0:
352,34,62134,1,8,0:0:0:0:
383,12,62211,1,8,0:0:0:0:
420,5,62288,1,8,0:0:0:0:
457,13,62365,1,8,0:0:0:0:
487,35,62442,1,0,1:0:0:0:
506,67,62519,1,8,0:0:0:0:
510,105,62596,1,8,0:0:0:0:
499,141,62673,1,8,0:0:0:0:
474,169,62750,6,0,L|424:188,4,47.5,0|0|0|0|0,0:0|0:0|0:0|0:0|3:0,3:0:0:0:
336,136,63211,2,0,L|285:117,4,47.5,0|0|0|0|0,0:0|0:0|0:0|0:0|3:0,3:0:0:0:
420,96,63673,5,0,3:0:0:0:
220,180,63827,1,0,0:0:0:0:
116,264,63981,6,0,L|160:281,3,47.5,0|0|0|0,0:0|0:0|0:0|3:0,3:0:0:0:
234,312,64288,2,0,L|278:329,3,47.5,0|0|0|0,0:0|0:0|3:0|3:0,3:0:0:0:
360,304,64596,2,0,L|418:280,1,47.5,0|0,0:0|0:0,3:0:0:0:
480,252,64750,6,0,L|502:243,6,23.75,0|0|0|0|0|0|0,0:0|0:0|0:0|0:0|0:0|3:0|3:0,3:0:0:0:
403,285,65058,2,0,L|360:304,1,47.5,0|0,0:0|0:0,3:0:0:0:
240,344,65211,6,0,B|188:264|188:264|200:168,1,190,4|8,0:0|0:0,0:0:0:0:
361,37,65827,2,0,B|272:116|272:116|264:88|264:88|225:75,1,190,2|8,0:0|0:0,0:0:0:0:
124,52,66288,1,0,0:0:0:0:
124,52,66442,6,0,B|112:120|112:120|84:160|84:160|72:232,1,190,0|8,0:0|0:0,0:0:0:0:
71,324,66904,1,0,0:0:0:0:
176,200,67058,2,0,B|160:296|160:296|71:324,1,190,2|8,0:0|0:0,0:0:0:0:
71,324,67519,1,0,0:0:0:0:
264,268,67673,6,0,B|356:240|356:240|456:276,1,190,0|8,0:0|0:0,0:0:0:0:
444,271,68134,1,0,0:0:0:0:
444,271,68288,1,2,0:0:0:0:
352,324,68442,1,0,0:0:0:0:
264,268,68596,1,8,0:0:0:0:
271,163,68750,1,0,0:0:0:0:
367,121,68904,6,0,L|456:188,1,95,8|0,0:0|0:0,0:0:0:0:
304,276,69211,2,0,L|216:313,1,95,8|0,0:0|0:0,0:0:0:0:
200,144,69519,2,0,L|213:34,1,95,10|0,0:0|0:0,0:0:0:0:
367,121,69827,1,0,0:0:0:0:
304,276,69981,1,0,0:0:0:0:
217,313,70134,6,0,B|133:352|133:352|145:256,1,190,0|8,0:0|0:0,0:0:0:0:
48,68,70750,2,0,B|132:29|132:29|120:125,1,190,2|8,0:0|0:0,0:0:0:0:
119,125,71211,1,0,0:0:0:0:
217,88,71365,2,0,L|190:292,1,190,0|8,0:0|0:0,0:0:0:0:
85,384,71827,1,0,0:0:0:0:
84,384,71981,2,0,L|109:196,1,190,2|8,0:0|0:0,0:0:0:0:
192,276,72442,1,0,0:0:0:0:
292,216,72596,6,0,B|374:164|374:164|464:188,1,190,0|8,0:0|0:0,0:0:0:0:
464,188,73058,1,0,0:0:0:0:
307,114,73211,1,2,0:0:0:0:
449,289,73365,1,0,0:0:0:0:
418,96,73519,1,8,0:0:0:0:
338,307,73672,1,0,0:0:0:0:
196,133,73827,5,0,0:0:0:0:
40,232,73981,1,0,0:0:0:0:
32,46,74134,1,0,0:0:0:0:
80,156,74288,1,0,0:0:0:0:
80,156,74365,1,0,0:0:0:0:
80,156,74442,2,0,L|196:133,1,118.75,0|0,1:0|0:0,0:0:0:0:
432,228,74750,2,0,L|316:251,1,118.75,0|0,0:0|0:0,3:0:0:0:
240,268,74981,1,0,0:0:0:0:
240,268,75058,6,0,B|280:156|280:156|212:176,1,190,4|8,0:0|0:0,0:0:0:0:
364,364,75673,2,0,B|296:384|296:384|336:272,1,190,2|8,0:0|0:0,0:0:0:0:
374,195,76134,1,0,0:0:0:0:
374,195,76288,6,0,B|482:246|482:246|420:280,1,190,0|8,0:0|0:0,0:0:0:0:
512,168,76750,1,0,0:0:0:0:
340,86,76904,2,0,L|516:170,1,190,2|8,0:0|0:0,0:0:0:0:
248,132,77365,1,0,0:0:0:0:
510,0,77519,6,0,L|340:86,1,190,0|8,0:0|0:0,0:0:0:0:
155,177,77981,1,0,0:0:0:0:
248,132,78134,1,2,0:0:0:0:
144,280,78288,1,0,0:0:0:0:
237,235,78441,1,8,0:0:0:0:
133,383,78596,1,0,0:0:0:0:
226,338,78750,6,0,L|328:289,1,95,8|0,0:0|0:0,0:0:0:0:
480,217,79058,2,0,L|386:153,1,95,8|0,0:0|0:0,0:0:0:0:
248,57,79366,2,0,L|239:169,1,95,10|0,0:0|0:0,0:0:0:0:
311,296,79673,1,8,0:0:0:0:
401,163,79827,1,0,0:0:0:0:
240,152,79981,6,0,B|116:144|116:144|60:184,1,190,0|8,0:0|0:0,0:0:0:0:
280,240,80596,2,0,B|324:200|324:200|340:64,1,190,2|8,0:0|0:0,0:0:0:0:
432,0,81058,1,0,0:0:0:0:
412,188,81211,2,0,L|432:0,1,190,0|8,0:0|0:0,0:0:0:0:
496,192,81673,1,0,0:0:0:0:
496,192,81827,2,0,L|476:380,1,190,2|8,0:0|0:0,0:0:0:0:
388,320,82288,1,0,0:0:0:0:
496,192,82442,5,8,0:0:0:0:
388,320,82596,1,0,0:0:0:0:
373,153,82750,5,8,0:0:0:0:
388,320,82904,1,0,0:0:0:0:
260,212,83058,5,8,0:0:0:0:
388,320,83212,1,0,0:0:0:0:
221,334,83365,5,8,0:0:0:0:
388,320,83519,1,0,0:0:0:0:
264,84,83673,5,0,0:0:0:0:
56,124,83827,1,0,0:0:0:0:
96,332,83981,1,0,0:0:0:0:
304,292,84134,1,0,0:0:0:0:
180,208,84288,5,0,0:0:0:0:
180,208,84365,1,0,0:0:0:0:
180,208,84442,1,0,0:0:0:0:
180,208,84519,1,0,0:0:0:0:
180,208,84596,1,0,0:0:0:0:
180,208,84673,1,0,0:0:0:0:
180,208,84750,1,0,0:0:0:0:
180,208,84827,1,0,0:0:0:0:
180,208,84904,6,0,P|300:200|228:40,1,356.25,4|0,0:0|0:0,0:0:0:0:
224,48,86134,2,0,L|144:48,1,71.25
148,40,86442,2,0,L|68:40,1,71.25
0,120,86750,2,0,L|79:120,1,71.25
76,128,87058,6,0,L|304:128,1,228
432,124,87365,5,4,0:2:0:0:
344,264,87519,1,0,0:0:0:0:
464,312,87673,2,0,L|448:216,1,95,8|0,0:0|0:0,0:0:0:0:
312,76,87981,5,0,0:0:0:0:
224,216,88135,1,0,0:0:0:0:
344,264,88289,2,0,L|328:168,1,95,8|0,0:0|0:0,0:0:0:0:
134,92,88596,5,0,0:0:0:0:
134,246,88750,1,0,0:0:0:0:
224,121,88904,1,8,0:0:0:0:
78,169,89058,1,0,0:0:0:0:
224,216,89211,1,8,0:0:0:0:
134,92,89365,1,8,0:0:0:0:
134,246,89519,1,0,0:0:0:0:
296,168,89673,1,0,0:0:0:0:
296,168,89750,1,0,0:0:0:0:
296,168,89827,5,0,0:0:0:0:
384,308,89981,1,0,0:0:0:0:
264,356,90135,2,0,L|280:260,1,95,8|0,0:0|0:0,0:0:0:0:
416,120,90443,5,0,0:0:0:0:
504,260,90597,1,0,0:0:0:0:
384,308,90751,2,0,L|400:212,1,95,8|0,0:0|0:0,0:0:0:0:
428,28,91058,5,0,0:0:0:0:
399,214,91211,1,0,0:0:0:0:
328,96,91365,1,0,0:0:0:0:
220,204,91519,5,0,0:0:0:0:
181,218,91595,1,0,0:0:0:0:
140,213,91672,1,8,0:0:0:0:
107,189,91749,1,8,0:0:0:0:
90,152,91826,1,8,0:0:0:0:
92,110,91903,1,8,0:0:0:0:
114,76,91980,1,0,0:0:0:0:
150,56,92057,1,0,0:0:0:0:
191,55,92134,1,0,0:0:0:0:
288,120,92288,5,0,0:0:0:0:
408,180,92442,1,0,0:0:0:0:
471,71,92596,2,0,L|380:96,1,95,8|0,0:0|0:0,0:0:0:0:
168,60,92904,5,0,0:0:0:0:
288,120,93058,1,0,0:0:0:0:
351,11,93212,2,0,L|260:36,1,95,8|0,0:0|0:0,0:0:0:0:
163,153,93519,5,0,0:0:0:0:
393,241,93673,1,0,0:0:0:0:
259,36,93827,1,0,0:0:0:0:
246,279,93981,1,0,0:0:0:0:
400,90,94134,1,8,0:0:0:0:
163,153,94288,1,0,0:0:0:0:
393,241,94442,1,8,0:0:0:0:
296,164,94596,1,0,0:0:0:0:
273,155,94673,1,0,0:0:0:0:
251,146,94750,5,0,0:0:0:0:
0,48,94904,1,0,0:0:0:0:
40,196,95058,2,0,L|129:231,1,95,8|0,0:0|0:0,0:0:0:0:
308,304,95365,5,0,0:0:0:0:
448,224,95519,1,0,0:0:0:0:
296,164,95673,2,0,L|187:121,1,95,8|0,0:0|0:0,0:0:0:0:
25,196,95981,5,8,0:0:0:0:
64,212,96057,1,0,0:0:0:0:
102,227,96134,1,8,0:0:0:0:
141,243,96211,1,0,0:0:0:0:
179,258,96288,1,8,0:0:0:0:
218,273,96365,1,0,0:0:0:0:
257,289,96442,1,8,0:0:0:0:
295,304,96519,1,0,0:0:0:0:
334,320,96596,6,0,L|380:304,1,47.5,8|0,0:0|0:0,0:0:0:0:
432,224,96750,2,0,L|477:207,1,47.5,8|0,0:0|0:0,0:0:0:0:
368,136,96904,2,0,L|413:119,1,47.5,8|0,0:0|0:0,0:0:0:0:
466,40,97058,2,0,L|511:23,1,47.5,8|0,0:0|0:0,0:0:0:0:
368,136,97211,5,4,0:2:0:0:
334,320,97365,1,0,0:0:0:0:
368,136,97519,2,0,L|300:40,1,95,8|0,0:0|0:0,0:0:0:0:
284,232,97827,5,0,0:0:0:0:
210,316,97981,1,0,0:0:0:0:
244,132,98135,2,0,L|176:36,1,95,8|0,0:0|0:0,0:0:0:0:
176,220,98442,5,0,0:0:0:0:
176,220,98596,2,0,L|108:124,1,95,0|8,0:0|0:0,0:0:0:0:
64,48,98904,1,0,0:0:0:0:
24,140,99058,1,8,0:0:0:0:
68,232,99211,1,0,0:0:0:0:
28,324,99365,2,0,L|104:384,1,95,8|0,0:0|0:0,0:0:0:0:
188,320,99673,5,2,0:0:0:0:
220,307,99749,1,0,0:0:0:0:
256,307,99826,1,0,0:0:0:0:
289,320,99903,1,0,0:0:0:0:
314,345,99981,2,0,P|336:372|348:380,3,47.5,2|0|0|0,0:0|0:0|0:0|0:0,0:0:0:0:
381,384,100288,5,2,0:0:0:0:
416,378,100364,1,0,0:0:0:0:
446,360,100441,1,0,0:0:0:0:
468,332,100518,1,0,0:0:0:0:
477,298,100596,2,0,P|482:264|488:251,3,47.5,2|0|0|0,0:0|0:0|0:0|0:0,0:0:0:0:
504,220,100904,5,2,0:0:0:0:
510,185,100980,1,0,0:0:0:0:
507,149,101057,1,0,0:0:0:0:
494,116,101134,1,0,0:0:0:0:
472,88,101211,5,2,0:0:0:0:
444,66,101288,1,0,0:0:0:0:
411,53,101365,1,0,0:0:0:0:
376,49,101442,1,0,0:0:0:0:
341,55,101519,5,2,0:0:0:0:
309,71,101596,1,0,0:0:0:0:
282,94,101673,1,0,0:0:0:0:
263,124,101750,1,0,0:0:0:0:
252,158,101827,5,2,0:0:0:0:
251,193,101904,1,0,0:0:0:0:
260,228,101980,1,0,0:0:0:0:
278,258,102057,1,0,0:0:0:0:
303,283,102134,5,0,0:0:0:0:
392,340,102288,1,0,0:0:0:0:
216,320,102442,2,0,L|128:357,1,95,8|0,0:0|0:0,0:0:0:0:
296,176,102750,5,0,0:0:0:0:
385,233,102904,1,0,0:0:0:0:
209,213,103058,2,0,L|121:250,1,95,8|0,0:0|0:0,0:0:0:0:
426,25,103365,5,0,0:0:0:0:
437,137,103519,1,0,0:0:0:0:
336,184,103673,1,8,0:0:0:0:
261,100,103827,1,0,0:0:0:0:
317,2,103981,1,8,0:0:0:0:
426,25,104134,1,0,0:0:0:0:
336,184,104288,2,0,L|268:306,1,95
168,368,104596,5,2,0:0:0:0:
152,332,104673,1,0,0:0:0:0:
168,296,104750,1,0,0:0:0:0:
152,260,104827,1,0,0:0:0:0:
168,228,104904,2,0,L|148:184,3,47.5,2|0|0|0,0:0|0:0|0:0|0:0,0:0:0:0:
60,76,105211,5,2,0:0:0:0:
44,112,105288,1,0,0:0:0:0:
60,148,105365,1,0,0:0:0:0:
44,184,105442,1,0,0:0:0:0:
60,216,105519,2,0,L|40:260,3,47.5,2|0|0|0,0:0|0:0|0:0|0:0,0:0:0:0:
24,356,105827,6,0,L|81:334,1,59.375,10|0,0:0|0:0,0:0:0:0:
168,296,105981,2,0,L|228:274,1,59.375,10|0,0:0|0:0,0:0:0:0:
312,236,106134,2,0,L|369:215,1,59.375,10|0,0:0|0:0,0:0:0:0:
456,176,106288,2,0,L|511:155,1,59.375,10|0,0:0|0:0,0:0:0:0:
346,118,106442,5,8,0:0:0:0:
303,108,106518,1,8,0:0:0:0:
260,98,106595,1,8,0:0:0:0:
216,88,106672,1,8,0:0:0:0:
173,77,106749,1,8,0:0:0:0:
130,67,106826,1,8,0:0:0:0:
86,57,106903,1,8,0:0:0:0:
43,47,106980,1,8,0:0:0:0:
0,37,107058,5,4,0:2:0:0:
0,304,107212,1,0,0:0:0:0:
108,223,107366,2,0,L|32:92,1,118.75,8|0,0:0|0:0,0:0:0:0:
0,37,107673,5,0,0:0:0:0:
0,185,107827,1,0,0:0:0:0:
0,304,107981,2,0,L|0:184,1,118.75,8|0,0:0|0:0,0:0:0:0:
0,37,108288,5,0,0:0:0:0:
93,276,108442,2,0,L|200:328,1,118.75,0|8,0:0|0:0,0:0:0:0:
306,379,108750,1,0,0:0:0:0:
404,310,108904,1,8,0:0:0:0:
200,328,109058,1,0,0:0:0:0:
190,208,109211,2,0,L|182:89,1,118.75,8|0,0:0|0:0,0:0:0:0:
408,45,109519,5,2,0:0:0:0:
411,89,109595,1,0,0:0:0:0:
414,134,109672,1,0,0:0:0:0:
417,178,109749,1,0,0:0:0:0:
420,222,109827,2,0,L|426:318,3,59.375,2|0|0|0,0:0|0:0|0:0|0:0,0:0:0:0:
327,379,110134,5,2,0:0:0:0:
324,335,110210,1,0,0:0:0:0:
322,291,110287,1,0,0:0:0:0:
319,246,110364,1,0,0:0:0:0:
316,202,110442,2,0,L|309:106,3,59.375,2|0|0|0,0:0|0:0|0:0|0:0,0:0:0:0:
228,40,110750,5,2,0:0:0:0:
183,56,110826,1,0,0:0:0:0:
139,73,110903,1,0,0:0:0:0:
94,90,110980,1,0,0:0:0:0:
50,106,111057,5,2,0:0:0:0:
5,123,111134,1,0,0:0:0:0:
48,134,111211,1,0,0:0:0:0:
94,146,111288,1,0,0:0:0:0:
140,157,111365,5,2,0:0:0:0:
186,168,111442,1,0,0:0:0:0:
232,180,111519,1,2,0:0:0:0:
207,220,111595,1,0,0:0:0:0:
181,260,111672,5,2,0:0:0:0:
155,299,111749,1,0,0:0:0:0:
129,339,111826,1,2,0:0:0:0:
104,379,111903,1,0,0:0:0:0:
88,335,111980,5,0,0:0:0:0:
88,335,112134,1,0,0:0:0:0:
321,383,112288,2,0,L|204:359,1,118.75,8|0,0:0|0:0,0:0:0:0:
89,335,112595,1,0,0:0:0:0:
89,335,112749,1,0,0:0:0:0:
368,242,112904,2,0,L|222:291,1,118.75,8|0,0:0|0:0,0:0:0:0:
88,335,113211,5,0,0:0:0:0:
256,280,113365,1,0,0:0:0:0:
122,160,113519,5,8,0:0:0:0:
256,280,113673,1,0,0:0:0:0:
292,103,113827,5,8,0:0:0:0:
256,280,113981,1,0,0:0:0:0:
427,221,114134,6,0,L|314:257,1,118.75,8|0,0:0|0:0,0:0:0:0:
256,280,114365,1,0,0:0:0:0:
257,279,114442,6,0,B|426:224,1,178.125
488,208,114750,6,0,B|304:268,1,185.249991519928
208,304,115058,6,0,B|456:222,1,242.250004620552,2|0,0:0|0:0,0:0:0:0:
512,204,115365,5,2,0:0:0:0:
132,332,115519,1,0,0:0:0:0:
260,176,115673,5,0,0:0:0:0:
259,142,115749,1,0,0:0:0:0:
249,112,115826,1,0,0:0:0:0:
231,84,115903,1,0,0:0:0:0:
209,61,115980,5,0,0:0:0:0:
179,48,116057,1,0,0:0:0:0:
148,41,116134,1,0,0:0:0:0:
115,44,116211,1,0,0:0:0:0:
86,55,116288,5,8,0:0:0:0:
59,74,116365,1,8,0:0:0:0:
38,99,116442,1,8,0:0:0:0:
26,129,116519,1,8,0:0:0:0:
21,161,116596,5,8,0:0:0:0:
26,193,116673,1,8,0:0:0:0:
39,222,116749,1,8,0:0:0:0:
59,247,116826,1,8,0:0:0:0:
84,264,116904,6,0,B|180:296|180:296|224:376,1,190,4|0,0:0|0:0,0:0:0:0:
376,320,117519,2,0,B|285:292|285:292|237:207,1,190,2|8,0:0|0:0,0:0:0:0:
200,52,117981,1,0,0:0:0:0:
200,52,118134,6,0,B|290:79|290:79|338:164,1,190,0|8,0:0|0:0,0:0:0:0:
232,164,118596,1,0,0:0:0:0:
232,164,118750,2,0,L|278:246,1,95
337,162,119058,2,0,L|290:79,1,95,8|0,0:0|0:0,0:0:0:0:
396,84,119365,6,0,B|442:167|442:167|390:246,1,190,0|8,0:0|0:0,0:0:0:0:
332,324,119827,1,0,0:0:0:0:
396,84,119981,1,2,0:0:0:0:
390,246,120134,1,0,0:0:0:0:
396,84,120288,1,8,0:0:0:0:
442,167,120442,1,0,0:0:0:0:
492,252,120596,6,0,B|512:288|512:288|489:336,1,95
322,124,120904,2,0,B|343:89|343:89|397:84,1,95,8|0,0:0|0:0,0:0:0:0:
296,335,121211,2,0,B|254:334|254:334|223:290,1,95,10|0,0:0|0:0,0:0:0:0:
322,124,121519,1,8,0:0:0:0:
492,252,121673,1,0,0:0:0:0:
296,335,121827,6,0,B|256:336|256:336|168:212,1,190,0|8,0:0|0:0,0:0:0:0:
444,256,122442,2,0,B|308:256|308:256|276:212,1,190,2|8,0:0|0:0,0:0:0:0:
235,135,122904,1,0,0:0:0:0:
68,92,123058,6,0,B|204:92|204:92|236:136,1,190,0|8,0:0|0:0,0:0:0:0:
168,192,123519,1,0,0:0:0:0:
168,192,123673,2,0,B|32:191|32:191|0:147,1,190,2|8,0:0|0:0,0:0:0:0:
68,92,124134,1,0,0:0:0:0:
172,288,124288,6,0,B|228:368|228:368|268:284,1,190,0|8,0:0|0:0,0:0:0:0:
217,202,124750,1,0,0:0:0:0:
268,284,124904,5,2,0:0:0:0:
313,198,125058,1,0,0:0:0:0:
268,284,125212,5,8,0:0:0:0:
364,280,125365,1,0,0:0:0:0:
268,284,125519,5,8,0:0:0:0:
409,194,125673,1,8,0:0:0:0:
262,116,125827,1,8,0:0:0:0:
268,284,125981,5,0,0:0:0:0:
306,294,126057,1,0,0:0:0:0:
346,288,126134,1,8,0:0:0:0:
380,267,126211,1,8,0:0:0:0:
402,233,126288,1,8,0:0:0:0:
408,194,126365,1,8,0:0:0:0:
399,155,126442,1,8,0:0:0:0:
374,123,126519,1,8,0:0:0:0:
338,105,126596,1,8,0:0:0:0:
299,102,126673,1,8,0:0:0:0:
262,116,126750,6,0,B|196:156|196:156|88:120,1,190,4|8,0:0|0:0,0:0:0:0:
414,125,127365,2,0,L|252:224,1,190,2|8,0:0|0:0,0:0:0:0:
162,241,127827,1,0,0:0:0:0:
0,340,127981,2,0,L|162:241,1,190,0|8,0:0|0:0,0:0:0:0:
192,116,128442,1,0,0:0:0:0:
192,116,128596,2,0,L|29:214,1,190,2|8,0:0|0:0,0:0:0:0:
168,344,129058,1,0,0:0:0:0:
316,228,129211,6,0,L|328:32,1,190,0|8,0:0|0:0,0:0:0:0:
284,268,129673,1,0,0:0:0:0:
388,109,129827,1,2,0:0:0:0:
240,288,129981,1,0,0:0:0:0:
410,203,130134,1,8,0:0:0:0:
192,284,130288,1,0,0:0:0:0:
381,295,130442,6,0,L|519:303,1,95,0|0,0:0|0:0,0:0:0:0:
389,110,130750,2,0,L|326:-13,1,95,8|0,0:0|0:0,0:0:0:0:
224,196,131058,2,0,L|147:311,1,95,2|8,0:0|0:0,0:0:0:0:
172,276,131288,1,0,0:0:0:0:
172,276,131365,1,8,0:0:0:0:
332,208,131519,1,0,0:0:0:0:
124,120,131673,6,0,B|64:88|64:88|228:52,1,190,0|8,0:0|0:0,0:0:0:0:
56,184,132288,2,0,B|4:200|4:200|140:240,1,190,2|8,0:0|0:0,0:0:0:0:
216,188,132750,1,0,0:0:0:0:
216,378,132904,6,0,L|216:188,1,190,0|8,0:0|0:0,0:0:0:0:
300,68,133365,1,0,0:0:0:0:
300,68,133519,2,0,L|300:258,1,190,2|8,0:0|0:0,0:0:0:0:
300,258,133981,1,0,0:0:0:0:
394,79,134134,6,0,L|300:68,1,95,8|0,0:0|0:0,0:0:0:0:
143,53,134442,2,0,L|132:148,1,95,8|0,0:0|0:0,0:0:0:0:
117,304,134750,2,0,L|211:316,1,95,8|0,0:0|0:0,0:0:0:0:
368,330,135058,2,0,L|380:236,1,95,8|0,0:0|0:0,0:0:0:0:
300,68,135365,5,8,0:0:0:0:
380,235,135519,1,8,0:0:0:0:
211,316,135673,1,8,0:0:0:0:
132,148,135827,1,8,0:0:0:0:
256,192,135981,5,8,0:0:0:0:
256,192,136058,1,8,0:0:0:0:
256,192,136134,1,8,0:0:0:0:
256,192,136211,1,8,0:0:0:0:
256,192,136288,1,8,0:0:0:0:
256,192,136365,1,8,0:0:0:0:
256,192,136442,1,8,0:0:0:0:
256,192,136519,1,8,0:0:0:0:
256,192,136596,1,12,0:0:0:0:
256,192,136673,12,0,139058,0:0:0:0:
