osu file format v13

[General]
AudioFilename: Lunatic Princess.mp3
AudioLeadIn: 0
PreviewTime: 87365
Countdown: 0
SampleSet: Soft
StackLeniency: 0.7
Mode: 0
LetterboxInBreaks: 0
WidescreenStoryboard: 0

[Editor]
Bookmarks: 43240,65393,117086
DistanceSpacing: 0.6
BeatDivisor: 4
GridSize: 16
TimelineZoom: 3.299999

[Metadata]
Title:sola
TitleUnicode:sola
Artist:nmk
ArtistUnicode:nmk
Creator:sjoy
Version:Extra
Source:BMS
Tags:Touhou 東方音弾遊戯6 taketori hishou 竹取飛翔 ~ Lunatic Princess Houraisan Kaguya imoutosan chenwu Sakaue Nachi artcore sharlo flower Optie
BeatmapID:439135
BeatmapSetID:183267

[Difficulty]
HPDrainRate:7.5
CircleSize:5
OverallDifficulty:9
ApproachRate:9.3
SliderMultiplier:1.9
SliderTickRate:2

[Events]
//Background and Video events
0,0,"bg.jpg",0,0
Video,-182,"2333.avi"
//Break Periods
//Storyboard Layer 0 (Background)
//Storyboard Layer 1 (Fail)
//Storyboard Layer 2 (Pass)
//Storyboard Layer 3 (Foreground)
//Storyboard Sound Samples
//Background Colour Transformations
3,100,163,162,255

[TimingPoints]
11058,307.692307692308,4,1,0,100,1,0
11058,-133.333333333333,4,2,1,50,0,0
20288,-100,4,2,1,50,0,0
23365,-100,4,2,1,60,0,0
23442,-100,4,2,2,60,0,0
27058,-100,4,2,2,70,0,0
28288,-100,4,2,2,60,0,0
31981,-100,4,2,2,70,0,0
33211,-100,4,2,1,60,0,0
33288,-100,4,2,2,60,0,0
36904,-100,4,2,2,70,0,0
38134,-100,4,2,2,60,0,0
40596,-100,4,2,2,70,0,0
41673,-100,4,2,1,60,0,0
43134,-100,4,2,2,60,0,0
46750,-100,4,2,2,70,0,0
47981,-100,4,2,2,60,0,0
51673,-100,4,2,2,70,0,0
52904,-100,4,2,1,70,0,0
52981,-100,4,2,2,70,0,0
56596,-100,4,2,2,80,0,0
57827,-100,4,2,2,70,0,0
60288,-100,4,2,2,60,0,0
61519,-100,4,2,2,80,0,0
62750,-100,4,2,1,70,0,0
65288,-100,4,2,2,60,0,0
68904,-100,4,2,2,70,0,0
70134,-100,4,2,2,60,0,0
73827,-80,4,2,1,70,0,0
75058,-100,4,2,1,70,0,0
75134,-100,4,2,2,60,0,0
78750,-100,4,2,2,70,0,0
80058,-100,4,2,2,60,0,0
83673,-100,4,2,1,40,0,0
86058,-100,4,2,1,5,0,0
86134,-100,4,2,1,40,0,0
86442,-83.3333333333333,4,2,1,55,0,0
86750,-71.4285714285714,4,2,1,70,0,0
87058,-62.5,4,2,1,85,0,0
87365,-100,4,1,1,60,0,1
87442,-100,4,1,2,60,0,1
99673,-100,4,2,2,70,0,1
102134,-100,4,1,2,60,0,1
104442,-100,4,2,2,70,0,1
105827,-100,4,2,1,80,0,1
106442,-80,4,2,1,80,0,1
107058,-100,4,1,1,70,0,1
107134,-100,4,1,2,60,0,1
109365,-100,4,2,2,70,0,1
111981,-100,4,1,2,60,0,1
114288,-100,4,2,2,70,0,1
116904,-100,4,2,1,60,0,0
126134,-80,4,2,1,60,0,0
126750,-100,4,2,1,70,0,0
130442,-100,4,2,1,60,0,0
131673,-100,4,2,1,70,0,0

[Colours]
Combo1 : 250,180,220
Combo2 : 172,251,255
Combo3 : 138,255,125
Combo4 : 255,255,106

[HitObjects]
107,124,11058,6,0,L|193:125,1,71.2500027179719,4|0,0:0|0:0,0:0:0:0:
309,197,11365,2,0,L|223:196,1,71.2500027179719,2|0,0:0|0:0,0:0:0:0:
152,205,11673,1,8,0:0:0:0:
64,211,11827,1,0,0:0:0:0:
59,296,11981,1,0,0:0:0:0:
145,290,12134,1,0,0:0:0:0:
230,247,12288,6,0,L|250:321,1,71.2500027179719,2|0,0:0|0:0,0:0:0:0:
326,266,12596,2,0,L|309:197,1,71.2500027179719,2|0,0:0|0:0,0:0:0:0:
221,162,12904,1,8,0:0:0:0:
167,95,13058,1,0,0:0:0:0:
116,163,13211,1,0,0:0:0:0:
61,97,13365,1,0,0:0:0:0:
222,20,13519,6,0,L|310:22,1,71.2500027179719,2|0,0:0|0:0,0:0:0:0:
423,89,13827,2,0,L|335:91,1,71.2500027179719,2|0,0:0|0:0,0:0:0:0:
267,105,14134,1,8,0:0:0:0:
271,121,14211,1,0,0:0:0:0:
273,133,14288,1,2,0:0:0:0:
423,89,14442,1,0,0:0:0:0:
275,141,14596,1,2,0:0:0:0:
368,182,14750,5,0,0:0:0:0:
241,203,14904,1,0,0:0:0:0:
368,182,15058,1,2,0:0:0:0:
298,248,15211,1,0,0:0:0:0:
368,182,15365,1,10,0:0:0:0:
368,182,15673,1,2,0:0:0:0:
193,270,15981,6,0,L|113:300,1,71.2500027179719,4|0,0:0|0:0,0:0:0:0:
45,322,16288,1,2,0:0:0:0:
65,238,16442,1,0,0:0:0:0:
29,159,16596,1,8,0:0:0:0:
60,79,16750,1,0,0:0:0:0:
120,139,16904,2,0,L|211:151,1,71.2500027179719,2|0,0:0|0:0,0:0:0:0:
306,239,17211,6,0,L|276:159,1,71.2500027179719,4|0,0:0|0:0,0:0:0:0:
254,91,17518,1,2,0:0:0:0:
338,111,17672,1,0,0:0:0:0:
417,75,17826,1,8,0:0:0:0:
497,106,17980,1,0,0:0:0:0:
437,166,18134,2,0,L|425:257,1,71.2500027179719,2|0,0:0|0:0,0:0:0:0:
364,305,18442,6,0,L|330:348,3,35.625001358986,4|0|0|0,0:3|0:0|0:0|0:0,0:0:0:0:
284,268,18750,2,0,L|318:225,3,35.625001358986,4|0|0|0,0:3|0:0|0:0|0:0,0:0:0:0:
238,336,19058,5,8,0:0:0:0:
227,337,19134,1,0,0:0:0:0:
216,339,19211,1,0,0:0:0:0:
205,342,19288,1,0,0:0:0:0:
194,344,19365,1,8,0:0:0:0:
183,345,19442,1,0,0:0:0:0:
172,347,19519,1,0,0:0:0:0:
161,350,19596,1,0,0:0:0:0:
150,352,19673,5,4,0:0:0:0:
129,347,19750,1,0,0:0:0:0:
107,343,19827,1,0,0:0:0:0:
86,338,19904,1,0,0:0:0:0:
64,333,19981,1,4,0:0:0:0:
42,329,20058,1,0,0:0:0:0:
21,324,20134,1,0,0:0:0:0:
0,320,20211,1,0,0:0:0:0:
0,320,20288,6,0,L|21:253,1,47.5,4|0,0:0|0:0,0:0:0:0:
91,225,20442,2,0,L|70:292,1,47.5,0|0,0:0|0:0,0:0:0:0:
26,199,20596,2,0,L|47:132,1,47.5,4|0,0:0|0:0,0:0:0:0:
121,104,20750,2,0,L|100:171,1,47.5,0|0,0:0|0:0,0:0:0:0:
174,190,20904,1,4,0:3:0:0:
256,192,20981,12,8,22134,0:0:0:0:
244,262,22288,6,0,L|258:318,2,47.5,0|0|8,0:0|0:0|0:0,0:0:0:0:
355,232,22596,1,8,0:0:0:0:
275,149,22750,1,8,0:0:0:0:
255,148,22827,1,0,0:0:0:0:
235,148,22904,1,8,0:0:0:0:
215,148,22981,1,0,0:0:0:0:
195,148,23058,1,4,0:0:0:0:
185,148,23365,6,0,L|85:149,1,95,4|0,0:0|0:0,0:0:0:0:
236,67,23673,2,0,L|336:66,1,95,8|0,0:0|0:0,0:0:0:0:
476,122,23981,1,2,0:0:0:0:
375,174,24134,1,4,0:0:0:0:
448,261,24288,1,8,0:0:0:0:
290,246,24442,1,0,0:0:0:0:
271,252,24519,1,0,0:0:0:0:
253,259,24596,6,0,L|158:292,1,95,2|0,0:0|0:0,0:0:0:0:
272,331,24904,2,0,L|361:367,1,95,8|0,0:0|0:0,0:0:0:0:
494,372,25211,1,2,0:0:0:0:
481,352,25288,1,0,0:0:0:0:
471,330,25365,1,4,0:0:0:0:
480,308,25442,1,0,0:0:0:0:
489,286,25519,2,0,B|506:240|506:240|431:208,1,95,8|0,0:0|0:0,0:0:0:0:
397,95,25827,5,2,0:0:0:0:
313,34,25981,1,0,0:0:0:0:
269,124,26134,5,8,0:0:0:0:
173,87,26288,1,0,0:0:0:0:
136,176,26442,5,2,0:0:0:0:
33,165,26596,1,4,0:0:0:0:
33,165,26673,1,0,0:0:0:0:
33,165,26750,1,8,0:0:0:0:
231,214,26904,1,2,0:0:0:0:
231,214,26981,1,0,0:0:0:0:
231,214,27058,6,0,L|188:307,1,95,6|6,0:0|0:0,0:0:0:0:
325,250,27365,1,8,0:0:0:0:
102,280,27519,1,2,0:0:0:0:
87,292,27596,1,0,0:0:0:0:
73,305,27673,1,6,0:0:0:0:
58,317,27750,1,0,0:0:0:0:
43,328,27827,1,4,0:0:0:0:
78,216,27981,1,10,0:0:0:0:
192,344,28134,1,0,0:0:0:0:
215,347,28211,1,0,0:0:0:0:
238,349,28288,6,0,L|345:361,1,95,2|0,0:0|0:0,0:0:0:0:
440,318,28596,1,8,0:0:0:0:
325,250,28750,1,0,0:0:0:0:
322,226,28827,1,0,0:0:0:0:
320,202,28904,1,2,0:0:0:0:
335,184,28981,1,0,0:0:0:0:
354,170,29058,1,4,0:0:0:0:
332,269,29211,1,8,0:0:0:0:
371,154,29365,1,0,0:0:0:0:
393,147,29442,1,0,0:0:0:0:
416,141,29519,6,0,B|463:140|463:140|499:183,1,95,2|0,0:0|0:0,0:0:0:0:
440,318,29827,2,0,L|391:211,1,95,8|0,0:0|0:0,0:0:0:0:
262,260,30134,1,2,0:0:0:0:
238,264,30211,1,0,0:0:0:0:
214,266,30288,1,4,0:0:0:0:
191,259,30365,1,0,0:0:0:0:
168,250,30442,1,8,0:0:0:0:
22,320,30596,1,0,0:0:0:0:
45,317,30673,1,0,0:0:0:0:
68,314,30750,6,0,B|116:311|116:311|178:342,1,95,2|0,0:0|0:0,0:0:0:0:
90,248,31058,2,0,B|42:247|42:247|-22:210,1,95,8|0,0:0|0:0,0:0:0:0:
119,138,31365,1,2,0:0:0:0:
142,136,31441,1,0,0:0:0:0:
166,135,31518,1,4,0:0:0:0:
187,145,31595,1,0,0:0:0:0:
208,155,31672,1,10,0:0:0:0:
29,168,31827,1,2,0:0:0:0:
23,144,31904,1,0,0:0:0:0:
17,120,31981,6,0,B|10:94|10:94|83:71,1,95,6|4,0:0|0:0,0:0:0:0:
203,40,32288,1,10,0:0:0:0:
225,46,32365,1,0,0:0:0:0:
247,54,32442,1,2,0:0:0:0:
268,63,32519,1,0,0:0:0:0:
259,85,32596,1,6,0:0:0:0:
251,107,32673,1,0,0:0:0:0:
241,128,32750,1,4,0:0:0:0:
263,136,32827,1,0,0:0:0:0:
284,145,32904,1,10,0:0:0:0:
468,121,33058,1,0,0:0:0:0:
468,121,33134,1,0,0:0:0:0:
468,121,33211,6,0,L|435:8,1,95,6|0,0:0|0:0,0:0:0:0:
385,207,33519,2,0,L|354:320,1,95,8|0,0:0|0:0,0:0:0:0:
231,236,33827,1,2,0:0:0:0:
207,239,33904,1,0,0:0:0:0:
183,241,33981,1,4,0:0:0:0:
168,260,34058,1,0,0:0:0:0:
154,278,34134,1,8,0:0:0:0:
25,243,34288,1,0,0:0:0:0:
40,224,34365,1,0,0:0:0:0:
56,206,34442,6,0,B|82:167|82:167|31:118,1,95,2|0,0:0|0:0,0:0:0:0:
147,33,34750,2,0,B|120:71|120:71|172:121,1,95,8|0,0:0|0:0,0:0:0:0:
231,236,35058,1,2,0:0:0:0:
247,252,35134,1,0,0:0:0:0:
264,268,35211,1,4,0:0:0:0:
250,287,35288,1,0,0:0:0:0:
233,304,35365,1,8,0:0:0:0:
350,310,35519,1,0,0:0:0:0:
362,289,35596,1,0,0:0:0:0:
376,270,35673,6,0,B|425:274|425:274|459:212,1,95,2|0,0:0|0:0,0:0:0:0:
358,155,35981,1,8,0:0:0:0:
334,155,36058,1,0,0:0:0:0:
310,155,36134,1,0,0:0:0:0:
297,134,36211,1,0,0:0:0:0:
286,112,36288,1,2,0:0:0:0:
362,61,36442,1,4,0:0:0:0:
241,35,36596,1,10,0:0:0:0:
440,11,36750,1,2,0:0:0:0:
448,33,36827,1,0,0:0:0:0:
455,55,36904,5,6,0:0:0:0:
453,59,36981,1,0,0:0:0:0:
453,63,37058,1,4,0:0:0:0:
452,67,37134,1,0,0:0:0:0:
451,71,37211,2,0,L|430:119,1,47.5,8|0,0:0|0:0,0:0:0:0:
508,137,37365,2,0,L|521:193,1,47.5,2|0,0:0|0:0,0:0:0:0:
429,190,37519,2,0,L|400:245,1,47.5,6|0,0:0|0:0,0:0:0:0:
485,267,37673,2,0,L|491:341,1,47.5,4|0,0:0|0:0,0:0:0:0:
400,307,37827,1,8,0:0:0:0:
377,313,37904,1,0,0:0:0:0:
354,319,37981,1,0,0:0:0:0:
330,323,38058,1,0,0:0:0:0:
308,331,38134,6,0,B|256:342|256:342|201:293,1,95,2|0,0:0|0:0,0:0:0:0:
209,301,38365,1,0,0:0:0:0:
195,287,38442,1,8,0:0:0:0:
51,269,38596,1,0,0:0:0:0:
68,262,38673,1,0,0:0:0:0:
86,257,38750,2,0,B|128:239|128:239|131:181,1,95,2|4,0:0|0:0,0:0:0:0:
90,62,39058,2,0,B|48:80|48:80|45:138,1,95,8|0,0:0|0:0,0:0:0:0:
199,99,39365,6,0,B|241:117|241:117|244:175,1,95,2|0,0:0|0:0,0:0:0:0:
195,285,39673,1,8,0:0:0:0:
187,304,39750,1,0,0:0:0:0:
178,320,39827,1,0,0:0:0:0:
280,249,39981,1,10,0:0:0:0:
281,267,40058,1,0,0:0:0:0:
281,286,40135,1,0,0:0:0:0:
348,185,40288,1,10,0:0:0:0:
357,200,40365,1,0,0:0:0:0:
367,216,40442,1,2,0:0:0:0:
390,91,40596,5,6,0:0:0:0:
376,65,40673,1,0,0:0:0:0:
363,39,40750,1,4,0:0:0:0:
349,13,40827,1,0,0:0:0:0:
327,31,40904,1,8,0:0:0:0:
307,52,40981,1,0,0:0:0:0:
288,73,41058,1,2,0:0:0:0:
268,93,41134,1,0,0:0:0:0:
241,82,41211,1,6,0:0:0:0:
215,68,41288,1,0,0:0:0:0:
188,57,41365,1,4,0:0:0:0:
161,46,41442,1,0,0:0:0:0:
135,34,41519,1,10,0:0:0:0:
10,117,41673,5,2,0:0:0:0:
33,116,41750,1,0,0:0:0:0:
56,116,41827,2,0,B|110:111|110:111|143:146,1,95,12|0,0:0|0:0,0:0:0:0:
153,159,42058,1,0,0:0:0:0:
166,178,42134,2,0,B|136:218|136:218|78:221,1,95,8|4,0:0|0:0,0:0:0:0:
10,332,42442,1,8,0:0:0:0:
44,349,42519,1,2,0:0:0:0:
80,360,42596,1,8,0:0:0:0:
116,349,42673,1,2,0:0:0:0:
149,331,42750,5,4,0:0:0:0:
155,324,42827,1,0,0:0:0:0:
161,317,42904,1,0,0:0:0:0:
167,310,42981,1,0,0:0:0:0:
174,304,43058,5,6,0:0:0:0:
249,207,43211,1,0,0:0:0:0:
351,275,43365,1,8,0:0:0:0:
271,369,43519,1,2,0:0:0:0:
271,369,43596,1,0,0:0:0:0:
271,369,43673,1,0,0:0:0:0:
174,304,43827,1,0,0:0:0:0:
249,207,43981,1,10,0:0:0:0:
151,132,44134,1,0,0:0:0:0:
345,112,44288,5,2,0:0:0:0:
447,180,44442,1,0,0:0:0:0:
351,275,44596,1,8,0:0:0:0:
423,374,44750,1,2,0:0:0:0:
511,287,44904,1,0,0:0:0:0:
511,287,44981,1,0,0:0:0:0:
511,287,45058,1,0,0:0:0:0:
447,180,45211,1,10,0:0:0:0:
345,112,45365,1,0,0:0:0:0:
509,73,45519,5,2,0:0:0:0:
447,180,45673,1,0,0:0:0:0:
345,112,45827,1,8,0:0:0:0:
407,5,45981,1,2,0:0:0:0:
407,5,46058,1,0,0:0:0:0:
407,5,46134,1,2,0:0:0:0:
345,112,46288,1,0,0:0:0:0:
247,36,46442,1,10,0:0:0:0:
87,100,46596,1,2,0:0:0:0:
87,100,46673,1,0,0:0:0:0:
87,100,46750,5,6,0:0:0:0:
238,131,46904,1,4,0:0:0:0:
103,9,47058,1,8,0:0:0:0:
152,161,47211,1,2,0:0:0:0:
15,45,47365,1,6,0:0:0:0:
15,45,47442,1,0,0:0:0:0:
15,45,47519,1,4,0:0:0:0:
15,45,47596,1,0,0:0:0:0:
15,45,47673,1,10,0:0:0:0:
74,170,47827,5,0,0:0:0:0:
70,188,47904,1,0,0:0:0:0:
65,206,47981,2,0,B|54:250|54:250|7:266,1,95,2|0,0:0|0:0,0:0:0:0:
7,266,48211,1,0,0:0:0:0:
7,266,48288,1,8,0:0:0:0:
85,364,48442,5,2,0:0:0:0:
89,346,48519,1,0,0:0:0:0:
94,328,48596,2,0,B|105:284|105:284|160:264,1,95,0|0,0:0|0:0,0:0:0:0:
151,267,48826,1,0,0:0:0:0:
151,267,48903,1,8,0:0:0:0:
203,351,49058,1,0,0:0:0:0:
221,352,49134,1,0,0:0:0:0:
240,352,49211,6,0,B|296:353|296:353|341:384,1,95,2|0,0:0|0:0,0:0:0:0:
482,317,49519,2,0,B|426:318|426:318|381:349,1,95,8|2,0:0|0:0,0:0:0:0:
327,283,49827,1,0,0:0:0:0:
392,198,49981,1,0,0:0:0:0:
289,265,50134,1,10,0:0:0:0:
431,209,50288,1,0,0:0:0:0:
258,250,50442,6,0,B|212:251|212:251|170:213,1,95,2|0,0:0|0:0,0:0:0:0:
243,91,50750,2,0,B|289:90|289:90|331:128,1,95,8|2,0:0|0:0,0:0:0:0:
338,137,50981,1,0,0:0:0:0:
351,150,51058,1,2,0:0:0:0:
252,174,51211,1,0,0:0:0:0:
161,135,51365,1,10,0:0:0:0:
279,7,51519,1,2,0:0:0:0:
279,7,51596,1,0,0:0:0:0:
279,7,51673,5,2,0:0:0:0:
437,70,51827,1,2,0:0:0:0:
437,70,51904,1,0,0:0:0:0:
437,70,51981,1,8,0:0:0:0:
346,70,52134,1,4,0:0:0:0:
487,0,52288,1,2,0:0:0:0:
495,36,52365,1,0,0:0:0:0:
502,73,52442,1,2,0:0:0:0:
487,108,52519,1,0,0:0:0:0:
469,141,52596,1,8,0:0:0:0:
300,137,52750,5,0,0:0:0:0:
300,137,52827,1,0,0:0:0:0:
300,137,52904,2,0,L|323:235,1,95,6|2,0:0|0:0,0:0:0:0:
452,328,53211,2,0,L|429:230,1,95,8|2,0:0|0:0,0:0:0:0:
265,289,53519,1,2,0:0:0:0:
230,304,53596,1,0,0:0:0:0:
195,319,53673,1,4,0:0:0:0:
55,296,53827,1,10,0:0:0:0:
90,281,53904,1,0,0:0:0:0:
125,266,53981,1,0,0:0:0:0:
17,359,54134,5,2,0:0:0:0:
0,250,54288,1,2,0:0:0:0:
6,214,54365,1,0,0:0:0:0:
11,176,54442,1,8,0:0:0:0:
109,173,54596,1,2,0:0:0:0:
95,137,54673,1,0,0:0:0:0:
80,102,54750,1,2,0:0:0:0:
176,113,54904,5,4,0:0:0:0:
212,103,54981,1,0,0:0:0:0:
248,90,55058,1,10,0:0:0:0:
245,188,55211,1,0,0:0:0:0:
265,220,55288,1,0,0:0:0:0:
285,251,55365,6,0,B|316:293|316:293|292:349,1,95,2|0,0:0|0:0,0:0:0:0:
390,183,55673,2,0,B|358:230|358:230|396:280,1,95,8|0,0:0|0:0,0:0:0:0:
472,360,55981,1,2,0:0:0:0:
450,341,56058,1,0,0:0:0:0:
428,322,56134,1,4,0:0:0:0:
406,340,56211,1,0,0:0:0:0:
383,358,56288,1,10,0:0:0:0:
481,262,56442,1,0,0:0:0:0:
466,237,56519,1,0,0:0:0:0:
455,210,56596,6,0,L|420:118,1,95,6|4,0:0|0:0,0:0:0:0:
376,12,56904,1,8,0:0:0:0:
363,37,56981,1,0,0:0:0:0:
352,63,57058,1,2,0:0:0:0:
286,177,57211,2,0,L|187:120,1,95,6|4,0:0|0:0,0:0:0:0:
88,53,57519,1,10,0:0:0:0:
69,55,57596,1,0,0:0:0:0:
50,59,57673,1,2,0:0:0:0:
36,72,57750,1,0,0:0:0:0:
22,85,57827,5,2,0:0:0:0:
95,168,57981,2,0,L|131:208,2,47.5,2|0|8,0:0|0:0|0:0,0:0:0:0:
0,223,58288,1,2,0:0:0:0:
13,236,58365,1,0,0:0:0:0:
25,249,58442,1,2,0:0:0:0:
17,266,58519,1,0,0:0:0:0:
8,283,58596,1,4,0:0:0:0:
118,281,58750,2,0,B|161:259|161:259|201:306,1,95,8|0,0:0|0:0,0:0:0:0:
346,269,59058,6,0,B|303:291|303:291|263:244,1,95,2|2,0:0|0:0,0:0:0:0:
415,239,59365,2,0,B|458:217|458:217|498:264,1,95,8|2,0:0|0:0,0:0:0:0:
403,309,59673,2,0,L|355:339,1,47.5,2|0,0:0|0:0,0:0:0:0:
356,201,59827,2,0,L|404:171,1,47.5,4|0,0:0|0:0,0:0:0:0:
262,163,59981,2,0,L|214:193,1,47.5,10|0,0:0|0:0,0:0:0:0:
299,66,60135,2,0,L|347:36,1,47.5,2|0,0:0|0:0,0:0:0:0:
439,77,60288,5,2,0:0:0:0:
447,88,60365,1,0,0:0:0:0:
455,99,60442,1,0,0:0:0:0:
465,109,60519,1,0,0:0:0:0:
456,133,60596,1,8,0:0:0:0:
464,144,60673,1,0,0:0:0:0:
472,155,60750,1,0,0:0:0:0:
482,165,60827,1,0,0:0:0:0:
474,189,60904,5,8,0:0:0:0:
466,200,60981,1,0,0:0:0:0:
458,211,61058,1,0,0:0:0:0:
448,221,61135,1,0,0:0:0:0:
457,245,61212,1,8,0:0:0:0:
449,256,61289,1,0,0:0:0:0:
441,267,61366,1,0,0:0:0:0:
431,277,61443,1,0,0:0:0:0:
416,295,61519,5,4,0:0:0:0:
392,300,61596,1,0,0:0:0:0:
368,305,61673,1,4,0:0:0:0:
344,310,61750,1,0,0:0:0:0:
324,296,61827,5,8,0:0:0:0:
300,301,61904,1,0,0:0:0:0:
276,306,61981,1,2,0:0:0:0:
252,311,62058,1,0,0:0:0:0:
229,303,62134,5,4,0:0:0:0:
205,308,62211,1,0,0:0:0:0:
181,313,62288,1,4,0:0:0:0:
157,318,62365,1,0,0:0:0:0:
137,304,62442,5,8,0:0:0:0:
113,309,62519,1,0,0:0:0:0:
89,314,62596,1,0,0:0:0:0:
65,319,62673,1,0,0:0:0:0:
42,325,62750,5,6,0:0:0:0:
97,191,62904,2,0,L|122:141,2,47.5,2|0|8,0:0|0:0|0:0,0:0:0:0:
232,225,63211,2,0,B|284:233|284:233|335:212,1,95,4|8,0:0|0:0,0:0:0:0:
323,216,63442,1,0,0:0:0:0:
323,216,63519,1,8,0:0:0:0:
188,150,63673,1,4,0:0:0:0:
177,186,63750,1,0,0:0:0:0:
166,222,63827,1,0,0:0:0:0:
174,259,63904,1,0,0:0:0:0:
187,294,63981,5,10,0:0:0:0:
303,318,64134,1,8,0:0:0:0:
324,316,64211,1,8,0:0:0:0:
431,261,64365,1,8,0:0:0:0:
410,263,64442,1,8,0:0:0:0:
299,219,64596,1,8,0:0:0:0:
299,219,64673,1,8,0:0:0:0:
299,219,64750,2,0,L|323:216,4,23.75,8|0|8|0|8,0:0|0:0|0:0|0:0|0:0,0:0:0:0:
290,114,65058,1,4,0:3:0:0:
204,56,65211,6,0,B|127:53|127:53|88:68|88:68|9:65,1,190,6|8,0:0|0:0,0:0:0:0:
56,174,65673,1,0,0:0:0:0:
56,174,65750,1,0,0:0:0:0:
56,174,65827,2,0,B|73:220|73:220|57:278,1,95,2|0,0:0|0:0,0:0:0:0:
14,354,66134,1,8,0:0:0:0:
153,303,66288,1,0,0:0:0:0:
153,303,66365,1,0,0:0:0:0:
153,303,66442,6,0,B|219:283|219:283|272:293|272:293|348:250,1,190,2|8,0:0|0:0,0:0:0:0:
255,183,66904,1,2,0:0:0:0:
235,169,66981,1,0,0:0:0:0:
215,155,67058,1,2,0:0:0:0:
191,158,67134,1,0,0:0:0:0:
168,164,67211,1,0,0:0:0:0:
217,71,67365,2,0,L|241:20,1,47.5,10|0,0:0|0:0,0:0:0:0:
315,47,67519,2,0,L|353:20,1,47.5,2|0,0:0|0:0,0:0:0:0:
404,90,67673,6,0,B|453:120|453:120|408:197|408:197|470:235,1,190,2|10,0:0|0:0,0:0:0:0:
444,219,68134,1,2,0:0:0:0:
253,295,68288,2,0,L|211:316,1,47.5,2|0,0:0|0:0,0:0:0:0:
122,284,68442,2,0,L|84:254,1,47.5,2|0,0:0|0:0,0:0:0:0:
121,162,68596,2,0,L|163:141,1,47.5,10|0,0:0|0:0,0:0:0:0:
252,173,68750,2,0,L|290:203,1,47.5,2|0,0:0|0:0,0:0:0:0:
326,108,68904,5,4,0:0:0:0:
359,109,68981,1,0,0:0:0:0:
392,110,69058,1,4,0:0:0:0:
412,135,69134,1,0,0:0:0:0:
431,162,69211,2,0,B|451:201|451:201|451:276,1,95,8|2,0:0|0:0,0:0:0:0:
312,138,69519,5,4,0:0:0:0:
340,155,69596,1,0,0:0:0:0:
368,172,69673,1,4,0:0:0:0:
372,204,69749,1,0,0:0:0:0:
375,237,69827,2,0,L|331:276,1,47.5,8|0,0:0|0:0,0:0:0:0:
224,329,69981,2,0,L|268:290,1,47.5,2|0,0:0|0:0,0:0:0:0:
329,348,70134,6,0,B|397:342|397:342|439:308|439:308|529:306,1,190,2|8,0:0|0:0,0:0:0:0:
479,193,70596,1,0,0:0:0:0:
475,169,70673,1,0,0:0:0:0:
471,145,70750,2,0,B|466:94|466:94|419:60,1,95,2|0,0:0|0:0,0:0:0:0:
312,138,71058,2,0,B|282:96|282:96|224:90,1,95,8|0,0:0|0:0,0:0:0:0:
80,155,71365,5,2,0:0:0:0:
56,155,71442,1,0,0:0:0:0:
32,155,71519,1,0,0:0:0:0:
14,139,71596,1,0,0:0:0:0:
1,119,71673,1,8,0:0:0:0:
111,28,71827,1,2,0:0:0:0:
192,157,71981,5,2,0:0:0:0:
168,157,72058,1,0,0:0:0:0:
144,157,72135,1,0,0:0:0:0:
126,173,72212,1,0,0:0:0:0:
113,193,72288,2,0,L|76:267,1,47.5,10|0,0:0|0:0,0:0:0:0:
148,287,72442,1,2,0:0:0:0:
169,296,72519,1,0,0:0:0:0:
191,302,72596,6,0,B|259:299|259:299|291:323|291:323|382:321,1,190,2|8,0:0|0:0,0:0:0:0:
473,242,73058,1,2,0:0:0:0:
468,223,73134,1,0,0:0:0:0:
464,204,73211,2,0,L|448:141,1,47.5,2|0,0:0|0:0,0:0:0:0:
365,81,73365,2,0,L|381:144,1,47.5,2|0,0:0|0:0,0:0:0:0:
314,224,73519,6,0,L|305:189,1,23.75,8|0,0:0|0:0,0:0:0:0:
210,79,73673,2,0,L|219:114,1,23.75,8|0,0:0|0:0,0:0:0:0:
214,199,73827,5,4,0:0:0:0:
186,204,73904,1,0,0:0:0:0:
157,209,73981,1,8,0:0:0:0:
129,215,74058,1,0,0:0:0:0:
101,210,74134,1,8,0:0:0:0:
73,202,74211,1,0,0:0:0:0:
45,195,74288,1,4,0:0:0:0:
4,307,74442,6,0,L|90:302,1,59.375,14|0,0:0|0:0,0:0:0:0:
127,361,74596,2,0,L|213:366,1,59.375,10|0,0:0|0:0,0:0:0:0:
252,298,74750,2,0,L|338:293,1,59.375,6|0,0:0|0:0,0:0:0:0:
375,352,74904,2,0,L|461:357,1,59.375,2|0,0:0|0:0,0:0:0:0:
403,267,75058,6,0,B|395:199|395:199|416:165|416:165|408:75,1,190,6|8,0:0|0:0,0:0:0:0:
269,117,75519,1,0,0:0:0:0:
241,123,75596,1,0,0:0:0:0:
213,129,75673,2,0,L|104:149,1,95,2|0,0:0|0:0,0:0:0:0:
17,80,75981,1,8,0:0:0:0:
33,56,76058,1,0,0:0:0:0:
50,34,76134,1,0,0:0:0:0:
78,32,76211,1,0,0:0:0:0:
106,32,76288,6,0,B|152:32|152:32|201:93,1,95,2|0,0:0|0:0,0:0:0:0:
182,70,76519,1,0,0:0:0:0:
182,70,76596,1,8,0:0:0:0:
76,169,76750,2,0,L|31:210,1,47.5,2|0,0:0|0:0,0:0:0:0:
105,236,76904,1,2,0:0:0:0:
126,255,76981,1,0,0:0:0:0:
147,273,77058,1,0,0:0:0:0:
168,290,77134,1,0,0:0:0:0:
189,308,77211,2,0,L|237:348,1,47.5,10|0,0:0|0:0,0:0:0:0:
300,286,77365,2,0,L|344:242,1,47.5,2|0,0:0|0:0,0:0:0:0:
258,188,77519,6,0,B|176:189|176:189|144:165|144:165|76:168,1,190,2|8,0:0|0:0,0:0:0:0:
73,70,77981,1,0,0:0:0:0:
79,62,78058,1,0,0:0:0:0:
86,56,78134,2,0,L|118:8,1,47.5,2|0,0:0|0:0,0:0:0:0:
183,70,78288,2,0,L|151:118,1,47.5,2|0,0:0|0:0,0:0:0:0:
271,61,78442,2,0,L|303:13,1,47.5,10|0,0:0|0:0,0:0:0:0:
368,75,78596,2,0,L|336:123,1,47.5,2|0,0:0|0:0,0:0:0:0:
362,9,78750,5,6,0:0:0:0:
395,8,78827,1,0,0:0:0:0:
428,8,78904,1,4,0:0:0:0:
456,25,78981,1,0,0:0:0:0:
481,45,79058,2,0,B|456:79|456:79|463:151,1,95,8|2,0:0|0:0,0:0:0:0:
371,215,79365,5,4,0:0:0:0:
371,215,79442,1,0,0:0:0:0:
406,238,79519,1,4,0:0:0:0:
406,238,79596,1,0,0:0:0:0:
387,276,79673,1,10,0:0:0:0:
387,276,79750,1,0,0:0:0:0:
422,299,79827,1,2,0:0:0:0:
422,299,79904,1,0,0:0:0:0:
400,335,79981,6,0,B|323:332|323:332|284:347|284:347|205:344,1,190,6|8,0:0|0:0,0:0:0:0:
80,304,80442,1,0,0:0:0:0:
76,285,80519,1,0,0:0:0:0:
73,266,80596,2,0,B|70:221|70:221|122:188,1,95,2|0,0:0|0:0,0:0:0:0:
112,194,80827,1,0,0:0:0:0:
112,194,80904,1,8,0:0:0:0:
0,253,81058,1,0,0:0:0:0:
4,271,81134,1,0,0:0:0:0:
8,286,81211,6,0,B|20:336|20:336|61:372,1,95,2|0,0:0|0:0,0:0:0:0:
160,329,81519,1,8,0:0:0:0:
201,220,81673,1,0,0:0:0:0:
219,221,81750,1,0,0:0:0:0:
237,223,81827,2,0,B|280:227|280:227|335:284,1,95,2|0,0:0|0:0,0:0:0:0:
407,364,82134,2,0,L|375:328,1,47.5,10|0,0:0|0:0,0:0:0:0:
410,247,82288,2,0,L|442:283,1,47.5,2|0,0:0|0:0,0:0:0:0:
465,199,82442,6,0,B|426:146|426:146|366:146|366:146|333:78,1,190,2|8,0:0|0:0,0:0:0:0:
338,88,82827,1,0,0:0:0:0:
338,88,82904,1,2,0:0:0:0:
462,58,83058,1,0,0:0:0:0:
396,147,83211,1,2,0:0:0:0:
462,58,83365,1,8,0:0:0:0:
465,199,83519,1,2,0:0:0:0:
329,219,83673,6,0,L|230:226,1,95,4|8,0:0|0:0,0:0:0:0:
215,227,83904,1,0,0:0:0:0:
196,227,83981,1,8,0:0:0:0:
177,229,84058,1,0,0:0:0:0:
158,230,84134,1,4,0:0:0:0:
139,232,84211,1,0,0:0:0:0:
120,234,84288,5,8,0:0:0:0:
111,250,84365,1,0,0:0:0:0:
99,265,84442,1,8,0:0:0:0:
87,280,84519,1,0,0:0:0:0:
113,311,84596,5,4,0:0:0:0:
104,327,84673,1,0,0:0:0:0:
92,342,84750,1,0,0:0:0:0:
80,357,84827,1,0,0:0:0:0:
111,379,84904,5,4,0:0:0:0:
256,192,84981,12,4,86058,0:0:0:0:
210,150,86134,6,0,B|255:143|255:143|310:154,1,95,4|0,0:0|0:0,0:0:0:0:
201,124,86442,6,0,B|256:110|256:110|324:129,1,113.999996520996,4|0,0:0|0:0,0:0:0:0:
191,99,86750,6,0,B|253:80|253:80|334:103,1,132.999995941162,4|0,0:0|0:0,0:0:0:0:
181,75,87058,6,0,B|253:53|253:53|346:81,1,152,4|0,0:0|0:0,0:0:0:0:
485,71,87365,6,0,L|453:191,1,95,6|0,0:0|0:0,0:0:0:0:
452,190,87596,1,0,0:0:0:0:
443,217,87673,1,8,0:0:0:0:
324,180,87827,1,4,0:0:0:0:
298,167,87904,1,0,0:0:0:0:
272,155,87981,2,0,B|225:138|225:138|156:154,1,95,2|4,0:0|0:0,0:0:0:0:
60,188,88288,1,8,0:0:0:0:
51,215,88365,1,0,0:0:0:0:
40,241,88442,1,0,0:0:0:0:
32,268,88519,1,0,0:0:0:0:
20,294,88596,6,0,L|120:326,1,95,6|4,0:0|0:0,0:0:0:0:
258,262,88904,2,0,L|158:230,1,95,10|0,0:0|0:0,0:0:0:0:
210,344,89211,1,6,0:0:0:0:
354,299,89365,1,6,0:0:0:0:
281,181,89519,1,10,0:0:0:0:
477,231,89673,1,0,0:0:0:0:
477,231,89750,1,0,0:0:0:0:
477,231,89827,6,0,L|437:334,1,95,2|4,0:0|0:0,0:0:0:0:
429,345,90058,1,0,0:0:0:0:
416,370,90134,1,8,0:0:0:0:
367,223,90288,1,0,0:0:0:0:
367,223,90365,1,0,0:0:0:0:
367,223,90442,2,0,L|327:120,1,95,2|4,0:0|0:0,0:0:0:0:
194,165,90750,2,0,L|259:149,1,47.5,10|0,0:0|2:0,0:0:0:0:
119,111,90904,2,0,L|54:127,1,47.5,2|0,0:0|2:0,0:0:0:0:
170,45,91058,6,0,L|291:18,1,95,6|4,0:0|0:0,0:0:0:0:
290,18,91288,1,0,0:0:0:0:
318,13,91365,1,10,0:0:0:0:
345,7,91442,1,0,0:0:0:0:
357,42,91519,5,2,0:0:0:0:
330,52,91596,1,0,0:0:0:0:
303,62,91673,1,6,0:0:0:0:
268,77,91750,1,0,0:0:0:0:
285,111,91827,5,4,0:0:0:0:
312,102,91904,1,0,0:0:0:0:
339,93,91981,1,10,0:0:0:0:
366,86,92058,1,0,0:0:0:0:
381,109,92134,1,2,0:0:0:0:
394,133,92211,1,0,0:0:0:0:
405,158,92288,6,0,L|456:261,1,95,2|4,0:0|0:0,0:0:0:0:
507,170,92596,1,10,0:0:0:0:
345,223,92750,1,0,0:0:0:0:
317,231,92827,1,0,0:0:0:0:
289,237,92904,2,0,L|176:267,1,95,2|4,0:0|0:0,0:0:0:0:
84,186,93211,1,10,0:0:0:0:
254,135,93365,1,0,0:0:0:0:
254,135,93442,1,0,0:0:0:0:
254,135,93519,6,0,L|200:95,1,47.5,6|0,0:0|2:0,0:0:0:0:
333,81,93673,2,0,L|387:121,1,47.5,6|0,0:0|2:0,0:0:0:0:
346,223,93827,2,0,L|292:183,1,47.5,10|0,0:0|2:0,0:0:0:0:
425,192,93981,2,0,L|479:232,1,47.5,2|0,0:0|2:0,0:0:0:0:
376,285,94134,2,0,L|343:349,1,47.5,6|0,0:0|2:0,0:0:0:0:
267,312,94288,2,0,L|234:376,1,47.5,6|0,0:0|2:0,0:0:0:0:
161,328,94442,2,0,L|128:392,1,47.5,10|0,0:0|2:0,0:0:0:0:
81,303,94596,1,0,0:0:0:0:
70,276,94673,1,0,0:0:0:0:
61,248,94750,6,0,L|26:150,1,95,2|4,0:0|0:0,0:0:0:0:
29,158,95058,1,10,0:0:0:0:
158,260,95211,1,0,0:0:0:0:
147,233,95288,1,0,0:0:0:0:
138,205,95365,2,0,L|103:107,1,95,2|4,0:0|0:0,0:0:0:0:
270,138,95673,2,0,L|224:152,1,47.5,10|0,0:0|2:0,0:0:0:0:
345,210,95827,2,0,L|414:232,1,47.5,10|0,0:0|2:0,0:0:0:0:
286,306,95981,5,8,0:0:0:0:
293,323,96058,1,0,0:0:0:0:
300,339,96134,1,0,0:0:0:0:
307,356,96211,1,0,0:0:0:0:
363,348,96288,5,8,0:0:0:0:
356,331,96365,1,0,0:0:0:0:
349,315,96441,1,0,0:0:0:0:
342,298,96518,1,0,0:0:0:0:
399,284,96596,6,0,L|454:272,1,47.5,2|0,0:2|2:0,0:0:0:0:
292,242,96750,2,0,L|237:230,1,47.5,2|0,0:2|2:0,0:0:0:0:
385,158,96904,2,0,L|440:146,1,47.5,2|0,0:2|2:0,0:0:0:0:
270,131,97058,1,0,0:0:0:0:
248,122,97134,1,0,0:0:0:0:
227,110,97211,6,0,B|191:93|191:93|128:115,1,95,2|0,0:0|0:0,0:0:0:0:
52,146,97519,1,10,0:0:0:0:
248,210,97673,1,0,0:0:0:0:
226,201,97749,1,0,0:0:0:0:
205,189,97827,2,0,B|169:172|169:172|106:194,1,95,2|0,0:0|0:0,0:0:0:0:
30,225,98134,1,10,0:0:0:0:
69,311,98288,1,2,2:2:0:0:
159,280,98442,5,2,0:2:0:0:
170,300,98519,1,2,0:2:0:0:
272,362,98673,1,2,0:2:0:0:
283,342,98750,1,10,0:2:0:0:
394,304,98904,1,2,0:2:0:0:
499,365,99058,5,2,0:2:0:0:
485,346,99134,1,0,0:0:0:0:
471,326,99211,1,2,0:2:0:0:
476,302,99288,1,0,0:0:0:0:
480,278,99365,1,10,0:2:0:0:
414,198,99519,1,2,2:0:0:0:
265,240,99673,5,4,0:0:0:0:
227,247,99750,1,0,0:0:0:0:
189,252,99827,1,4,0:0:0:0:
153,238,99904,1,0,0:0:0:0:
119,219,99981,2,0,B|78:189|78:189|62:114,1,95,8|2,0:0|0:0,0:0:0:0:
265,240,100288,5,4,0:0:0:0:
228,227,100365,1,0,0:0:0:0:
193,212,100442,1,4,0:0:0:0:
169,182,100519,1,0,0:0:0:0:
149,148,100596,2,0,B|128:101|128:101|152:28,1,95,8|2,0:0|0:0,0:0:0:0:
264,240,100904,5,6,0:0:0:0:
238,210,100981,1,0,0:0:0:0:
215,179,101058,1,4,0:0:0:0:
191,149,101135,1,0,0:0:0:0:
225,133,101211,5,8,0:0:0:0:
251,163,101288,1,0,0:0:0:0:
274,194,101365,1,6,0:0:0:0:
298,224,101442,1,0,0:0:0:0:
339,201,101519,5,4,0:0:0:0:
313,171,101596,1,0,0:0:0:0:
290,140,101673,1,4,0:0:0:0:
266,110,101750,1,0,0:0:0:0:
316,82,101827,5,8,0:0:0:0:
342,112,101904,1,0,0:0:0:0:
365,143,101981,1,2,0:0:0:0:
389,173,102058,1,0,0:0:0:0:
389,173,102134,6,0,L|467:261,1,95,2|4,0:0|0:0,0:0:0:0:
444,353,102442,1,8,0:0:0:0:
339,201,102596,1,0,0:0:0:0:
339,201,102673,1,0,0:0:0:0:
339,202,102750,2,0,L|417:290,1,95,2|4,0:0|0:0,0:0:0:0:
394,382,103058,1,8,0:0:0:0:
266,329,103211,1,0,0:0:0:0:
238,335,103288,1,0,0:0:0:0:
209,339,103365,5,6,0:0:0:0:
70,365,103519,1,4,0:0:0:0:
148,272,103673,5,10,0:0:0:0:
9,298,103827,1,2,0:0:0:0:
188,187,103981,5,4,0:0:0:0:
49,213,104135,1,6,0:0:0:0:
231,89,104288,1,8,0:0:0:0:
92,115,104442,5,0,0:0:0:0:
92,115,104519,1,0,0:0:0:0:
92,115,104596,1,4,0:0:0:0:
114,84,104673,1,0,0:0:0:0:
132,51,104750,1,4,0:0:0:0:
169,45,104827,1,0,0:0:0:0:
206,37,104904,1,8,0:0:0:0:
92,115,105058,5,2,0:0:0:0:
206,37,105211,5,4,0:0:0:0:
206,37,105288,1,0,0:0:0:0:
206,37,105365,1,4,0:0:0:0:
237,58,105442,1,0,0:0:0:0:
269,76,105519,1,8,0:0:0:0:
276,112,105596,1,0,0:0:0:0:
283,150,105673,1,2,0:0:0:0:
361,210,105827,6,0,B|315:233|315:233|293:283,1,95,4|0,0:0|0:0,0:0:0:0:
367,295,106058,1,0,0:0:0:0:
367,295,106134,2,0,B|413:318|413:318|435:368,1,95,8|4,0:0|0:0,0:0:0:0:
333,360,106365,1,0,0:0:0:0:
333,360,106442,6,0,L|267:366,1,59.375,8|0,0:0|0:0,0:0:0:0:
171,305,106596,2,0,L|104:293,1,59.375,8|0,0:0|0:0,0:0:0:0:
42,196,106750,2,0,L|6:146,1,59.375,12|0,0:0|0:0,0:0:0:0:
109,90,106904,2,0,L|112:21,1,59.375,2|0,0:0|0:0,0:0:0:0:
206,37,107058,5,6,0:0:0:0:
236,58,107134,1,0,0:0:0:0:
269,76,107211,1,4,0:0:0:0:
307,77,107288,1,0,0:0:0:0:
329,107,107365,1,8,0:0:0:0:
181,104,107519,5,0,0:0:0:0:
329,107,107673,5,2,0:0:0:0:
299,128,107749,1,0,0:0:0:0:
266,146,107826,1,4,0:0:0:0:
228,147,107903,1,0,0:0:0:0:
206,177,107980,1,8,0:0:0:0:
374,160,108134,5,0,0:0:0:0:
316,236,108288,1,2,0:2:0:0:
304,200,108365,1,2,0:2:0:0:
234,269,108519,1,2,0:2:0:0:
222,305,108596,1,2,0:2:0:0:
136,251,108750,5,2,0:2:0:0:
113,220,108827,1,0,0:0:0:0:
94,186,108904,1,2,0:2:0:0:
0,248,109058,1,2,0:2:0:0:
206,177,109211,1,2,0:2:0:0:
49,119,109365,5,0,0:0:0:0:
45,110,109442,1,0,0:0:0:0:
41,101,109519,1,4,0:0:0:0:
68,74,109596,1,0,0:0:0:0:
105,71,109673,1,4,0:0:0:0:
129,100,109750,1,0,0:0:0:0:
166,103,109827,1,8,0:0:0:0:
41,101,109981,5,2,0:0:0:0:
166,103,110134,5,4,0:0:0:0:
202,112,110211,1,0,0:0:0:0:
223,143,110288,1,4,0:0:0:0:
210,178,110365,1,0,0:0:0:0:
226,212,110442,1,8,0:0:0:0:
166,103,110596,5,2,0:0:0:0:
291,174,110750,5,4,0:0:0:0:
329,174,110827,1,0,0:0:0:0:
352,203,110904,1,4,0:0:0:0:
347,240,110981,1,0,0:0:0:0:
341,277,111058,1,8,0:0:0:0:
336,314,111135,1,0,0:0:0:0:
359,343,111212,1,6,0:0:0:0:
397,343,111289,1,0,0:0:0:0:
434,342,111365,5,4,0:0:0:0:
467,323,111442,1,0,0:0:0:0:
442,293,111519,1,4,0:0:0:0:
470,268,111596,1,0,0:0:0:0:
440,243,111673,1,8,0:0:0:0:
469,218,111750,1,0,0:0:0:0:
439,193,111827,1,2,0:0:0:0:
470,171,111904,1,0,0:0:0:0:
439,148,111981,6,0,L|381:64,1,95,2|4,0:0|0:0,0:0:0:0:
236,30,112288,1,8,0:0:0:0:
352,203,112442,1,0,0:0:0:0:
352,203,112519,1,0,0:0:0:0:
352,203,112596,2,0,L|294:119,1,95,2|4,0:0|0:0,0:0:0:0:
131,91,112903,1,8,0:0:0:0:
23,198,113058,1,0,0:0:0:0:
26,216,113134,1,0,0:0:0:0:
28,234,113211,5,6,0:0:0:0:
160,240,113365,1,4,0:0:0:0:
259,328,113519,1,8,0:0:0:0:
98,348,113673,1,2,0:0:0:0:
310,233,113827,1,4,0:0:0:0:
270,95,113981,1,4,0:0:0:0:
131,91,114134,1,10,0:0:0:0:
233,176,114288,1,0,0:0:0:0:
233,176,114365,1,0,0:0:0:0:
233,176,114442,6,0,L|348:178,1,95,2|4,0:0|0:0,0:0:0:0:
442,177,114750,1,8,0:0:0:0:
218,267,114904,1,0,0:0:0:0:
218,267,114981,1,0,0:0:0:0:
218,267,115058,2,0,L|103:269,1,95,2|4,0:0|0:0,0:0:0:0:
9,268,115366,1,10,0:0:0:0:
218,267,115519,1,2,0:0:0:0:
327,177,115673,5,2,0:0:0:0:
315,157,115750,1,0,0:0:0:0:
305,140,115827,1,2,0:0:0:0:
296,123,115904,1,0,0:0:0:0:
278,129,115981,1,8,0:0:0:0:
260,136,116058,1,0,0:0:0:0:
243,145,116134,1,2,0:0:0:0:
226,154,116211,1,0,0:0:0:0:
208,162,116288,6,0,L|143:196,1,47.5,10|0,0:0|0:0,0:0:0:0:
287,233,116442,2,0,L|267:302,1,47.5,8|0,0:0|0:0,0:0:0:0:
390,228,116596,2,0,L|425:291,1,47.5,8|0,0:0|0:0,0:0:0:0:
433,142,116750,2,0,L|502:161,1,47.5,8|0,0:0|0:0,0:0:0:0:
404,67,116904,6,0,B|336:44|336:44|294:48|294:48|221:24,1,190,6|8,0:0|0:0,0:0:0:0:
77,123,117366,1,0,0:0:0:0:
77,123,117443,1,0,0:0:0:0:
77,123,117520,2,0,B|95:77|95:77|147:46,1,95,2|0,0:0|0:0,0:0:0:0:
16,14,117827,1,8,0:0:0:0:
204,74,117981,1,0,0:0:0:0:
204,74,118058,1,0,0:0:0:0:
204,74,118135,6,0,B|268:97|268:97|322:90|322:90|395:137,1,190,2|8,0:0|0:0,0:0:0:0:
505,201,118597,1,2,0:0:0:0:
489,220,118674,1,0,0:0:0:0:
472,238,118751,1,2,0:0:0:0:
448,240,118827,1,0,0:0:0:0:
424,239,118904,1,0,0:0:0:0:
298,170,119058,2,0,L|344:201,1,47.5,10|0,0:0|0:0,0:0:0:0:
344,297,119212,2,0,L|297:265,1,47.5,2|0,0:0|0:0,0:0:0:0:
217,210,119366,6,0,B|142:288,1,95,2|0,0:0|0:0,0:0:0:0:
21,268,119673,1,8,0:0:0:0:
29,263,119750,1,0,0:0:0:0:
35,256,119827,2,0,L|74:215,1,47.5,2|0,0:0|0:0,0:0:0:0:
42,126,119981,2,0,L|3:167,1,47.5,2|0,0:0|0:0,0:0:0:0:
97,65,120135,2,0,L|135:95,1,47.5,2|0,0:0|0:0,0:0:0:0:
157,191,120289,2,0,L|95:145,1,47.5,10|0,0:0|0:0,0:0:0:0:
207,132,120443,2,0,L|261:171,1,47.5,2|0,0:0|0:0,0:0:0:0:
331,228,120597,5,2,1:2:0:0:
298,229,120673,1,0,0:0:0:0:
265,230,120751,1,2,1:2:0:0:
245,255,120827,1,0,0:0:0:0:
226,282,120904,2,0,B|206:321|206:321|206:396,1,95,8|2,0:0|0:0,0:0:0:0:
332,228,121211,5,2,1:2:0:0:
365,229,121287,1,0,0:0:0:0:
398,230,121365,1,2,1:2:0:0:
418,255,121441,1,0,0:0:0:0:
437,282,121519,2,0,B|481:337,1,47.5,8|2,0:0|0:0,0:0:0:0:
373,330,121674,2,0,L|336:285,1,47.5,2|0,0:0|0:0,0:0:0:0:
268,168,121827,6,0,B|202:166|202:166|160:200|160:200|70:202,1,190,6|8,0:0|0:0,0:0:0:0:
0,299,122289,1,0,0:0:0:0:
24,298,122366,1,0,0:0:0:0:
49,297,122443,2,0,B|100:297|100:297|138:254,1,95,2|0,0:0|0:0,0:0:0:0:
213,336,122750,2,0,B|264:335|264:335|302:378,1,95,8|0,0:0|0:0,0:0:0:0:
452,294,123058,5,2,0:0:0:0:
428,294,123135,1,0,0:0:0:0:
404,294,123212,1,0,0:0:0:0:
385,308,123289,1,0,0:0:0:0:
370,326,123366,1,8,0:0:0:0:
457,376,123520,1,2,0:0:0:0:
502,226,123674,5,2,0:0:0:0:
345,233,123828,1,0,0:0:0:0:
321,236,123905,1,0,0:0:0:0:
297,238,123981,2,0,L|236:241,1,47.5,10|0,0:0|0:0,0:0:0:0:
154,189,124134,2,0,L|211:187,1,47.5,2|0,0:0|0:0,0:0:0:0:
323,144,124289,6,0,B|255:147|255:147|223:123|223:123|132:125,1,190,2|8,0:0|0:0,0:0:0:0:
285,76,124751,1,2,0:0:0:0:
302,76,124827,1,0,0:0:0:0:
323,76,124904,2,0,L|387:75,1,47.5,2|0,0:0|0:0,0:0:0:0:
472,131,125058,2,0,L|416:132,1,47.5,2|0,0:0|0:0,0:0:0:0:
323,144,125212,2,0,L|335:194,1,47.5,8|0,0:0|0:0,0:0:0:0:
423,255,125366,2,0,L|409:193,1,47.5,2|0,0:0|0:0,0:0:0:0:
296,239,125520,5,4,0:0:0:0:
268,234,125597,1,0,0:0:0:0:
239,229,125674,1,8,0:0:0:0:
211,223,125751,1,0,0:0:0:0:
183,228,125827,1,8,0:0:0:0:
155,236,125904,1,0,0:0:0:0:
127,243,125981,1,4,0:0:0:0:
12,278,126135,6,0,L|15:218,1,59.375,2|0,0:0|0:0,0:0:0:0:
68,95,126289,2,0,L|72:155,1,59.375,6|0,0:0|0:0,0:0:0:0:
199,86,126443,2,0,L|139:89,1,59.375,10|0,0:0|0:0,0:0:0:0:
246,24,126597,2,0,L|305:27,1,59.375,14|0,0:0|0:0,0:0:0:0:
148,18,126751,6,0,B|140:86|140:86|161:120|161:120|153:210,1,190,6|8,0:0|0:0,0:0:0:0:
294,153,127212,1,0,0:0:0:0:
316,146,127289,1,0,0:0:0:0:
338,138,127366,2,0,L|440:107,1,95,2|0,0:0|0:0,0:0:0:0:
347,30,127674,1,8,0:0:0:0:
199,86,127827,1,0,0:0:0:0:
171,84,127904,1,0,0:0:0:0:
143,84,127981,6,0,B|93:86|93:86|36:113,1,95,2|0,0:0|0:0,0:0:0:0:
10,216,128289,1,8,0:0:0:0:
150,230,128442,1,0,0:0:0:0:
173,233,128519,1,0,0:0:0:0:
196,234,128596,2,0,B|243:241|243:241|295:289,1,95,2|0,0:0|0:0,0:0:0:0:
367,205,128904,2,0,L|323:161,1,47.5,10|0,0:0|0:0,0:0:0:0:
403,98,129058,2,0,L|436:131,1,47.5,2|0,0:0|0:0,0:0:0:0:
438,34,129212,6,0,B|370:31|370:31|338:55|338:55|256:54,1,190,2|8,0:0|0:0,0:0:0:0:
107,53,129674,1,0,0:0:0:0:
269,119,129827,2,0,L|301:167,1,47.5,2|0,0:0|0:0,0:0:0:0:
195,156,129981,2,0,L|163:108,1,47.5,2|0,0:0|0:0,0:0:0:0:
118,201,130135,2,0,L|150:249,1,47.5,10|0,0:0|0:0,0:0:0:0:
40,247,130289,2,0,L|8:199,1,47.5,2|0,0:0|0:0,0:0:0:0:
96,313,130443,5,6,0:0:0:0:
129,312,130520,1,0,0:0:0:0:
162,312,130597,1,4,0:0:0:0:
190,329,130674,1,0,0:0:0:0:
215,349,130751,2,0,B|257:374|257:374|306:373,1,95,8|2,0:0|0:0,0:0:0:0:
484,248,131058,5,6,0:0:0:0:
451,247,131135,1,0,0:0:0:0:
418,247,131212,1,4,0:0:0:0:
390,264,131289,1,0,0:0:0:0:
365,284,131366,2,0,B|323:309|323:309|274:308,1,95,8|2,0:0|0:0,0:0:0:0:
145,234,131674,6,0,B|222:237|222:237|261:222|261:222|340:225,1,190,6|8,0:0|0:0,0:0:0:0:
205,161,132135,1,0,0:0:0:0:
181,159,132212,1,0,0:0:0:0:
157,157,132289,2,0,B|113:151|113:151|79:108,1,95,2|0,0:0|0:0,0:0:0:0:
120,10,132597,1,8,0:0:0:0:
21,162,132751,1,0,0:0:0:0:
33,182,132827,1,0,0:0:0:0:
45,202,132904,6,0,B|72:241|72:241|70:293,1,95,2|0,0:0|0:0,0:0:0:0:
0,351,133212,1,8,0:0:0:0:
184,293,133366,1,0,0:0:0:0:
202,294,133443,1,0,0:0:0:0:
220,296,133520,2,0,B|263:300|263:300|318:357,1,95,2|0,0:0|0:0,0:0:0:0:
387,292,133827,2,0,L|355:256,1,47.5,10|0,0:0|0:0,0:0:0:0:
437,207,133981,2,0,L|469:243,1,47.5,2|0,0:0|0:0,0:0:0:0:
512,189,134135,6,0,B|473:136|473:136|413:136|413:136|380:68,1,190,2|8,0:0|0:0,0:0:0:0:
485,17,134597,1,2,0:0:0:0:
512,189,134751,1,0,0:0:0:0:
327,187,134904,1,2,0:0:0:0:
485,17,135058,1,8,0:0:0:0:
264,27,135212,1,2,0:0:0:0:
48,118,135366,6,0,L|147:111,1,95,4|8,0:0|0:0,0:0:0:0:
162,110,135597,1,0,0:0:0:0:
181,110,135674,1,8,0:0:0:0:
200,108,135751,1,0,0:0:0:0:
219,107,135827,1,0,0:0:0:0:
327,187,135981,5,4,0:0:0:0:
311,216,136058,1,0,0:0:0:0:
277,217,136135,1,8,0:0:0:0:
257,244,136212,1,0,0:0:0:0:
224,244,136288,1,12,0:0:0:0:
202,269,136365,1,0,0:0:0:0:
168,267,136442,1,0,0:0:0:0:
147,293,136519,1,0,0:0:0:0:
113,296,136597,5,4,0:0:0:0:
256,192,136673,12,4,139058,0:1:0:0:
