osu file format v14

[General]
AudioFilename: enyenimp3indir-Umit_Besen-Nikah_Masasi.mp3
AudioLeadIn: 0
PreviewTime: -1
Countdown: 1
SampleSet: None
StackLeniency: 0.7
Mode: 0
LetterboxInBreaks: 1
WidescreenStoryboard: 0

[Editor]
DistanceSpacing: 0.8
BeatDivisor: 4
GridSize: 4
TimelineZoom: 1

[Metadata]
Title:
TitleUnicode:
Artist:nikah masas
ArtistUnicode:nikah masası
Creator:denizozyurek
Version:
Source:
Tags:
BeatmapID:686912
BeatmapSetID:306979

[Difficulty]
HPDrainRate:5
CircleSize:5
OverallDifficulty:5
ApproachRate:5
SliderMultiplier:2
SliderTickRate:4

[Events]
//Background and Video events
//Break Periods
2,191575,196300
2,227450,236050
//Storyboard Layer 0 (Background)
//Storyboard Layer 1 (Fail)
//Storyboard Layer 2 (Pass)
//Storyboard Layer 3 (Foreground)
//Storyboard Sound Samples

[TimingPoints]
0,500,4,1,0,100,1,0

[HitObjects]
36,80,1250,5,0,0:0:0:0:
104,124,2250,1,0,0:0:0:0:
160,168,3375,1,0,0:0:0:0:
220,208,4375,1,0,0:0:0:0:
168,144,5875,6,0,P|288:144|304:152,7,100
284,160,8250,2,0,L|368:216,3,100
300,260,9500,2,0,L|208:248,6,50
120,240,10750,2,0,P|108:148|172:128,5,150
48,72,14500,1,0,0:0:0:0:
64,96,15250,1,0,0:0:0:0:
80,112,15875,1,0,0:0:0:0:
96,128,16625,1,0,0:0:0:0:
120,144,17250,1,0,0:0:0:0:
152,160,18000,1,0,0:0:0:0:
176,172,18625,1,0,0:0:0:0:
224,168,19375,1,0,0:0:0:0:
248,144,20000,1,0,0:0:0:0:
276,116,20625,1,0,0:0:0:0:
312,104,21375,1,0,0:0:0:0:
360,104,22000,1,0,0:0:0:0:
392,136,22750,1,0,0:0:0:0:
400,148,23375,1,0,0:0:0:0:
52,232,24375,2,0,L|160:232|156:232,6,100
212,248,27625,2,0,L|228:156,9,50
96,96,29500,2,0,L|264:108,1,150
176,176,31250,2,0,L|240:176,2,50
280,240,32250,2,0,L|348:248,2,50
328,176,33125,2,0,L|344:128,3,50
264,136,34125,2,0,P|196:112|160:116,3,100
56,232,36125,2,0,L|184:72,5,200
128,144,41625,6,2,L|228:136,1,100
76,256,43500,1,2,0:0:0:0:
148,240,44625,5,2,0:0:0:0:
188,184,45500,1,2,0:0:0:0:
228,156,46125,1,2,0:0:0:0:
264,120,46875,1,2,0:0:0:0:
296,96,47625,1,2,0:0:0:0:
360,120,48375,1,2,0:0:0:0:
384,160,49000,1,2,0:0:0:0:
16,184,51250,2,2,L|144:176,3,100
168,180,52500,2,2,L|276:164,3,100
288,212,53875,2,2,L|388:236,2,100
144,320,55750,2,2,B|132:192|132:196,7,100
128,104,58125,2,2,L|240:100|240:100,3,100
308,112,59500,2,2,L|392:232,4,100
356,312,61000,2,2,L|264:304,8,50
124,256,62750,2,2,L|160:160,3,100
256,192,64750,12,2,65375,0:0:0:0:
76,96,67625,5,0,0:0:0:0:
112,128,68375,1,0,0:0:0:0:
128,148,69625,1,0,0:0:0:0:
148,172,70375,1,0,0:0:0:0:
160,188,71125,1,0,0:0:0:0:
196,220,71875,1,0,0:0:0:0:
232,244,72625,1,0,0:0:0:0:
240,88,74250,2,0,L|356:168,4,100
316,272,75875,2,0,L|372:204,2,50
424,160,76875,2,0,L|344:96,1,100
240,308,78625,2,0,L|76:312,1,150
160,196,79750,2,0,L|216:120,3,50
280,84,80875,2,0,L|392:188,1,150
404,320,82000,2,0,L|188:284,1,200
104,300,83375,6,0,L|248:212,1,150
228,144,84625,2,0,P|320:200|348:228,4,100
312,104,87250,2,0,L|160:268,1,200
392,264,88625,2,0,L|224:204,1,150
236,228,91000,2,0,L|168:176,3,50
112,160,92000,2,0,L|216:104,2,100
236,104,93000,2,0,L|340:120,2,100
372,152,94000,2,0,L|420:224,2,50
428,260,94750,2,0,L|388:312,5,50
352,316,95750,2,0,L|276:328,3,50
216,324,96625,2,0,P|160:304|44:288,2,150
148,296,100250,1,0,0:0:0:0:
76,264,102375,1,0,0:0:0:0:
48,224,103250,1,0,0:0:0:0:
64,172,104125,1,0,0:0:0:0:
92,144,105000,1,0,0:0:0:0:
236,68,106750,5,0,0:0:0:0:
240,108,107375,1,0,0:0:0:0:
240,148,108250,1,0,0:0:0:0:
240,200,109125,1,0,0:0:0:0:
236,272,110375,1,0,0:0:0:0:
404,168,111250,1,0,0:0:0:0:
348,168,112125,1,0,0:0:0:0:
292,168,113000,1,0,0:0:0:0:
28,164,114375,5,0,0:0:0:0:
72,164,115000,1,0,0:0:0:0:
132,164,115875,1,0,0:0:0:0:
208,160,116750,1,0,0:0:0:0:
368,160,118625,5,0,0:0:0:0:
328,200,119625,1,0,0:0:0:0:
288,244,120375,1,0,0:0:0:0:
240,288,121500,1,0,0:0:0:0:
184,336,122250,1,0,0:0:0:0:
64,100,124000,6,0,L|160:96,3,50
168,108,125500,2,0,L|232:100,2,50
272,104,126250,2,0,L|344:104,2,50
368,104,127000,2,0,L|432:112,3,50
432,136,128875,2,0,L|432:196,4,50
424,224,130750,2,0,L|428:288,3,50
424,324,131750,2,0,L|364:320,4,50
340,320,132875,2,0,L|264:328,4,50
244,320,133875,2,0,L|152:312,5,50
120,316,134875,2,0,L|48:320,3,50
36,268,135875,2,0,L|40:192,3,50
48,168,136875,2,0,L|40:112,3,50
48,68,141125,2,0,B|144:68|120:72|96:68|80:68|80:68,12,100
256,68,144875,2,0,P|308:72|316:72,6,50
384,76,147000,2,0,L|388:136,15,50
364,208,151125,1,0,0:0:0:0:
364,244,151875,1,0,0:0:0:0:
364,208,152625,1,0,0:0:0:0:
364,236,153250,1,0,0:0:0:0:
368,212,153875,1,0,0:0:0:0:
364,236,154500,1,0,0:0:0:0:
368,216,155125,1,0,0:0:0:0:
368,240,155750,1,0,0:0:0:0:
124,136,156625,1,0,0:0:0:0:
176,136,158625,1,0,0:0:0:0:
212,120,161125,2,0,L|280:120,4,50
276,116,163125,1,0,0:0:0:0:
296,116,164500,2,0,P|392:112|396:112,3,100
344,144,166875,1,0,0:0:0:0:
340,160,168375,2,0,L|344:216,7,50
368,240,170750,1,0,0:0:0:0:
308,248,171500,1,0,0:0:0:0:
240,244,172375,1,0,0:0:0:0:
168,244,173125,1,0,0:0:0:0:
108,248,173875,1,0,0:0:0:0:
80,204,174500,1,0,0:0:0:0:
76,164,175250,5,0,0:0:0:0:
80,120,175875,1,0,0:0:0:0:
104,96,176500,1,0,0:0:0:0:
180,96,177250,5,0,0:0:0:0:
220,104,177875,1,0,0:0:0:0:
276,112,178625,1,0,0:0:0:0:
340,144,180000,5,0,0:0:0:0:
360,172,180750,1,0,0:0:0:0:
372,208,181375,1,0,0:0:0:0:
372,244,182125,1,0,0:0:0:0:
340,268,182750,1,0,0:0:0:0:
280,288,183500,1,0,0:0:0:0:
44,88,186125,2,0,L|344:88,1,300
48,236,188250,2,0,L|428:232,1,350
80,144,190125,2,0,B|400:144|360:128,2,250
56,128,197500,6,0,L|196:124,2,100
200,104,198750,2,0,L|312:104,1,100
288,88,199875,2,0,L|412:96,1,100
440,160,200875,2,0,L|432:216,2,50
404,312,201750,2,0,L|316:312,3,50
264,312,202625,2,0,P|212:320|168:312,6,50
124,184,206625,2,0,B|200:176|192:176,15,50
364,176,212375,6,0,L|312:172,5,50
264,264,213750,2,0,L|264:188,4,50
256,80,215000,2,0,L|260:144,4,50
132,188,216250,2,0,L|232:184,2,100
248,172,218875,1,0,0:0:0:0:
248,172,219500,1,0,0:0:0:0:
252,176,220250,1,0,0:0:0:0:
252,176,220875,1,0,0:0:0:0:
252,176,221625,1,0,0:0:0:0:
252,176,222375,1,0,0:0:0:0:
252,176,222875,1,0,0:0:0:0:
252,176,223375,1,0,0:0:0:0:
252,176,223625,1,0,0:0:0:0:
252,176,224125,1,0,0:0:0:0:
256,192,226875,12,0,227250,0:0:0:0:
164,128,237250,6,0,L|280:128,2,100
352,228,238750,2,0,L|204:232,2,100
128,96,240250,2,0,L|280:96,1,150
348,260,241500,2,0,L|212:256,2,100
136,140,243250,1,0,0:0:0:0:
196,160,244125,1,0,0:0:0:0:
240,176,245000,1,0,0:0:0:0:
280,200,246000,1,0,0:0:0:0:
320,224,247000,1,0,0:0:0:0:
376,192,247750,1,0,0:0:0:0:
396,160,248625,1,0,0:0:0:0:
400,128,249375,1,0,0:0:0:0:
360,124,250000,1,0,0:0:0:0:
312,108,250750,1,0,0:0:0:0:
12,216,252250,6,0,L|192:220,1,150
0,140,253500,2,0,L|128:136,2,100
28,84,254625,2,0,L|128:80,2,100
32,308,256125,2,0,L|140:304,2,100
464,116,257375,2,0,L|372:112,3,50
480,216,258500,2,0,L|344:208,2,100
472,308,259750,2,0,L|348:304,2,100
216,48,261125,2,0,L|224:116,4,50
236,360,262375,2,0,L|228:252,3,100
256,192,264125,12,0,267000,0:0:0:0:
120,128,267625,5,0,0:0:0:0:
172,152,268750,1,0,0:0:0:0:
216,168,269750,1,0,0:0:0:0:
252,192,270500,1,0,0:0:0:0:
292,208,271375,1,0,0:0:0:0:
344,216,272250,1,0,0:0:0:0:
384,176,273125,1,0,0:0:0:0:
76,132,274500,6,0,L|208:292,1,200
248,280,275500,2,0,L|368:160,1,150
354,173,275875,2,0,L|228:76,1,150
228,80,276625,2,0,L|120:196,1,150
136,200,278000,2,0,L|272:208,3,100
400,184,279375,2,0,L|300:188,1,100
292,56,279750,1,0,0:0:0:0:
176,220,280375,1,0,0:0:0:0:
212,244,281125,1,0,0:0:0:0:
236,256,282125,1,0,0:0:0:0:
256,268,283000,1,0,0:0:0:0:
280,272,283500,1,0,0:0:0:0:
308,276,284375,1,0,0:0:0:0:
328,264,285000,1,0,0:0:0:0:
352,244,285750,1,0,0:0:0:0:
376,212,286625,1,0,0:0:0:0:
384,176,287500,1,0,0:0:0:0:
372,144,288125,1,0,0:0:0:0:
256,192,290250,12,0,297375,0:0:0:0:
