osu file format v6

[General]
AudioFilename: .mp3
AudioLeadIn: 0
PreviewTime: -1
Countdown: 1
SampleSet: Soft
StackLeniency: 0.7
Mode: 0
LetterboxInBreaks: 1

[Editor]
DistanceSpacing: 0.800000011920929
BeatDivisor: 8
GridSize: 32

[Metadata]
Title:Nagekinoki
Artist:nidera
Creator:Premo
Version:lol
Source:
Tags:

[Difficulty]
HPDrainRate:10
CircleSize:6
OverallDifficulty:8
SliderMultiplier:1.4
SliderTickRate:1

[Events]
//Background and Video events
0,0,"nageki_no_ki.jpg"
//Break Periods
//Storyboard Layer 0 (Background)
//Storyboard Layer 1 (Fail)
//Storyboard Layer 2 (Pass)
//Storyboard Layer 3 (Foreground)
//Storyboard Sound Samples
//Background Colour Transformations
3,100,163,162,255

[TimingPoints]
0,214.285714285714,4,2,0,100,1,0

[HitObjects]
160,128,8544,2,0,B|192:160,5,35
64,320,9080,5,0
256,320,9133,1,0
448,320,9214,1,0
352,128,10017,6,0,B|320:160,3,35
64,64,10580,5,0
256,64,10633,1,0
448,64,10714,1,0
32,320,10982,1,0
256,320,11062,1,0
480,320,11142,1,0
64,256,11383,1,4
416,128,12107,2,0,B|384:160,5,35
96,96,12589,2,0,B|128:160,2,70
416,256,13044,2,0,B|384:288,5,35
416,256,13419,2,0,B|480:288,2,70
96,256,13848,2,0,B|64:288,5,35
96,256,14249,2,0,B|160:288,2,70
448,320,14651,5,0
448,320,14678,1,0
64,320,14785,1,0
64,320,14812,1,0
512,256,14866,1,0
512,256,14919,1,0
0,256,14973,1,0
0,256,14999,1,0
448,256,15080,1,0
448,256,15107,5,0
32,256,15267,1,0
32,256,15294,1,0
256,288,15428,1,0
256,288,15482,1,0
224,256,15642,1,0
224,256,15669,1,0
288,256,15830,1,0
288,256,15857,1,0
256,224,16044,5,0
256,224,16098,1,0
288,192,16205,1,0
288,192,16232,1,0
224,192,16419,1,0
224,192,16473,1,0
256,160,16580,1,0
256,160,16633,1,0
96,320,16767,1,0
96,320,16794,5,0
448,320,16928,1,0
448,320,16955,1,0
96,256,17116,1,0
96,256,17142,1,0
448,256,17276,1,0
448,256,17330,5,0
448,192,17357,1,0
352,192,17410,1,0
448,160,17544,1,0
352,160,17732,1,0
448,128,17812,1,0
352,128,17919,1,0
128,192,18080,1,0
64,192,18160,1,0
128,160,18294,5,0
64,160,18482,1,0
128,128,18562,1,0
64,128,18696,1,0
96,288,18857,1,0
128,288,18937,1,0
160,288,19044,1,0
256,288,19205,1,0
352,288,19285,1,0
384,288,19419,5,0
416,288,19580,1,0
416,192,19687,1,0
416,160,19821,1,0
416,128,19955,1,0
320,192,20062,1,0
320,160,20169,1,0
320,128,20330,1,0
224,192,20410,1,0
224,160,20491,5,0
224,128,20705,1,0
224,256,20785,1,0
224,288,20892,1,0
224,320,21080,1,0
320,256,21160,1,0
320,288,21241,1,0
320,320,21455,1,0
384,288,21562,1,0
320,224,21616,5,0
256,160,21723,1,0
256,64,21803,1,0
288,96,21830,1,0
320,128,21910,1,0
352,160,21991,1,0
384,192,22017,1,0
416,224,22071,1,0
448,256,22151,1,0
480,288,22178,1,0
480,224,22258,5,0
448,192,22339,1,0
416,160,22366,1,0
384,128,22446,1,0
352,96,22526,1,0
320,64,22553,1,0
288,32,22633,1,0
224,96,22714,1,0
192,128,22741,1,0
160,160,22821,5,0
128,192,22901,1,0
96,224,22928,1,0
64,256,22982,1,0
32,288,23062,1,0
32,320,23116,1,0
64,320,23169,1,0
96,288,23249,1,0
128,256,23303,1,0
160,224,23357,5,0
192,192,23437,1,0
224,160,23491,1,0
256,128,23544,1,0
288,96,23624,1,0
320,128,23678,1,0
352,160,23732,1,0
384,192,23812,1,0
416,224,23866,1,0
448,256,23919,5,0
480,288,23999,1,0
448,320,24026,1,0
416,288,24107,1,0
384,256,24187,1,0
352,224,24241,1,0
320,192,24294,1,0
288,160,24374,1,0
256,192,24428,1,0
224,224,24482,5,0
192,256,24562,1,0
160,288,24589,1,0
128,320,24669,1,0
96,352,24749,1,0
64,320,24776,1,0
96,288,24857,1,0
128,256,24937,1,0
160,224,24964,1,0
192,192,25017,5,0
256,192,25794,5,4
256,256,26169,2,0,B|256:288,4,17.5
320,64,26598,1,2
352,96,26732,2,2,B|448:128,2,87.5
64,64,27321,1,2
64,96,27455,2,2,B|64:192,2,87.5
256,288,28017,1,2
288,256,28151,2,2,B|352:192,2,87.5
224,64,28767,1,2
224,96,28901,2,2,B|160:160,2,87.5
128,192,29464,5,2
128,224,29598,2,2,B|224:256,2,87.5
224,256,30294,1,2
224,224,30428,2,2,B|320:192,2,87.5
288,160,31017,1,2
256,128,31151,2,2,B|192:64,2,87.5
160,96,31767,1,2
128,96,31901,2,2,B|128:192,2,87.5
160,192,32544,1,2
192,192,32678,2,2,B|192:96,2,87.5
224,96,33294,5,2
256,96,33428,2,2,B|256:192,2,87.5
288,192,34017,1,2
320,160,34151,2,2,B|320:64,2,87.5
320,64,34741,1,2
352,96,34875,2,2,B|448:128,2,87.5
320,64,35437,1,2
352,96,35571,2,2,B|288:160,2,87.5
320,64,36214,1,2
352,96,36348,2,2,B|448:128,2,87.5
32,256,37044,5,0
96,256,37098,1,0
160,256,37124,1,0
224,256,37151,1,0
288,256,37205,1,0
352,256,37232,1,0
416,256,37258,1,0
480,256,37285,1,0
480,192,37339,1,0
416,192,37366,5,0
352,192,37392,1,0
288,192,37419,1,0
224,192,37446,1,0
160,192,37473,1,0
96,192,37526,1,0
32,192,37553,1,0
32,128,37580,1,0
96,128,37607,1,0
256,128,38142,5,8
288,160,38517,1,0
320,192,38598,1,0
224,160,38678,1,0
192,192,38785,1,0
288,224,38973,1,0
256,256,39053,1,0
224,224,39133,1,0
192,256,39321,1,0
160,288,39401,5,0
128,256,39508,1,0
96,224,39696,1,0
128,192,39776,1,0
96,160,39857,1,0
96,128,40044,1,0
416,128,40124,1,0
448,160,40232,1,0
416,192,40392,1,0
448,224,40499,5,0
416,256,40580,1,0
448,288,40767,1,0
160,288,40874,1,0
128,256,40955,1,0
160,224,41142,1,0
128,192,41249,1,0
160,160,41303,1,0
128,128,41517,1,0
448,128,41598,1,0
480,160,41705,5,0
448,192,41919,1,0
480,224,41999,1,0
448,256,42080,1,0
480,288,42267,1,0
96,288,42374,1,0
64,256,42455,1,0
96,224,42642,1,0
64,192,42723,1,0
96,160,42803,1,0
256,208,43017,12,0,44116
288,160,44571,5,0
320,192,44652,1,0
224,160,44732,1,0
192,192,44839,1,0
288,224,44973,1,0
256,256,45107,1,0
224,224,45187,1,0
192,256,45375,1,0
160,288,45455,5,0
128,256,45562,1,0
96,224,45750,1,0
128,192,45830,1,0
96,160,45911,1,0
96,128,46098,1,0
416,128,46178,1,0
448,160,46286,1,0
416,192,46446,1,0
448,224,46553,5,0
416,256,46634,1,0
448,288,46821,1,0
160,288,46928,1,0
128,256,47009,1,0
160,224,47196,1,0
128,192,47303,1,0
160,160,47357,1,0
128,128,47571,1,0
448,128,47652,5,0
480,160,47759,1,0
448,192,47973,1,0
480,224,48053,1,0
448,256,48134,1,0
480,288,48321,1,0
96,288,48428,1,0
64,256,48509,1,0
96,224,48696,1,0
64,192,48777,5,0
96,160,48857,1,0
256,208,49044,12,8,50223
0,320,50571,5,0
512,320,50678,1,0
0,256,51267,1,0
512,256,51428,1,0
0,224,52017,1,0
512,224,52178,1,0
0,160,52794,1,0
512,160,52955,1,0
0,128,53517,1,0
512,128,53678,5,0
0,64,54267,1,0
512,64,54428,1,0
0,32,55044,1,0
512,32,55178,1,0
0,320,55794,1,0
512,320,55955,1,0
0,288,56544,1,0
512,288,56705,1,0
0,224,57294,5,0
512,224,57455,1,0
96,192,58044,1,0
128,160,58285,1,2
384,288,58499,1,0
384,288,58553,1,0
384,288,58633,1,0
352,256,58687,1,0
352,256,58794,1,0
352,256,58820,1,0
320,224,58954,1,0
320,224,58981,1,0
320,224,59008,1,0
288,192,59062,1,0
288,192,59115,1,0
288,192,59142,1,0
256,160,59222,1,0
256,160,59249,1,0
256,160,59276,1,0
224,128,59303,5,0
192,96,59383,1,0
224,128,59410,1,0
224,128,59437,1,0
192,96,59517,1,0
192,96,59544,1,0
160,64,59624,1,0
160,64,59678,1,0
160,64,59731,1,0
192,96,59785,1,0
192,96,59812,1,0
192,96,59838,1,0
224,128,59919,1,0
224,128,59945,1,0
224,128,59999,1,0
256,160,60026,1,0
256,160,60079,1,0
256,160,60213,1,0
288,192,60240,1,0
288,192,60347,5,0
288,192,60401,1,0
320,224,60428,1,0
320,224,60481,1,0
320,224,60588,1,0
352,256,60615,1,0
352,256,60749,1,0
352,256,60776,1,0
320,224,60883,1,0
320,224,60910,1,4
256,208,61098,12,8,62410
0,320,62651,5,0
512,320,63321,1,0
0,32,64098,1,0
512,32,64821,1,0
0,320,65517,1,0
512,320,66241,1,0
0,32,67071,1,0
512,32,67767,1,0
256,192,68491,1,0
0,320,69348,5,0
256,320,69508,1,0
512,320,69696,1,0
256,192,70071,1,8
0,32,70821,1,0
256,32,71035,1,0
512,32,71196,1,0
0,352,71571,1,0
512,352,72294,1,0
0,64,73017,5,0
512,64,73767,1,8
0,352,74544,1,0
512,32,75294,1,0
512,352,76017,1,0
0,32,76794,1,0
0,352,77544,1,0
512,32,78267,1,0
512,352,79017,1,0
0,32,79767,5,0
0,352,80491,1,0
96,192,80678,1,0
512,32,80892,1,0
512,352,81294,1,0
384,256,81455,1,0
256,192,81642,1,0
192,224,82017,1,0
128,288,82178,1,0
64,352,82339,5,0
32,32,82767,1,0
256,32,82955,1,0
512,32,83116,1,0
0,320,83544,1,0
512,320,84294,1,0
0,192,85071,1,0
512,192,85821,1,8
256,32,86517,1,0
256,64,86678,5,0
256,96,86839,1,0
256,128,87026,1,0
256,160,87214,1,0
256,192,87401,1,0
256,224,87589,1,0
256,256,87776,1,0
256,288,88071,1,0
256,288,88232,1,0
256,256,88366,5,0
256,224,88553,1,0
256,192,88741,1,0
256,160,88928,1,0
256,128,89089,1,0
256,128,89276,1,0
32,320,89571,1,0
256,320,89705,1,0
480,320,89892,1,0
480,288,90080,5,0
256,288,90294,1,0
32,288,90482,1,0
64,256,90669,1,0
224,256,90830,1,0
288,256,91044,1,0
320,224,91205,1,0
320,192,91392,1,0
320,160,91580,1,0
320,128,91794,5,0
320,96,91955,1,0
320,64,92116,1,0
320,64,92303,1,0
320,96,92544,1,0
320,128,92705,1,0
320,160,92866,1,0
320,192,93053,1,0
352,224,93267,1,0
384,256,93482,5,0
416,288,93642,1,0
448,320,93803,1,0
32,320,94044,1,0
512,320,94205,1,0
32,288,94392,1,0
512,288,94580,1,0
32,256,94767,1,0
32,224,94955,1,0
512,256,95116,5,0
480,224,95276,1,0
480,192,95517,1,0
480,160,95705,1,0
480,128,95892,1,0
480,96,96080,1,0
480,64,96294,1,0
480,32,96482,1,0
480,32,96642,1,0
480,64,96803,5,0
480,96,97017,1,0
480,128,97205,1,0
480,160,97392,1,0
480,192,97607,1,0
32,192,97794,1,0
512,224,97955,1,0
0,224,98116,1,0
384,32,98303,1,0
416,64,98464,5,0
384,96,98517,1,0
352,128,98544,1,0
384,160,98571,1,0
416,192,98624,1,0
384,224,98651,1,0
352,256,98705,1,0
320,288,98732,1,0
352,320,98758,1,0
384,352,98812,5,0
352,320,98839,1,0
320,288,98866,1,0
352,256,98946,1,0
384,224,98973,1,0
416,192,99026,1,0
384,160,99053,1,0
352,128,99107,1,0
384,96,99267,1,0
416,64,99320,5,0
384,32,99347,1,0
352,64,99374,1,0
320,96,99427,1,0
288,64,99454,1,0
256,96,99508,1,0
288,128,99535,1,0
256,160,99561,1,0
288,192,99615,1,0
256,224,99642,5,0
288,256,99669,1,0
256,288,99749,1,0
288,320,99776,1,0
256,352,99829,1,0
224,320,99856,1,0
192,288,99910,1,0
160,256,99964,1,0
192,224,100017,1,0
160,224,100044,5,0
128,192,100071,1,0
96,192,100124,1,0
96,224,100151,1,0
96,256,100205,1,0
96,288,100232,1,0
96,320,100258,1,0
64,352,100312,1,0
32,320,100339,1,0
32,288,100446,5,0
32,256,100473,1,0
32,224,100526,1,0
32,192,100553,1,0
32,160,100607,1,0
32,128,100687,1,0
32,96,100740,1,0
32,64,100767,1,0
32,32,100794,1,0
64,32,100847,5,0
64,64,100874,1,0
64,96,100928,1,0
64,128,100955,1,0
64,160,100981,1,0
64,192,101035,1,0
64,224,101062,1,0
64,256,101089,1,0
64,288,101169,1,0
64,320,101196,5,0
96,288,101249,1,0
128,256,101276,1,0
160,288,101330,1,0
192,320,101410,1,0
224,352,101463,1,0
256,320,101490,1,0
288,288,101517,1,0
320,256,101570,1,0
352,224,101597,5,0
384,256,101651,1,0
416,288,101678,1,0
448,320,101704,1,0
480,352,101758,1,0
480,320,101785,1,0
480,288,101812,1,0
480,256,101892,1,0
480,224,101919,1,0
480,192,101972,5,0
480,160,101999,1,0
480,128,102053,1,0
480,96,102161,1,0
480,64,102214,1,0
480,32,102241,1,0
448,64,102268,1,0
448,96,102321,1,0
448,128,102348,1,0
448,160,102402,5,0
448,192,102429,1,0
448,224,102455,1,0
448,256,102509,1,0
416,224,102536,1,0
416,192,102563,1,0
416,160,102643,1,0
416,128,102670,1,0
416,96,102723,1,0
416,64,102750,5,0
384,96,102804,1,0
384,128,102884,1,0
384,160,102937,1,0
384,192,102964,1,0
256,192,102991,1,0
256,160,103044,1,0
256,128,103071,1,0
256,96,103125,1,0
224,64,103152,5,0
224,96,103178,1,0
224,128,103232,1,0
224,160,103259,1,0
224,192,103286,1,0
224,224,103366,1,0
192,64,103393,1,0
192,96,103446,1,0
192,128,103473,1,0
192,160,103527,5,0
192,192,103554,1,0
192,224,103607,1,0
160,256,103634,1,0
160,224,103661,1,0
160,192,103714,1,0
160,160,103741,1,0
160,128,103795,1,0
160,96,103822,1,0
160,64,103848,1,0
160,32,103902,5,0
384,32,103929,1,0
384,64,103956,1,0
384,96,104036,1,0
384,128,104063,1,0
384,160,104116,1,0
384,192,104143,1,0
416,224,104197,1,0
416,192,104330,1,0
416,192,104383,5,0
416,160,104410,1,0
416,128,104437,1,0
416,96,104490,1,0
416,64,104517,1,0
416,32,104571,1,0
448,32,104598,1,0
448,64,104624,1,0
448,96,104678,1,0
448,128,104705,5,0
448,160,104732,1,0
448,192,104812,1,0
448,224,104839,1,0
448,256,104892,1,0
448,288,104919,1,0
512,320,104973,1,0
0,320,105107,1,0
64,288,105160,1,0
64,256,105187,5,0
64,224,105214,1,0
64,192,105267,1,0
64,160,105294,1,0
64,128,105348,1,0
64,96,105375,1,0
64,64,105401,1,0
64,32,105455,1,0
448,32,105482,1,0
416,64,105509,5,0
384,96,105589,1,0
352,128,105616,1,0
320,160,105669,1,0
288,192,105696,1,0
256,224,105750,1,4
256,128,106098,1,0
256,128,106285,1,0
224,96,106821,1,0
192,64,106982,5,0
192,64,107491,1,0
0,192,107651,1,0
512,192,108267,1,0
0,32,108428,1,0
512,32,109017,1,0
0,320,109178,1,0
512,352,109741,1,0
256,192,109901,1,0
32,320,110464,5,0
480,320,110624,1,0
0,288,111214,1,0
512,288,111374,1,0
32,256,111964,1,0
480,256,112124,1,0
0,192,112714,1,0
512,192,112874,1,0
32,160,113437,1,8
480,160,113785,5,0
32,224,114107,1,8
480,224,114401,1,0
32,256,114723,1,8
480,256,115017,1,0
32,288,115366,1,8
480,288,115633,1,0
32,320,115928,1,8
480,320,116223,1,0
32,352,116383,5,8
480,352,116598,1,4
256,208,116651,12,0,117803
256,96,118124,5,0
288,128,118205,1,0
320,160,118312,1,0
352,192,118392,1,0
320,224,118446,1,0
288,256,118499,1,0
256,288,118580,1,0
224,256,118633,1,0
192,224,118714,1,0
160,192,118767,5,0
192,160,118848,1,0
224,128,118928,1,0
256,192,118982,1,0
256,192,119062,1,0
256,192,119142,1,0
256,192,119196,1,0
256,192,119276,1,0
256,192,119383,1,0
256,192,119464,5,0
256,192,119517,1,0
256,208,119651,12,0,121794
